<?xml version="1.0" standalone="no"?>
<!DOCTYPE svg PUBLIC "-//W3C//DTD SVG 1.1//EN" "http://www.w3.org/Graphics/SVG/1.1/DTD/svg11.dtd" >
<!--
2013-9-30: Created.
-->
<svg>
<metadata>
Created by iconfont
</metadata>
<defs>

<font id="iconfont" horiz-adv-x="1024" >
  <font-face
    font-family="iconfont"
    font-weight="500"
    font-stretch="normal"
    units-per-em="1024"
    ascent="896"
    descent="-128"
  />
    <missing-glyph />
    
    <glyph glyph-name="qicaixiangguanli" unicode="&#59103;" d="M904.71113008 529.52681435v26.96782127l-110.97817696 192.37874346c-9.69350258 17.2743187-26.96782128 26.96782128-46.85192912 26.96782127-4.10109725 1.98841078-9.69350258 1.98841078-13.79459982 1.9884108H286.6882029c-4.10109725 0-7.58081612 0-11.68191335-1.9884108-19.38700515 0-37.15842655-11.68191337-46.85192913-26.96782127l-110.48107425-191.88164077v-524.81617161c0-23.36382672 19.38700515-42.75083188 42.75083188-42.75083188h701.41190447c23.36382672 0 40.7624211 17.2743187 42.75083188 40.76242109V529.52681435zM747.3781267 733.71174685l89.602761-171.00332753c1.98841078-1.98841078 1.98841078-5.59240533 4.10109725-7.58081612H537.22796183V733.71174685h210.15016487z m-462.67833458 0h200.08383526v-178.70841933H178.81691781l105.88287431 178.70841933z m550.2926848-684.13758578L175.21292325 44.478858429999946V508.1513984h676.55676967v-463.17543728l-16.777216 4.59819995z m0 0M708.23128937 306.07915234999996c-1.11848107 14.16742685-5.84095668 23.9852051-23.9852051 26.47071858-33.67870768 4.72247562-48.34323722 35.66711845-35.04574009 67.73024237 1.36703242 3.10689185 2.8583405 6.08950803 4.72247561 9.94205393-1.24275675 3.72827022-3.10689185 7.2079891-5.46812966 10.31488095-21.49969162 21.12686459-47.72185885 36.53704818-76.55381523 45.23634537-8.45074583 2.48551348-14.04315117-1.61558377-19.26272948-7.82936747-28.33485369-33.554432-54.30846957-33.554432-82.02194489 0-5.71668101 6.95943775-10.93625932 11.18481067-20.6297619 7.70509179-26.47071858-8.94784853-50.8287507-23.23955105-71.58278826-42.12945352-5.84095668-5.46812965-8.45074583-10.5634323-5.09530264-19.51128083 15.41018358-41.13524812 3.3554432-63.2563181-39.27111301-72.3284423-10.43915662-2.23696213-15.41018358-7.2079891-17.27431869-17.02576735-4.47392427-23.4881024-4.72247562-47.4733075-0.86992972-70.9614099 2.23696213-14.16742685 7.95364315-21.12686459 23.23955106-22.9909997 33.80298335-4.22537292 50.70447502-35.04574009 36.16422115-66.11465862-5.46812965-11.55763769-3.3554432-18.39279977 5.34385398-26.3464429 17.77142139-16.40438898 38.64973463-27.58919965 60.52225328-37.28270222 13.54604848-5.96523235 22.86672403-5.34385398 32.43595093 8.82357286 17.39859437 25.47651318 53.31426418 29.20478341 69.96720451 6.21378371 16.65294032-22.9909997 31.56602122-19.01417813 51.57440473-9.19639988 15.16163223 7.70509179 29.57761043 16.777216 43.1236589 26.96782127 12.55184308 9.19639988 16.15583763 18.76562678 8.6992972 34.67291306-11.55763769 24.73085915 3.97682157 57.66391277 30.1989888 60.64652895 27.3406483 3.10689185 31.44174555 19.01417813 31.69029688 40.14104273 0.4971027 15.53445925 0.62137837 31.31746987-0.62137836 46.85192912z m-35.04574009-40.51386974c0.62137837-10.93625932-3.47971888-16.65294032-14.66452955-20.50548623-36.28849683-12.9246701-53.06571283-43.24793458-44.24213996-79.41215573 2.48551348-10.19060528-0.12427568-15.65873493-8.07791882-20.75403757s-16.65294032-9.19639988-24.60658347-14.29170251c-8.57502151-5.71668101-14.78880522-4.72247562-22.86672403 2.8583405-28.70768071 27.21637262-64.74762619 27.09209695-93.4553069 0-7.82936747-7.33226477-14.04315117-9.44495123-23.11527538-3.60399455-8.94784853 5.96523235-18.14424842 11.55763769-27.46492397 16.90149167-7.45654045 4.34964859-7.70509179 9.32067555-5.46812965 17.39859438 9.32067555 33.18160498-6.46233505 68.60017209-39.02256167 78.54222601-21.37541595 6.46233505-21.99679431 19.38700515-21.12686459 35.54284279 0.74565405 11.68191337-3.60399455 24.97941049 14.91308089 30.1989888 37.03415088 10.68770797 54.80557227 43.99358862 44.73924267 81.77339353-1.98841078 7.45654045-0.99420539 11.43336202 4.84675128 16.03156195 11.55763769 8.57502151 24.10948077 15.65873493 37.4069779 21.25114027 6.83516208 0.99420539 9.32067555-4.10109725 12.67611875-7.33226477 31.69029689-27.46492397 64.74762619-27.46492397 95.31944202 0.9942054 7.33226477 6.83516208 13.17322145 8.45074583 21.49969162 2.98261617 6.33805938-4.34964859 13.17322145-7.82936747 19.75983217-11.43336201 11.68191337-6.33805938 17.15004302-12.9246701 12.92467011-28.58340503-8.45074583-30.82036717 12.30329173-65.61755591 43.74503727-74.8139558 13.79459982-3.8525459 16.90149168-10.81198365 16.28011331-22.86672403-0.37282702-6.95943775-0.37282702-13.9188755 0-20.87831324zM513.36703242 358.77203817c-43.6207616 0.62137837-79.78498275-33.80298335-81.27629085-77.29946928-1.24275675-42.62655621 34.67291307-80.0335341 77.6722963-81.0277395 42.00517783-0.86992972 80.15780978 36.16422115 80.77918815 78.41795034 0.4971027 41.01097245-36.03994548 78.66650169-77.1751936 79.90925844z m-2.11268647-125.39415515c-25.10368617 0.86992972-45.23634537 20.87831325-46.23055075 45.98199941-0.12427568 23.9852051 22.12106998 46.4791021 45.85772373 46.23055075 24.73085915-0.24855135 46.35482643-21.87251863 46.35482644-45.9819994-0.74565405-24.97941049-20.87831325-45.23634537-45.98199942-46.23055076z"  horiz-adv-x="1024" />

    
    <glyph glyph-name="tongxunjiance" unicode="&#59102;" d="M511.30094933 831.39242667C291.33300622 831.39242667 112.37603555 652.4354559999999 112.37603555 432.46751289c0-126.76118755 63.38059378-246.06583467 164.04388978-324.35950934l7.45654045-3.72827022 26.09789155 59.65232356-3.72827022 3.72827022c-85.75021511 63.38059378-130.48945778 160.31561955-130.48945778 268.435456 0 186.41351111 152.85907911 335.54432 335.54432 335.54432s335.54432-152.85907911 335.54432-335.54432c0-104.39156622-48.46751289-201.326592-130.48945778-268.435456l-3.72827022-3.72827022 26.09789156-59.65232356 7.45654044 3.72827022c104.39156622 74.56540445 164.04388978 197.59832178 164.04388978 324.35950934 0 219.96794311-178.95697067 398.92491378-398.92491378 398.92491378z m0 0M559.76846222 357.90210845c26.09789155 18.64135111 41.01097245 44.73924267 41.01097245 74.56540444 0 48.46751289-41.01097245 89.47848533-89.47848534 89.47848533-48.46751289 0-89.47848533-41.01097245-89.47848533-89.47848533 0-29.82616178 14.91308089-55.92405333 41.01097245-74.56540444l-156.58734934-354.18567112c-7.45654045-18.64135111-7.45654045-33.554432 0-48.46751288 11.18481067-11.18481067 26.09789155-18.64135111 44.73924267-18.64135112H671.61656889c18.64135111 0 33.554432 7.45654045 41.01097244 18.64135112 7.45654045 11.18481067 7.45654045 29.82616178 0 48.46751288L559.76846222 357.90210845z m96.93502578-369.098752H365.89841067l145.40253866 331.81604977 145.40253867-331.81604977z m-186.41351111 443.66415644c0 22.36962133 18.64135111 41.01097245 41.01097244 41.01097244 22.36962133 0 41.01097245-18.64135111 41.01097245-41.01097244 0-22.36962133-18.64135111-41.01097245-41.01097245-41.01097244-22.36962133 0-41.01097245 18.64135111-41.01097244 41.01097244z m0 0M511.30094933 697.17469867c-145.40253867 0-264.70718578-119.30464711-264.70718578-264.70718578 0-74.56540445 29.82616178-141.67426845 85.75021512-193.87005156l7.45654044-7.45654044 26.09789156 59.65232356-3.72827022 3.72827022c-37.28270222 37.28270222-55.92405333 89.47848533-55.92405334 141.67426844 0 111.84810667 93.20675555 205.05486222 205.05486222 205.05486222s205.05486222-93.20675555 205.05486222-205.05486222c0-55.92405333-18.64135111-104.39156622-59.65232355-145.40253866l26.09789155-59.65232356 7.45654045 7.45654044c55.92405333 52.19578311 85.75021511 119.30464711 85.75021511 193.87005156 0 145.40253867-119.30464711 264.70718578-264.70718578 264.70718578z"  horiz-adv-x="1024" />

    
    <glyph glyph-name="changjiaguanli" unicode="&#59101;" d="M940.9 542.167l-421.3 131.6c-5.1 1.6-10.6 1.6-15.7 0l-99.8-31.2-24.2 131.9c-1.6 13.2-12.8 23.1-26.1 23.1H248.5c-13.3 0-24.5-9.9-26.1-23.1l-32.6-198.9-107.1-33.4c-11-3.4-18.5-13.6-18.5-25.1v-526.5c0-14.5 11.8-26.3 26.3-26.3H933c14.5 0 26.3 11.8 26.3 26.3v526.4c0 11.5-7.5 21.7-18.4 25.2z m-669.2 202.7h58.8l22.6-118.2-108-33.8 26.6 152z m319.1-728.1h-158v105.3h158v-105.3z m315.9 0H643.4v131.6c0 14.5-11.8 26.3-26.3 26.3H406.5c-14.5 0-26.3-11.8-26.3-26.3v-131.6H116.8v480.9l394.9 123.4 395-123.4v-480.9zM169.5 385.367v-105.3c0-14.5 11.8-26.3 26.3-26.3h631.8c14.5 0 26.3 11.8 26.3 26.3v105.3c0 14.5-11.8 26.3-26.3 26.3H195.8c-14.5 0-26.3-11.8-26.3-26.3z m526.6-26.3h105.3v-52.7H696.1v52.7z m-158 0h105.3v-52.7H538.1v52.7z m-158 0h105.3v-52.7H380.1v52.7z m-157.9 0h105.3v-52.7H222.2v52.7z"  horiz-adv-x="1024" />

    
    <glyph glyph-name="anjiguanli" unicode="&#59100;" d="M159.9996875-22.666875000000005a31.9996875 31.9996875 0 0 0-3.07125 63.85125l3.07125 0.1490625h134.315625l101.11875 454.933125a31.9996875 31.9996875 0 0 0 31.2328125 25.066875h170.66625a31.9996875 31.9996875 0 0 0 31.231875-25.066875L729.6640625 41.33437500000002h134.33625a31.9996875 31.9996875 0 0 0 3.07125-63.8503125l-3.07125-0.15H159.9996875z m411.669375 480H452.3309375l-92.4375-415.9996875h304.213125l-92.4375 415.9996875zM812.69375 748.10625a31.9996875 31.9996875 0 0 0-16.2778125-39.8071875l-2.836875-1.1953125-188.0325-68.4375 188.0325-68.4375a31.9996875 31.9996875 0 0 0-18.9440625-61.055625l-2.94375 0.9178125L512 604.6190624999999 252.3096875 510.1115625a31.9996875 31.9996875 0 0 0-39.8296875 16.25625l-1.17375 2.859375a31.9996875 31.9996875 0 0 0 16.2778125 39.8071875l2.836875 1.1953125 188.0109375 68.4375-188.0109375 68.4375a31.9996875 31.9996875 0 0 0 18.9440625 61.055625l2.94375-0.9178125L512 672.7359375l259.6903125 94.5065625a31.9996875 31.9996875 0 0 0 41.0034375-19.13625zM512 830.66625a31.9996875 31.9996875 0 0 0 31.850625-28.9275l0.15-3.0721875v-21.3328125a31.9996875 31.9996875 0 0 0-63.85125-3.0721875l-0.15 3.0721875V798.665625A31.9996875 31.9996875 0 0 0 512 830.66625z"  horiz-adv-x="1024" />

    
    <glyph glyph-name="peizhi" unicode="&#59098;" d="M910.34237155 370.60152889000005L722.06472533 40.999139549999995c-4.54382933-8.03908267-13.04894578-13.04894578-22.36962133-13.16545422H323.72235378c-9.20416711 0.11650845-17.70928355 5.12637155-22.36962133 13.16545422l-188.27764623 329.71889778c-4.54382933 8.03908267-4.54382933 17.94230045 0 25.98138312l187.92812089 329.48588088c4.66033778 8.03908267 13.16545422 13.04894578 22.36962134 13.16545422h376.08925866c9.32067555-0.11650845 17.825792-5.12637155 22.36962134-13.16545422l188.39415466-329.48588088c4.54382933-8.03908267 4.54382933-17.94230045 0-25.98138312h0.11650844z m49.98212267 54.525952L772.046848 754.61336178c-15.02958933 25.86487467-42.75859911 41.82653155-72.58476089 41.71002311H323.72235378c-30.05917867 0-57.67168-16.07816533-72.58476089-42.17605689L62.85994667 425.12748089c-14.680064-25.74836622-14.680064-57.32215467 0-82.95401244l188.27764622-329.60238934c14.91308089-25.98138311 42.64209067-42.05954845 72.58476089-42.17605689h375.62322489c29.94267022 0.11650845 57.67168 16.19467378 72.58476088 42.17605689L960.32449422 342.05696a83.85112747 83.85112747 0 0 1 0 83.07052089z m0 0M712.74404978 268.65664000000004H568.97262933v28.66107733c0.58254222 10.60226845-4.77684622 20.62199467-13.98101333 26.09789156-9.08765867 5.47589689-20.50548622 5.47589689-29.59314489 0-9.08765867-5.47589689-14.44704711-15.49562311-13.98101333-26.09789156V268.65664000000004H310.20737422c-10.60226845 0.58254222-20.62199467-4.77684622-26.09789155-13.98101333-5.47589689-9.08765867-5.47589689-20.50548622 0-29.59314489 5.47589689-9.08765867 15.49562311-14.44704711 26.09789155-13.98101333h201.326592V182.44039110999995c0.81555911-15.26260622 13.39847111-27.262976 28.77758578-27.262976s27.96202667 12.00036978 28.77758578 27.262976v28.66107734h143.654912c15.26260622 0.81555911 27.37948445 13.39847111 27.37948444 28.77758577-0.11650845 15.37911467-12.11687822 28.07853511-27.37948444 28.77758578m0 287.42633245H396.42362311v28.66107733c-0.81555911 15.26260622-13.39847111 27.262976-28.77758578 27.262976s-27.96202667-12.00036978-28.77758578-27.262976v-28.66107733H310.44039111c-10.60226845 0.58254222-20.62199467-4.77684622-26.09789156-13.98101334-5.47589689-9.08765867-5.47589689-20.50548622 0-29.59314489 5.47589689-9.08765867 15.49562311-14.44704711 26.09789156-13.98101333h28.66107734v-28.66107734c-0.58254222-10.60226845 4.77684622-20.62199467 13.98101333-26.09789155 9.08765867-5.47589689 20.50548622-5.47589689 29.59314489 0 9.08765867 5.47589689 14.44704711 15.49562311 13.98101333 26.09789155v28.66107734h316.08740978c15.26260622 0.81555911 27.37948445 13.39847111 27.37948444 28.77758578-0.11650845 15.37911467-12.11687822 27.96202667-27.37948444 28.77758578"  horiz-adv-x="1024" />

    
    <glyph glyph-name="fujian" unicode="&#58894;" d="M683.42708333 803.8125c24.09375 0 48.1875-6 66.28125-12.09375C822.08333333 761.625 864.27083333 695.25 864.27083333 616.875c0-48.1875-18.09375-96.46875-54.28125-132.65625L472.39583333 140.625c-12.09375-12.09375-24.09375-18.09375-36.1875-24.09375-12.09375-6-24.09375-6-42.1875-6-12.09375 0-30.1875 0-42.1875 6-12.09375 6-24.09375 12.09375-30.1875 24.09375-12.09375 12.09375-18.09375 24.09375-24.09375 36.1875-6 12.09375-6 30.09375-6 42.1875 0 30.1875 12.09375 60.28125 30.1875 78.375l307.5 319.5c6 6 18.09375 12.09375 24.09375 12.09375 12.09375 0 24.09375-6 30.1875-12.09375 6-6 12.09375-18.09375 12.09375-24.09375-6-12.09375-6-18.09375-12.09375-30.1875L369.92708333 249.1875c-6-6-12.09375-18.09375-12.09375-30.1875 0-18.09375 18.09375-36.1875 36.1875-36.1875 12.09375 0 18.09375 6 24.09375 12.09375l337.59375 343.59375c24.09375 24.09375 30.09375 48.1875 30.09375 78.375 0 30.1875-12.09375 54.28125-30.09375 78.375-18.09375 24.09375-42.1875 36.1875-72.375 36.1875s-60.28125-12.09375-78.375-36.1875l-337.5-343.59375c-18.09375-18.09375-30.1875-36.1875-42.1875-60.28125-18.09375-42.1875-18.09375-96.46875 0-138.65625 12.09375-24.09375 24.09375-42.1875 42.1875-60.28125 36.1875-36.1875 78.375-54.28125 126.5625-54.28125 48.1875 0 96.46875 18.09375 126.5625 54.28125L864.27083333 430.03125c6 12.09375 12.09375 12.09375 24.09375 12.09375 12.09375 0 18.09375-6 24.09375-12.09375 6-6 12.09375-12.09375 12.09375-24.09375s-6-18.09375-12.09375-24.09375L574.86458333 38.15625c-24.09375-24.09375-54.28125-42.1875-84.375-60.28125-30.1875-12.09375-60.28125-18.09375-96.46875-18.09375-36.1875 0-66.28125 6-96.46875 18.09375s-60.28125 30.1875-84.375 60.28125c-24.09375 24.09375-42.1875 54.28125-54.28125 84.375-12 30.1875-18 66.375-18 96.46875 0 36.1875 6 66.28125 18.09375 102.46875 12.09375 30.1875 30.1875 60.28125 54.28125 84.375l337.59375 343.59375c36.09375 36.28125 84.28125 54.375 132.5625 54.375z m0 0"  horiz-adv-x="1024" />

    
    <glyph glyph-name="jichuxinxi" unicode="&#59198;" d="M876.92440625 797.65010813H155.36933c-29.02807781 0-51.83585344-22.80777562-51.8358525-49.76241938v-727.7753775c0-26.95464375 22.80777562-49.76241938 51.8358525-49.76241938h723.62851031c29.02807781 0 51.83585344 22.80777562 51.83585344 49.76241938V747.88768875c-2.07343406 26.95464375-24.88120969 49.76241938-53.9092875 49.76241938z m2.07343406-754.73002219c0-16.58747344-8.29373625-20.73434156-24.88120969-20.73434063H178.17710562c-16.58747344 0-24.88120969 4.14686813-24.88120968 20.73434063V725.07991406c0 16.58747344 8.29373625 20.73434156 24.88120968 20.73434063H854.11663062c16.58747344 0 24.88120969-4.14686813 24.88120969-20.73434063v-682.15982812z m0 0M485.04535625 642.1425487500001H267.33477312c-16.58747344 0-31.10151187-12.44060437-31.10151187-29.02807781v-211.49028094c0-16.58747344 14.51403844-29.02807781 31.10151188-29.02807781h217.71058312c16.58747344 0 31.10151187 12.44060437 31.10151187 29.02807781V611.04103688c0 16.58747344-14.51403844 31.10151187-31.10151187 31.10151187z m-20.73434156-207.34341281c0-12.44060437-4.14686813-12.44060437-14.51403844-12.44060438h-147.21382313c-12.44060437 0-14.51403844 2.07343406-14.51403843 12.44060438v143.066955c0 12.44060437 4.14686813 12.44060437 14.51403844 12.44060437h147.21382312c12.44060437 0 14.51403844-2.07343406 14.51403844-12.44060437v-143.066955z m0 0M582.49676 550.91144719h190.75593938c12.44060437 0 22.80777562 10.36717031 22.80777562 24.88120969s-10.36717031 24.88120969-22.80777562 24.88120875h-190.75593938c-12.44060437 0-22.80777562-10.36717031-22.80777469-24.88120875 0-12.44060437 10.36717031-24.88120969 22.80777469-24.88120969z m0 0M773.25269938 459.68034563h-190.75593938c-12.44060437 0-22.80777562-10.36717031-22.80777469-24.88120969s10.36717031-24.88120969 22.80777469-24.88120969h190.75593937c12.44060437 0 22.80777562 10.36717031 22.80777563 24.88120969 0 12.44060437-10.36717031 24.88120969-22.80777562 24.88120968z m-1e-8-1e-8M773.25269938 173.54643655999996H256.96760281c-12.44060437 0-22.80777562-10.36717031-22.80777562-24.88120968s10.36717031-24.88120969 22.80777562-24.88120969h516.28509657c12.44060437 0 22.80777562 10.36717031 22.80777562 24.88120969s-10.36717031 24.88120969-22.80777562 24.88120968z m-1e-8 0M256.96760281 266.85097219h516.28509657c12.44060437 0 22.80777562 10.36717031 22.80777562 24.88120969s-10.36717031 24.88120969-22.80777562 24.88120875H256.96760281c-12.44060437 0-22.80777562-10.36717031-22.80777562-24.88120875 2.07343406-14.51403844 10.36717031-24.88120969 22.80777562-24.88120969z m0 0"  horiz-adv-x="1024" />

    
    <glyph glyph-name="linshiqicaiguanli1" unicode="&#59097;" d="M761.792 282.048c38.112 0 73.536-14.976 100.704-41.664 26.784-26.784 41.664-62.496 41.664-100.704 0-38.112-14.592-73.536-41.664-100.704-26.784-26.784-62.496-41.664-100.704-41.664-38.112 0-73.536 14.976-100.704 41.664-26.784 26.784-41.664 62.496-41.664 100.704 0 38.112 14.976 73.536 41.664 100.704 27.168 27.072 62.976 41.664 100.704 41.664m0 51.072c-106.944 0-193.44-86.496-193.44-193.44S654.848-53.75999999999999 761.792-53.75999999999999s193.44 86.496 193.44 193.44S868.832 333.12 761.792 333.12z m0 0M847.904 145.24800000000005h-70.752v81.024c0 14.112-11.424 25.536-25.536 25.536-14.112 0-25.536-11.424-25.536-25.536v-106.56c0-14.112 11.424-25.536 25.536-25.536H848c14.112 0 25.536 11.424 25.536 25.536 0 14.112-11.424 25.536-25.632 25.536zM521.408 15.072000000000003c-4.416 6.048-11.328 9.984-18.816 10.368-11.328 0.576-22.56 3.744-32.64 9.6l-264.384 152.64C183.2 200.64 169.28 224.736 169.28 250.55999999999995V555.8399999999999c0 25.824 13.92 49.92 36.288 62.88l264.384 152.64c11.232 6.432 23.712 9.696 36.288 9.696 12.576 0 25.152-3.264 36.288-9.696l264.384-152.64C829.28 605.76 843.2 581.664 843.2 555.8399999999999v-155.616c0-9.888 5.184-19.008 13.632-24.192 0.192-0.096 0.384-0.288 0.576-0.384 18.912-11.712 43.392 1.728 43.392 24V555.8399999999999c0 46.368-24.96 89.568-65.088 112.8l-264.384 152.64c-40.128 23.232-90.048 23.232-130.272 0l-264.384-152.64c-40.128-23.232-65.088-66.432-65.088-112.8v-305.28c0-46.368 24.96-89.568 65.088-112.8l264.384-152.64c20.064-11.616 42.624-17.376 65.088-17.376h0.48c20.832 0.096 32.352 24.192 19.584 40.704-1.536 2.208-3.168 4.416-4.8 6.624zM700.064 442.656C681.728 532.8 601.856 600.864 506.528 600.96c-108.096 0.096-196.896-87.552-197.952-195.648-0.96-90.048 58.656-166.656 140.544-191.424 14.976-4.512 30.912 4.128 35.328 19.2 0.096 0.192 0.096 0.384 0.192 0.576 4.512 15.072-4.032 30.912-19.008 35.424-57.888 17.664-100.032 71.808-99.36 135.552 0.768 74.976 61.152 136.512 136.128 138.624 69.12 2.016 127.68-46.752 141.12-111.744 3.168-15.168 17.664-25.248 32.928-22.56 0.192 0 0.384 0.096 0.48 0.096 15.84 2.784 26.304 17.952 23.136 33.6z"  horiz-adv-x="1024" />

    
    <glyph glyph-name="zidian" unicode="&#58885;" d="M893.33333333 804H273.32333333C201.20333333 804 143.33333333 743.25 143.33333333 669c0-5.13 0.93-10.02 1.44-15H143.33333333v-540c0-82.53 64.26-150 144.3-150H893.33333333V594H273.32333333C235.01333333 594 203.33333333 627.27 203.33333333 669s31.68 75 69.99 75H893.33333333V804zM488.33333333 534h165v-161.43l-63.93 50.34a29.97 29.97 0 0 1-37.11 0L488.33333333 372.57000000000005V534z m-215.01 0H428.33333333v-223.23a30 30 0 0 1 48.57-23.58L570.83333333 361.16999999999996l93.93-73.98A30 30 0 0 1 713.33333333 310.77V534h120v-510H287.63333333c-46.23 0-84.3 39.99-84.3 90V555.54C223.52333333 542.0699999999999 247.43333333 534 273.32333333 534zM293.12333333 699H833.33333333v-60H293.12333333z"  horiz-adv-x="1024" />

    
    <glyph glyph-name="xiangzi" unicode="&#58934;" d="M744.448 758.272c46.592 0 47.104-11.776 61.44-32.256L931.84 548.352c9.216-13.312 14.336-29.184 14.336-45.568v-410.112c0-54.784 0-111.104-108.544-111.104H186.368c-108.544 0-108.544 58.88-108.544 111.104v414.72c0 16.384 5.12 32.768 14.848 46.08L218.112 727.04c14.336 19.968 10.24 31.744 61.44 31.744h464.896z m-101.888-309.248h-261.12c-17.92 0-32.256-14.848-32.256-33.28s14.336-33.28 32.256-33.28h261.12c11.776 0 22.528 6.144 28.16 16.384 5.632 10.24 5.632 23.04 0 33.28-6.144 10.752-16.896 16.896-28.16 16.896zM450.56 678.4H286.208c-6.144 0-11.776-2.56-15.872-6.656l-2.56-3.584-71.168-114.688c-2.048-3.072-2.048-6.656-1.024-9.728 1.024-3.072 4.096-5.632 7.168-6.656l3.072-0.512H450.56c10.24 0 19.456 7.168 21.504 17.92l0.512 4.608v97.28c0 12.288-9.728 22.016-22.016 22.016z m287.232 0H578.56c-11.776 0-21.504-9.728-21.504-22.016v-97.792c0-12.288 9.728-22.016 21.504-22.016h239.616c4.096 0 7.68 2.048 9.216 5.632 2.048 3.584 1.536 7.68-0.512 11.264l-71.168 114.688c-3.584 6.656-10.752 10.24-17.92 10.24z m0 0"  horiz-adv-x="1024" />

    
    <glyph glyph-name="quyu" unicode="&#58940;" d="M580.608 797.696h317.44c20.992 0 32.256-10.752 32.256-32.256v-317.952c0-20.992-10.752-32.256-32.256-32.256h-317.44c-20.992 0-32.256 10.752-32.256 32.256V765.44c0.512 20.992 11.264 32.256 32.256 32.256z m0 0M485.376 352.768h286.208c8.192 0 16.896-3.072 22.528-9.728 5.632-5.632 9.728-14.336 9.728-22.528v-317.952c0-17.408-14.336-32.256-32.256-32.256H136.192c-17.408 0-32.256 14.336-32.256 32.256V637.952c0 17.408 14.336 32.256 32.256 32.256h317.952c8.192 0 16.896-3.072 22.528-9.728 5.632-5.632 9.728-14.336 9.728-22.528v-285.696h-1.024z m0 0"  horiz-adv-x="1024" />

    
    <glyph glyph-name="kongjianjiegoushuCshi" unicode="&#58943;" d="M817.664 45.056c-87.04 0-157.696 62.464-157.696 177.152 0 113.664 72.704 179.712 159.744 179.712 43.52 0 78.336-20.992 100.864-44.032l-36.352-43.52c-17.408 16.896-37.376 28.672-62.976 28.672-52.224 0-91.136-44.544-91.136-118.272 0-74.752 35.328-119.808 89.6-119.808 29.184 0 52.736 13.824 71.168 33.792l36.352-42.496V474.112c-1.024 25.088-20.992 44.544-46.08 45.568-7.168-0.512-13.824-2.048-20.48-4.096l-278.016-94.72c-15.872-7.68-26.112-23.552-26.624-41.472v-384c0-25.088 20.48-45.056 45.568-45.568 7.168 0.512 13.824 2.048 20.48 4.096l278.528 94.72c15.872 7.68 26.112 23.552 26.624 41.472v5.632c-28.672-33.28-65.024-50.688-109.568-50.688zM443.904 420.352L165.376 515.584c-6.656 2.048-13.824 3.584-20.48 4.096-25.088 0-45.056-20.48-45.568-45.568v-384c-0.512-17.92 10.24-34.304 26.624-41.472L404.992-46.08c6.656-2.56 13.824-4.096 20.48-4.096 25.088 0 45.056 20.48 45.568 45.568v384c0.512 17.92-10.24 34.304-27.136 40.96zM927.232 648.192c0.512 17.92-9.728 34.304-25.6 43.008L535.04 847.872c-14.336 8.704-31.744 8.704-46.08 0L121.856 690.688c-15.872-8.192-25.6-25.088-25.088-43.008 0.512-17.92 10.752-34.304 27.136-41.472l367.616-138.24c13.312-5.632 28.16-5.632 41.472 0l367.616 138.24c15.872 7.68 26.112 24.064 26.624 41.984z"  horiz-adv-x="1024" />

    
    <glyph glyph-name="quxiaobaojing" unicode="&#59083;" d="M813.0087898 837.73048605H190.88476539c-54.43274525 0-98.79916089-44.24213997-98.79916089-98.7991609v-621.99974873c0-54.43274525 44.24213997-98.79916089 98.79916089-98.7991609h163.91961411c17.2743187 0 31.56602122 14.29170252 31.5660212 31.56602123 0 17.2743187-14.29170252 31.56602122-31.5660212 31.5660212H190.88476539c-19.88410785 0-35.66711845 16.2801133-35.66711846 35.66711847V739.05560083c0 19.88410785 16.2801133 35.66711845 35.66711846 35.66711846h621.99974874c19.88410785 0 35.66711845-16.2801133 35.66711846-35.66711846V512.0039443000001c0-17.2743187 14.29170252-31.56602122 31.56602121-31.56602122 17.2743187 0 31.56602122 14.29170252 31.56602122 31.56602122V739.05560083c0 54.43274525-44.24213997 98.67488522-98.67488522 98.67488522z m0 0M726.38864497 363.86734079999997c49.33744261 0 95.19516635-19.38700515 130.3651821-53.93564255 34.67291307-34.67291307 53.93564255-80.90346382 53.93564256-130.3651821 0-49.33744261-18.88990245-95.19516635-53.93564256-130.3651821-34.67291307-34.67291307-80.90346382-53.93564255-130.3651821-53.93564255-49.33744261 0-95.19516635 19.38700515-130.3651821 53.93564255-34.67291307 34.67291307-53.93564255 80.90346382-53.93564255 130.3651821 0 49.33744261 19.38700515 95.19516635 53.93564255 130.3651821 35.17001577 35.04574009 81.52484219 53.93564255 130.3651821 53.93564255m0 66.11465861c-138.44310092 0-250.41548325-111.97238235-250.41548325-250.41548326S587.94554405-70.84896710999999 726.38864497-70.84896710999999s250.41548325 111.97238235 250.41548326 250.41548326S864.95602157 429.98199941 726.38864497 429.98199941z m0 0M509.65186939 514.4894577800001c-18.26852409 0-33.0573293 14.78880522-33.0573293 33.0573293V688.10257445c0 18.26852409 14.78880522 33.0573293 33.0573293 33.05732932 18.26852409 0 33.0573293-14.78880522 33.05732931-33.05732932v-140.55578737c0-18.26852409-14.78880522-33.0573293-33.05732931-33.0573293z m-33.67870767-61.01935597c0-18.26852409 14.78880522-33.0573293 33.0573293-33.05732931 18.26852409 0 33.0573293 14.78880522 33.0573293 33.05732931 0 18.26852409-14.29170252 33.0573293-32.5602266 33.0573293s-33.554432-14.78880522-33.554432-33.0573293z m0 0M778.83297943 178.32375940999998l51.07730204 51.07730204c13.29749712 13.29749712 13.29749712 35.04574009 0 48.34323722s-35.04574009 13.29749712-48.3432372 0l-51.07730205-51.07730205-51.07730205 51.07730205c-13.29749712 13.29749712-35.04574009 13.29749712-48.3432372 0s-13.29749712-35.04574009 0-48.34323722l51.07730203-51.07730204-51.07730203-51.07730204c-13.29749712-13.29749712-13.29749712-35.04574009 0-48.34323722 6.7108864-6.7108864 15.41018358-10.0663296 24.10948076-10.0663296s17.52287005 3.3554432 24.10948077 10.0663296l51.07730204 51.07730204 51.07730205-51.07730204c6.7108864-6.7108864 15.41018358-10.0663296 24.10948078-10.0663296s17.52287005 3.3554432 24.10948076 10.0663296c13.29749712 13.29749712 13.29749712 35.04574009 0 48.34323722l-50.8287507 51.07730204z"  horiz-adv-x="1024" />

    
    <glyph glyph-name="wuliu1" unicode="&#58917;" d="M542 482.7l0.8 0.4L688.7 553 292.3 742.8 128 672c-5.8-3.3-11-7.4-15.7-12.2l369.8-177.1 0.8-0.4c18.1-10.4 40.3-10.4 58.4 0l0.7 0.4z m369.8 177c-4.7 4.8-9.9 8.9-15.7 12.2L548.6 821.8c-22.6 13-50.4 13-73 0l-127.6-55 393.7-188.5 170.1 81.4z m20.1-41L563.3 442.2c-8.9-5-18.5-8.7-28.4-10.9v-493.8c4.7 1.6 9.3 3.6 13.6 6.1L896 144.3c22.6 13 36.5 37.1 36.5 63.2V608.8c0.1 3.3-0.2 6.6-0.6 9.9z m-839.7 0c-0.5-3.3-0.7-6.6-0.7-9.9v-401.3c0-26.1 13.9-50.2 36.5-63.2l347.5-200.7c4.3-2.5 8.9-4.5 13.6-6.1V431.2c-10 2.2-19.5 5.9-28.4 10.9L92.2 618.7z m0 0"  horiz-adv-x="1024" />

    
    <glyph glyph-name="fanhuipingtai" unicode="&#59082;" d="M405.504 788.48H181.76c-40.96 0-74.24-33.28-74.24-74.24v-223.232c0-40.96 33.28-74.24 74.24-74.24h223.232c40.96 0 74.24 33.28 74.24 74.24V714.24c0.512 40.96-32.768 74.24-73.728 74.24z m0-446.464H181.76c-40.96 0-74.24-33.28-74.24-74.24v-223.232c0-40.96 33.28-74.24 74.24-74.24h223.232c40.96 0 74.24 33.28 74.24 74.24v223.232c0.512 40.96-32.768 74.24-73.728 74.24z m446.976 0h-223.232c-40.96 0-74.24-33.28-74.24-74.24v-223.232c0-40.96 33.28-74.24 74.24-74.24h223.232c40.96 0 74.24 33.28 74.24 74.24v223.232c0 40.96-33.28 74.24-74.24 74.24zM872.96 592.384c-23.552 24.064-54.272 41.472-91.648 51.2-23.552 6.144-43.52 7.68-54.784 8.192V732.672c0 5.12-4.096 9.216-9.216 9.216-2.048 0-4.096-0.512-5.632-1.536l-179.2-130.56c-4.096-3.072-5.12-8.704-2.048-12.8 0.512-1.024 1.024-1.536 2.048-2.048l179.2-129.536c4.096-3.072 10.24-2.048 12.8 2.048 1.024 1.536 1.536 3.584 1.536 5.632V548.352c64.512-1.536 115.712-20.992 148.992-55.808 26.112-27.648 32.256-55.296 32.256-55.808 1.024-4.608 4.608-7.68 9.216-7.68 5.12 0 9.216 4.096 9.216 9.216 1.536 65.536-16.384 117.248-52.736 154.112z"  horiz-adv-x="1024" />

    
    <glyph glyph-name="ai207" unicode="&#59075;" d="M425.640718 532.754292l0 170.978945-299.323927-299.251272 299.323927-299.378162 0 175.361761c213.758218 0 363.447299-68.396695 470.302872-218.076566C853.226739 276.200428 724.955435 489.912597 425.640718 532.754292"  horiz-adv-x="1024" />

    
    <glyph glyph-name="qicaiziyuanku" unicode="&#59073;" d="M906.752 528.384v27.136l-111.616 193.536c-9.728 17.408-27.136 27.136-47.104 27.136-4.096 2.048-9.728 2.048-13.824 2.048H285.184c-4.096 0-7.68 0-11.776-2.048-19.456 0-37.376-11.776-47.104-27.136L115.2 556.032v-527.872c0-23.552 19.456-43.008 43.008-43.008h705.536c23.552 0 40.96 17.408 43.008 40.96V528.384z m-158.208 205.312l90.112-172.032c2.048-2.048 2.048-5.632 4.096-7.68h-305.664V733.696h211.456z m-465.408 0h201.216v-179.712H176.64l106.496 179.712z m553.472-688.128l-663.552-5.12V506.88h680.448v-465.92l-16.896 4.608zM322.56 186.368s0-2.048 0 0c-15.872-15.872-15.872-38.912 0-54.784l19.456-21.504c7.68-7.68 17.408-11.776 27.136-11.776s19.456 4.096 27.136 11.776l152.576 177.664c13.824-5.632 27.648-6.656 39.936-6.656 26.624 2.048 50.688 13.312 67.584 32.256 13.824 15.872 23.552 33.28 27.136 52.736s2.048 38.912-5.632 58.88c-2.048 4.096-4.096 7.168-8.192 8.192 0 0-2.048 0.512-4.608 1.024-2.048 0.512-7.168 1.024-10.24-2.048l-50.688-50.688-25.088 25.088 50.688 52.736c4.608 5.12 0.512 13.312-3.584 16.896 0 0-3.584 3.072-5.632 3.584-37.376 15.872-80.384 5.632-107.52-23.552-17.408-17.408-27.136-40.96-27.136-64.512-2.048-21.504 2.048-37.376 11.776-54.784L322.56 186.368z m216.576 253.44c9.728 11.776 28.16 19.456 41.472 19.968 1.536 0 4.096 0 5.632-0.512l-45.568-47.104c-4.096-4.096 1.024-9.728 5.12-13.824 0 0 52.736-51.712 56.32-53.76 2.048-1.024 6.144-2.048 8.192 0l50.176 52.224c4.096-24.064-6.656-48.64-24.064-66.56-9.216-10.24-27.136-22.528-52.224-20.992-9.216 0.512-16.384 1.536-27.648 7.168-6.656 3.584-9.216 4.608-14.336 4.096-3.072-0.512-6.656-3.584-8.704-5.632L384.512 138.24c-4.096-4.096-7.68-5.632-11.776-5.632s-8.192 2.56-11.776 5.632l-9.728 11.776c-5.632 7.68-7.68 17.408 0 25.6l173.568 150.528c5.632 4.608 6.144 10.24 4.096 14.336-19.456 30.72-17.92 73.216 10.24 99.328zM349.696 370.176c2.048-4.096 5.632-5.632 9.728-4.096h23.552l56.832-54.784c2.048-2.048 4.096-4.096 7.68-2.048 5.632 0 9.728 5.632 9.728 9.728 0 2.048-2.048 5.632-4.096 7.68L394.752 384c-2.048 2.048-4.096 2.048-7.68 2.048h-21.504l-27.648 35.84 13.824 15.872 43.008-25.6v-18.432c0-2.048 2.048-5.632 4.096-7.68l60.416-60.416c2.048-2.048 4.096-4.096 7.68-4.096 2.048 0 5.632 2.048 7.68 4.096 4.096 4.096 4.096 9.728 0 13.824l-58.368 56.32v23.552c0 4.096-2.048 5.632-5.632 7.68l-54.784 33.28c-2.048 0-4.096 2.048-5.632 2.048s-5.632-2.048-7.68-4.096l-25.6-27.136c-4.096-4.096-4.096-7.68-2.048-11.776l34.816-49.152z m248.32-105.472c-4.096 4.096-11.776 7.68-17.408 5.632-5.632 0-11.776-2.048-17.408-7.68l-2.048-2.048-2.048 2.048c-2.048 2.048-4.096 4.096-7.68 4.096-5.632 0-9.728-4.096-9.728-9.728 0-2.048 2.048-5.632 4.096-7.68l9.728-9.728c2.048-2.048 4.096-4.096 7.68-4.096 2.048 0 5.632 2.048 7.68 4.096l6.656 5.632 2.048 2.048h2.048l80.896-77.312c2.048-2.048 2.048-4.096 0-5.632l-30.208-33.28-2.048-2.048h-2.048l-83.456 79.36c-2.048 2.048-2.048 4.096 0 5.632l6.144 6.144c4.096 4.096 4.096 9.728 0 13.824l-9.728 9.728c-2.048 2.048-4.096 4.096-7.68 4.096-2.048 0-5.632-2.048-7.68-4.096-4.096-4.096-4.096-9.728 0-13.824l2.048-2.048-2.048-2.048c-9.728-9.728-7.68-25.6 0-35.328l88.064-86.016c4.096-4.096 11.776-7.68 17.408-5.632 5.632 0 11.776 2.048 17.408 7.68l37.376 40.96c9.728 9.728 7.68 25.6 0 35.328l-88.064 81.92z m-215.04-74.24c-9.728 0-17.408-7.68-17.408-17.408s7.68-17.408 17.408-17.408 17.408 7.68 17.408 17.408-5.632 17.408-17.408 17.408z m0-24.064c-4.096 0-6.144 2.56-6.144 6.144s2.56 6.144 6.144 6.144 6.144-2.56 6.144-6.144-2.048-6.144-6.144-6.144z"  horiz-adv-x="1024" />

    
    <glyph glyph-name="dayinshebeibiaoqian" unicode="&#59070;" d="M196.096 486.912c0-26.112 20.992-47.616 47.104-47.616s47.616 20.992 47.616 47.104-20.992 47.616-47.104 47.616c-26.624 0.512-47.616-20.48-47.616-47.104zM897.536 465.92v-406.016L762.88 131.072l-18.432 10.24-18.432-10.24-139.776-71.168V465.92h311.296m47.616 47.616h-406.016v-542.208l205.312 114.688 200.192-114.688V513.536h0.512zM469.504 32.768H289.28c-14.336 0-25.6 11.264-25.6 25.6v260.608h206.336v51.2H238.08c-14.336 0-25.6-11.264-25.6-25.6v-97.792H149.504c-13.312 0-24.064 10.752-24.064 24.064V567.296c0 13.312 10.752 24.064 24.064 24.064h662.016c13.312 0 24.064-10.752 24.064-24.064V558.08h51.2v8.704c0 41.472-33.792 75.264-75.264 75.264h-62.976V721.92c0 41.984-34.304 76.8-76.8 76.8H289.28c-41.984 0-76.8-34.304-76.8-76.8v-79.872H149.504c-41.472 0-75.264-33.792-75.264-75.264v-296.448c0-41.472 33.792-75.264 75.264-75.264h62.976v-137.216c0-41.984 34.304-76.8 76.8-76.8h180.736v51.712zM263.68 721.92c0 14.336 11.264 25.6 25.6 25.6h382.976c14.336 0 25.6-11.264 25.6-25.6v-79.872H263.68V721.92zM730.624 381.952h-30.208c-5.632 0-9.728 4.608-9.728 9.728v40.96c0 5.632 4.608 9.728 9.728 9.728h30.208c5.632 0 9.728-4.608 9.728-9.728v-40.96c0.512-5.632-4.096-9.728-9.728-9.728zM815.104 409.088h-140.288c-13.312 0-24.064-10.752-24.064-24.064v-203.264c0-13.312 10.752-24.064 24.064-24.064h140.288c13.312 0 24.064 10.752 24.064 24.064V385.024c0 13.312-10.752 24.064-24.064 24.064z m-15.36-90.112h-112.128v50.688h112.128v-50.688z"  horiz-adv-x="1024" />

    
    <glyph glyph-name="dayinqicaibiaoqian" unicode="&#59071;" d="M850.944 324.608c0 51.2-34.816 92.672-81.408 105.472v-98.304h-54.272V430.592c-47.104-12.288-81.408-54.272-81.408-105.472 0-50.688 22.016-92.672 69.12-105.472v-3.584c0-14.848 13.312-33.792 39.936-33.792s39.936 17.92 39.936 33.792v3.584c46.08 12.288 68.096 55.296 68.096 104.96zM196.096 492.032c0-26.112 20.992-47.616 47.104-47.616s47.616 20.992 47.616 47.104-20.992 47.616-47.104 47.616c-26.624 0.512-47.616-20.48-47.616-47.104zM897.536 471.04v-406.016L762.88 136.192l-18.432 10.24-18.432-10.24-139.776-71.168V471.04h311.296m47.616 47.616h-406.016v-542.208l205.312 114.688 200.192-114.688V518.656h0.512zM469.504 37.888H289.28c-14.336 0-25.6 11.264-25.6 25.6v260.608h206.336v51.2H238.08c-14.336 0-25.6-11.264-25.6-25.6v-97.792H149.504c-13.312 0-24.064 10.752-24.064 24.064V572.416c0 13.312 10.752 24.064 24.064 24.064h662.016c13.312 0 24.064-10.752 24.064-24.064V563.2h51.2v8.704c0 41.472-33.792 75.264-75.264 75.264h-62.976V727.04c0 41.984-34.304 76.8-76.8 76.8H289.28c-41.984 0-76.8-34.304-76.8-76.8v-79.872H149.504c-41.472 0-75.264-33.792-75.264-75.264v-296.448c0-41.472 33.792-75.264 75.264-75.264h62.976v-137.216c0-41.984 34.304-76.8 76.8-76.8h180.736v51.712zM263.68 727.04c0 14.336 11.264 25.6 25.6 25.6h382.976c14.336 0 25.6-11.264 25.6-25.6v-79.872H263.68V727.04z"  horiz-adv-x="1024" />

    
    <glyph glyph-name="dayinqicaixiangbiaoqian" unicode="&#59072;" d="M723.968 198.144l-91.136 44.544v121.344l91.136-41.472zM771.072 201.216l91.136 44.544v121.344l-91.136-41.472zM658.944 392.704l88.576-31.232 88.064 35.84-84.48 26.112zM201.216 486.912c0-26.112 20.992-47.616 47.104-47.616s47.616 20.992 47.616 47.104-20.992 47.616-47.104 47.616c-26.624 0.512-47.616-20.48-47.616-47.104zM902.656 465.92v-406.016L768 131.072l-18.432 10.24-18.432-10.24-139.776-71.168V465.92h311.296m47.616 47.616h-406.016v-542.208l205.312 114.688 200.192-114.688V513.536h0.512zM474.624 32.768H294.4c-14.336 0-25.6 11.264-25.6 25.6v260.608h206.336v51.2H243.2c-14.336 0-25.6-11.264-25.6-25.6v-97.792H154.624c-13.312 0-24.064 10.752-24.064 24.064V567.296c0 13.312 10.752 24.064 24.064 24.064h662.016c13.312 0 24.064-10.752 24.064-24.064V558.08h51.2v8.704c0 41.472-33.792 75.264-75.264 75.264h-62.976V721.92c0 41.984-34.304 76.8-76.8 76.8H294.4c-41.984 0-76.8-34.304-76.8-76.8v-79.872H154.624c-41.472 0-75.264-33.792-75.264-75.264v-296.448c0-41.472 33.792-75.264 75.264-75.264h62.976v-137.216c0-41.984 34.304-76.8 76.8-76.8h180.736v51.712zM268.8 721.92c0 14.336 11.264 25.6 25.6 25.6h382.976c14.336 0 25.6-11.264 25.6-25.6v-79.872H268.8V721.92z"  horiz-adv-x="1024" />

    
    <glyph glyph-name="pingtaiguanli" unicode="&#58967;" d="M861.184 786.432H163.328c-57.344 0-103.424-46.08-103.424-103.424v-464.384c0-57.344 46.08-103.424 103.424-103.424h259.072v-83.456H370.688c-14.336 0-25.6-11.264-25.6-25.6s11.264-25.6 25.6-25.6h309.76c9.216-0.512 17.92 4.096 23.04 12.288 5.12 8.192 5.12 17.92 0 26.112-5.12 8.192-13.824 12.8-23.04 12.288h-51.712v83.456h232.96c57.344 0 103.424 46.08 103.424 103.424V683.008c-0.512 57.344-46.592 103.424-103.936 103.424zM239.104 449.536l170.496 158.72c6.656 6.656 17.408 5.632 23.552-1.536l123.904-154.624 186.368 160.256c13.824 11.776 34.304 10.24 46.08-3.072 11.776-13.824 10.24-34.304-3.072-46.08l-227.328-195.072c-6.144-5.632-15.36-4.096-20.48 1.536L414.72 523.776 284.16 401.408c-12.8-12.288-34.304-11.776-46.08 1.536-13.312 13.312-12.288 34.304 1.024 46.592z m673.792-237.056c0-28.16-23.552-51.712-51.712-51.712H162.816c-28.16 0-51.712 23.04-51.712 51.712v51.712h801.792v-51.712z"  horiz-adv-x="1024" />

    
    <glyph glyph-name="zonghexinxi" unicode="&#58966;" d="M686.592 619.52h-107.008c-24.064 0-43.52-19.456-43.52-43.52v-87.04c0-24.064 19.456-43.52 43.52-43.52h107.008c24.064 0 43.52 19.456 43.52 43.52v87.04c0.512 24.064-18.944 43.52-43.52 43.52zM802.816 827.904H221.184c-60.416 0-109.568-49.152-109.568-109.568v-668.16c0-60.416 49.152-109.568 109.568-109.568h581.632c60.416 0 109.568 49.152 109.568 109.568V717.824c0 60.416-49.664 110.08-109.568 110.08zM271.872 668.16h99.84c12.288 0 26.624-7.68 26.624-26.624 0-19.456-14.336-26.624-26.624-26.624H271.872c-12.288 0-26.624 8.704-26.624 26.624-0.512 17.92 13.824 26.624 26.624 26.624z m0-171.52h99.84c12.288 0 26.624-7.168 26.624-26.624 0-19.968-14.336-26.624-26.624-26.624H271.872c-12.288 0-26.624 7.168-26.624 26.624-0.512 18.944 13.824 26.624 26.624 26.624z m308.224-397.312H271.872c-12.288 0-26.624 5.632-26.624 26.624 0 20.48 14.336 26.624 26.624 26.624h308.224c12.288 0 26.624-7.168 26.624-26.624 0-16.896-14.848-26.624-26.624-26.624zM752.64 271.36H271.36c-12.288 0-26.624 5.632-26.624 26.624 0 21.504 14.336 26.624 26.624 26.624h481.28c12.288 0 26.624-7.168 26.624-26.624 0-20.48-14.336-26.624-26.624-26.624z m31.232 214.528c0-51.2-41.984-93.184-93.184-93.184h-114.176c-51.712-0.512-93.696 41.984-93.696 93.184V578.56c0 51.2 41.984 93.184 93.184 93.184h114.176c51.2 0 93.184-41.984 93.184-93.184l0.512-92.672z"  horiz-adv-x="1024" />

    
    <glyph glyph-name="jianjiancexinxi" unicode="&#58964;" d="M868.352 732.16L519.168 857.6 169.984 732.16c-15.36-5.12-28.16-22.528-28.16-38.4 0 0 1.536-295.936 1.536-377.344-1.536-216.576 281.088-365.568 338.944-397.312 9.216-5.12 15.872-8.704 19.968-10.752l1.024-0.512c7.168-4.096 18.432-4.608 25.6-0.512l4.096 2.048c33.792 17.408 361.984 186.88 359.936 406.528 0 64.512 2.048 377.344 2.048 377.344 1.024 16.384-10.752 33.28-26.624 38.912zM670.72 369.152l-160.768-206.336-35.328-40.448c-38.912-35.328-87.552 14.848-59.392 47.616l138.752 173.568-191.488 70.656c-10.24 3.072-14.848 11.776-7.68 19.456l173.568 183.808 39.936 40.96c30.72 32.768 91.648-5.632 62.976-45.056L486.4 453.12 662.016 389.12c8.192-2.048 15.872-10.752 8.704-19.968z"  horiz-adv-x="1024" />

    
    <glyph glyph-name="weixiu" unicode="&#58962;" d="M84.992-29.184c47.616-46.592 123.392-46.592 171.008 0l245.76 241.664c126.464-58.88 275.968-33.28 375.296 64.512 96.256 94.72 123.904 240.128 68.608 362.496-0.512 0.512-0.512 1.024-1.024 2.048 0 0.512-0.512 1.024-0.512 1.024-0.512 1.024-1.536 2.048-2.048 2.56v0.512c-4.608 4.608-11.264 6.656-17.92 5.632h-1.024c-0.512 0-1.536-0.512-2.048-0.512-0.512 0-1.024-0.512-2.048-0.512h-0.512c-0.512 0-1.024-0.512-1.536-1.024-0.512-0.512-1.024-0.512-1.536-1.024-0.512-0.512-1.536-1.024-2.048-1.536-0.512-0.512-0.512-0.512-1.024-0.512l-0.512-0.512-175.104-171.52c-8.192-8.192-21.504-8.192-29.696 0l-98.816 96.768c-8.192 7.68-8.192 20.992 0 28.672L783.36 771.072c8.192 7.68 9.216 20.48 1.536 28.672-2.048 2.048-4.608 4.096-7.168 5.12C653.312 859.136 504.832 832 408.576 737.28 333.824 664.576 299.52 561.664 314.88 460.288c-0.512-1.536-0.512-3.072-0.512-4.096 1.024-23.552 15.872-66.048 18.432-73.728l-247.808-243.2c-46.592-45.568-47.104-119.808-2.048-165.888 0.512-1.536 1.536-2.048 2.048-2.56z"  horiz-adv-x="1024" />

    
    <glyph glyph-name="yunhang" unicode="&#58961;" d="M406.016 673.792c0-91.136 73.728-165.376 165.376-165.376s165.376 73.728 165.376 165.376c0 91.136-73.728 165.376-165.376 165.376S406.016 764.928 406.016 673.792zM70.144 508.416c0-76.8 61.952-138.752 138.752-138.752 76.8 0 138.752 61.952 138.752 138.752 0 76.8-61.952 138.752-138.752 138.752S70.144 585.216 70.144 508.416zM186.368 173.568c0-66.56 53.76-120.832 120.32-120.832s120.832 53.76 120.832 120.32-53.76 120.832-120.832 120.832c-66.56 0.512-120.32-53.76-120.32-120.32zM470.016 28.16c0-55.808 45.056-100.864 100.864-100.864 55.808 0 100.864 45.056 100.864 100.864 0 55.808-45.056 100.864-100.864 100.864-55.296 0-100.864-45.056-100.864-100.864zM718.848 153.6c0-43.008 34.816-77.824 77.824-77.824 43.008 0 77.824 34.816 77.824 77.824 0 43.008-34.816 77.824-77.824 77.824-43.008 0-77.824-34.816-77.824-77.824zM839.168 340.992c0-32.256 26.112-58.368 58.368-58.368s58.368 26.112 58.368 58.368S929.792 399.36 897.536 399.36s-58.368-26.112-58.368-58.368zM795.648 530.944c0-22.016 17.92-39.424 39.424-39.424 22.016 0 39.424 17.92 39.424 39.424 0 22.016-17.92 39.424-39.424 39.424-22.016 0-39.424-17.408-39.424-39.424z"  horiz-adv-x="1024" />

    
    <glyph glyph-name="zhuangbei" unicode="&#58960;" d="M306.688 26.624l175.616 93.696v153.6L306.688 194.56v-167.936zM276.48 246.272l185.344 83.968L276.48 413.696l-185.344-83.968L276.48 246.272z m498.688-219.648l175.616 93.696v153.6L775.168 194.56v-167.936z m-27.648 219.648l185.344 83.968L747.52 413.696l-185.344-83.968 185.344-83.456z m-205.824 143.872l175.616 79.872V599.552l-175.616-79.872v-129.536zM512 573.44l201.728 91.648-201.728 92.16-201.728-92.16L512 573.44z m498.688-251.392v-201.728c0-11.776-2.048-22.016-8.192-31.744-6.144-9.728-13.824-17.92-24.064-22.016L773.12-43.008c-8.192-4.096-15.872-6.144-26.112-6.144-9.728 0-17.92 2.048-26.112 6.144l-205.312 107.52c-2.048 0-4.096 0-4.096 2.048 0 0-2.048-2.048-4.096-2.048L302.08-45.056c-8.192-4.096-15.872-6.144-26.112-6.144-9.728 0-17.92 2.048-26.112 6.144l-204.8 109.568c-9.728 6.144-17.92 11.776-24.064 22.016-6.144 9.728-8.192 19.968-8.192 31.744v203.776c0 11.776 4.096 24.064 9.728 33.792 6.144 9.728 15.872 17.92 26.112 24.064l199.68 89.6V663.552c0 11.776 4.096 24.064 9.728 33.792 6.144 9.728 15.872 17.92 26.112 24.064l205.312 93.696c8.704 4.096 14.336 4.096 22.528 4.096 8.192 0 15.872-2.048 24.064-4.096l205.312-93.696c9.728-6.144 19.968-11.776 26.112-24.064 6.144-9.728 9.728-22.016 9.728-33.792v-193.536l199.68-89.6c11.776-6.144 19.968-13.824 26.112-24.064 3.584-10.24 7.68-22.016 7.68-34.304z"  horiz-adv-x="1024" />

    
    <glyph glyph-name="caidanshusanji1" unicode="&#58957;" d="M882.176 494.08h-46.08c-4.608 13.824-10.24 26.624-16.384 39.936l32.768 32.768c16.896 16.896 19.968 33.792 19.968 45.056 0 26.112-18.432 44.032-19.968 46.08l-65.536 65.536c-2.048 2.048-20.48 19.968-46.592 19.968-15.872 0-31.232-6.656-44.032-19.968l-32.768-32.768c-12.8 6.144-26.112 11.776-39.424 16.384v47.104c0 46.08-38.4 63.488-64 64H466.432c-25.6-0.512-64-17.92-64-64v-47.104c-13.312-4.608-26.624-10.24-39.424-16.384l-33.28 33.28c-12.8 12.8-28.16 19.456-44.032 19.456-25.6 0-44.544-17.408-47.104-19.456L173.568 657.92c-17.92-18.432-32.256-57.856 0.512-90.624l33.28-33.28c-6.144-12.8-11.776-26.112-16.384-39.936H143.36c-46.08 0-63.488-38.4-64.512-64.512v-92.672c0.512-25.6 17.92-64 64.512-64h46.592c4.608-13.824 10.24-27.136 16.384-39.936l-32.768-32.768c-32.768-32.768-17.92-72.192 0-91.136l65.536-65.536c2.048-2.048 20.992-19.456 46.592-19.456 15.872 0 31.232 6.656 44.032 19.456l32.768 32.768c12.8-6.144 26.112-11.776 39.936-16.384v-45.568c0-50.688 41.984-64.512 64.512-64.512h92.672c25.6 0 64 16.896 64 64.512v46.08c13.824 4.608 27.136 10.24 39.936 16.384l32.256-32.256c16.384-16.384 33.28-19.968 44.544-19.968 26.112 0 44.544 18.432 46.592 19.968l65.536 65.536c18.432 18.432 33.28 57.344 0 91.136l-32.256 32.256c6.144 12.8 11.776 26.112 16.384 39.936h46.08c23.552 0 37.888 9.728 46.08 17.408 18.432 18.432 18.432 44.032 18.432 46.592V430.08c-0.512 25.6-17.92 64-65.024 64z m-369.152-285.696c-96.768 0-175.616 78.848-175.616 175.616s78.848 175.616 175.616 175.616 175.616-78.848 175.616-175.616-78.848-175.616-175.616-175.616z"  horiz-adv-x="1024" />

    
    <glyph glyph-name="shebei3" unicode="&#58956;" d="M864.256 665.088c-8.192 21.504-27.648 38.4-52.224 38.4H214.016c-24.576 0-46.08-16.384-54.784-40.96l-76.8-313.856h857.088l-75.264 316.416zM75.264 294.4v-190.976c0-30.208 24.576-54.784 54.784-54.784h764.928c30.208 0 54.784 24.576 54.784 54.784v190.976H75.264zM839.68 157.696h-109.056v54.784H839.68v-54.784z"  horiz-adv-x="1024" />

    
    <glyph glyph-name="xitong3" unicode="&#58955;" d="M529.92 413.696l66.048 66.56L506.88 570.368l-66.048-66.56c-15.36 8.704-32.256 15.872-49.664 20.992V618.496H264.704v-93.696c-16.896-4.608-33.28-11.776-48.128-20.48L145.92 575.488 54.784 483.84l70.656-71.168c-8.704-15.36-15.36-31.744-19.968-48.64H12.288v-127.488h93.184c5.12-17.408 11.776-34.304 20.992-49.664l-66.048-66.56 89.6-90.112 66.048 66.56c15.36-8.704 31.744-15.872 49.664-20.992v-93.696h126.464v93.696c16.896 5.12 32.768 11.776 48.128 20.48l70.656-71.168 91.136 91.648-70.656 71.168c8.192 15.36 15.36 31.744 20.48 48.64H645.12V363.52h-93.184c-6.144 17.408-12.8 34.304-22.016 50.176z m-201.728-219.648c-58.368 0-105.472 47.616-105.472 105.984 0 58.88 47.104 105.984 105.472 105.984 58.368 0 105.472-47.616 105.472-105.984s-47.104-105.984-105.472-105.984z m684.544 328.704V607.744h-62.464c-3.072 11.264-7.68 22.528-13.824 32.768l44.544 44.544L921.6 745.472l-44.032-44.544c-10.24 6.144-21.504 10.752-32.768 13.824V777.728h-84.48v-62.464c-11.264-3.072-22.016-8.192-32.256-13.824l-47.104 47.616-60.928-61.44 47.616-47.616c-5.632-10.24-10.24-20.992-13.312-32.256h-62.464v-84.992h62.464c3.072-11.776 8.192-22.528 13.824-32.768l-44.544-44.544 59.392-59.904L727.04 430.08c10.24-5.632 21.504-10.752 32.768-13.824V353.28h84.48V415.744c11.264 3.072 22.016 7.68 32.256 13.824l47.104-47.616 60.928 61.44-47.616 47.616c5.632 10.24 10.24 20.992 13.312 32.256l62.464-0.512z m-210.432-28.16c-38.912 0-70.144 31.744-70.144 70.656 0 38.912 31.232 70.656 70.144 70.656s70.144-31.744 70.144-70.656c0-38.912-31.232-70.656-70.144-70.656z"  horiz-adv-x="1024" />

    
    <glyph glyph-name="qiantingbudui1" unicode="&#58954;" d="M23.552 273.408c24.576 16.896-25.088 12.8-17.92-18.944 14.336-3.072 19.968 4.096 22.016 17.408 4.096 27.648 10.24 54.784 13.824 82.944 2.56 17.408 10.24 25.6 28.16 25.088 22.016-0.512 44.032 0 65.536 0 16.384 0 24.064-8.192 24.064-24.064v-61.44c51.2 13.824 99.328 27.648 146.944 39.936 16.896 4.096 34.304 7.168 51.2 7.168 219.136 0.512 329.216 0.512 547.84 0 62.976 0 99.328-29.184 112.128-90.112 12.8-57.856-15.36-114.176-67.584-136.704-2.56-1.024-4.608-3.072-7.168-4.608H324.096c-53.76 15.36-107.52 31.744-158.208 46.08-7.168-17.408-13.312-31.744-18.944-46.08H51.2c-7.68 23.552-16.384 46.592-22.016 70.656-3.584 13.824-10.752 18.432-23.552 16.384-2.56-28.672 38.912-37.888 17.92-18.944v95.232z m628.736 222.208c0 13.824-2.56 26.112 0.512 37.888 2.048 7.68 11.264 13.312 17.408 19.968 6.656-6.656 16.896-12.8 18.944-20.48 3.584-10.24 0.512-22.016 0.512-35.328h39.424V607.744c0.512 31.232 17.92 53.76 45.568 59.904 12.8 2.56 25.088 2.56 29.696-12.8 4.608-14.848-5.632-20.48-17.92-25.6-7.68-3.584-18.432-13.312-18.432-20.992-2.048-36.864-0.512-74.24-0.512-113.664 26.112 5.632 38.4-10.752 50.688-28.16 12.8-17.92 27.136-34.816 39.424-52.736 13.312-18.944 6.144-35.328-17.408-35.328-107.008-0.512-213.504-0.512-320 0-23.552 0-29.696 16.384-16.384 35.328 16.384 22.528 32.768 45.568 50.688 67.072 6.656 7.168 18.432 12.8 28.672 13.312 22.528 2.56 44.544 1.536 69.12 1.536z"  horiz-adv-x="1024" />

    
    <glyph glyph-name="xinxi1" unicode="&#58952;" d="M747.008 536.064H276.48c-21.504 0-39.424-12.288-39.424-34.304 0-21.504 17.408-34.304 39.424-34.304h470.528c21.504 0 39.424 12.288 39.424 34.304 0 22.016-17.408 34.304-39.424 34.304zM943.104 232.448V776.704c0 43.52-35.328 78.336-78.336 78.336H158.72c-43.52 0-78.336-35.328-78.336-78.336v-784.384c0-43.52 35.328-78.336 78.336-78.336h462.848c12.288-2.56 26.112 1.024 35.84 10.752l274.944 274.944c8.704 8.704 12.288 20.992 10.752 32.768z m-274.432-195.584v151.552h151.552l-151.552-151.552z m-29.184 219.648c-21.504 0-39.424-17.408-39.424-39.424v-235.008H187.904c-21.504 0-39.424 17.408-39.424 39.424V752.64c0 21.504 17.408 39.424 39.424 39.424h648.192c21.504 0 39.424-17.408 39.424-39.424v-496.128h-236.032zM747.008 693.248H276.48c-21.504 0-39.424-12.288-39.424-34.304 0-21.504 17.408-34.304 39.424-34.304h470.528c21.504 0 39.424 12.288 39.424 34.304 0 21.504-17.408 34.304-39.424 34.304z"  horiz-adv-x="1024" />

    
    <glyph glyph-name="qicaiguanlirizhi1" unicode="&#58951;" d="M427.008 7.68H131.584V732.672H235.52v-41.984c0-17.408 13.824-31.232 31.232-31.232 17.408 0 31.232 13.824 31.232 31.232v41.984h269.312v-41.984c0-17.408 13.824-31.232 31.232-31.232 17.408 0 31.232 13.824 31.232 31.232v41.984h104.448v-290.304c0-17.408 13.824-31.232 31.232-31.232s31.232 13.824 31.232 31.232V736.256c0 14.336-4.608 28.16-13.312 38.912-10.24 12.288-24.576 19.456-39.936 19.456H629.76V848.384c0 17.408-13.824 31.232-31.232 31.232-17.408 0-31.232-13.824-31.232-31.232v-53.76H297.984V848.384c0 17.408-13.824 31.232-31.232 31.232-17.408 0-31.232-13.824-31.232-31.232v-53.76H122.368c-15.36 0-29.696-7.168-39.936-19.456-8.704-10.752-13.312-24.576-13.312-38.912v-732.672c0-14.336 4.608-28.16 13.312-38.912 10.24-12.288 24.576-19.456 39.936-19.456h304.64c17.408 0 31.232 13.824 31.232 31.232 0 17.408-13.824 31.232-31.232 31.232zM644.096 482.816c0 17.408-13.824 31.232-31.232 31.232H251.392c-17.408 0-31.232-13.824-31.232-31.232 0-17.408 13.824-31.232 31.232-31.232h361.984c16.896 0 30.72 13.824 30.72 31.232z m-392.704-178.688c-17.408 0-31.232-13.824-31.232-31.232s13.824-31.232 31.232-31.232h133.632c17.408 0 31.232 13.824 31.232 31.232s-13.824 31.232-31.232 31.232H251.392z m709.632-55.296c-0.512 0.512-0.512 0.512-0.512 1.024-0.512 0.512-0.512 1.024-1.024 1.536-8.704 16.384-23.04 30.208-40.96 38.912l-148.48 71.168c-26.624 13.312-58.88 13.312-85.504 0l-147.456-71.68c-18.944-8.192-33.28-22.016-42.496-39.424v-0.512c-6.656-12.288-10.24-26.112-10.24-40.448v-162.304c0-33.792 19.456-64.512 51.712-80.384l148.992-71.68c12.8-6.656 27.648-9.728 43.52-9.728h0.512c14.848 0 28.16 3.072 42.496 9.728l147.968 71.168c31.744 15.36 51.712 46.08 51.712 80.384v162.816c-0.512 13.824-4.096 27.136-10.24 39.424z m-396.8-225.28c-9.728 5.12-16.384 13.824-16.384 23.04v139.264l45.568-23.552v-73.216c0-17.408 14.336-31.744 31.744-31.744 17.408 0 31.744 14.336 31.744 31.744v39.936l39.424-20.48 0.512-148.48-132.608 63.488z m163.328 140.288l-146.432 76.288 131.584 63.488c4.608 2.048 9.728 3.584 15.36 3.584 5.12 0 10.752-1.024 15.36-3.584L875.52 240.64l-147.968-76.8z m179.712-117.76c0-9.728-5.632-18.432-15.872-23.04l-131.584-63.488-0.512 148.992 147.968 77.312V46.08z"  horiz-adv-x="1024" />

    
    <glyph glyph-name="xitongguanlirizhi1" unicode="&#58950;" d="M445.44-0.512H150.016V724.48h104.448v-41.984c0-17.408 13.824-31.232 31.232-31.232 17.408 0 31.232 13.824 31.232 31.232v41.984h269.312v-41.984c0-17.408 13.824-31.232 31.232-31.232 17.408 0 31.232 13.824 31.232 31.232v41.984h104.448v-290.304c0-17.408 13.824-31.232 31.232-31.232s31.232 13.824 31.232 31.232V728.064c0 14.336-4.608 28.16-13.312 38.912-10.24 12.288-24.576 19.456-39.936 19.456h-113.152V840.192c0 17.408-13.824 31.232-31.232 31.232-17.408 0-31.232-13.824-31.232-31.232v-53.76H316.416V840.192c0 17.408-13.824 31.232-31.232 31.232s-31.232-13.824-31.232-31.232v-53.76H140.8c-15.36 0-29.696-7.168-39.936-19.456-8.704-10.752-13.312-24.576-13.312-38.912v-732.672c0-14.336 4.608-28.16 13.312-38.912 10.24-12.288 24.576-19.456 39.936-19.456H445.44c17.408 0 31.232 13.824 31.232 31.232 0 17.408-13.824 31.232-31.232 31.232zM662.528 474.624c0 17.408-13.824 31.232-31.232 31.232H269.824c-17.408 0-31.232-13.824-31.232-31.232s13.824-31.232 31.232-31.232h361.984c16.896 0 30.72 13.824 30.72 31.232z m-392.704-178.688c-17.408 0-31.232-13.824-31.232-31.232 0-17.408 13.824-31.232 31.232-31.232h133.632c17.408 0 31.232 13.824 31.232 31.232 0 17.408-13.824 31.232-31.232 31.232H269.824z m642.048-104.448l-24.064 5.12 12.8 22.016c8.704 14.848 6.144 33.28-5.632 45.568l-42.496 42.496c-12.288 12.288-32.256 14.336-46.592 5.12l-19.968-12.8-5.632 23.552c-3.584 16.896-18.944 29.184-36.352 29.184h-60.416c-16.896 0-31.744-11.264-36.352-28.16l-6.656-25.088-20.48 13.312c-14.848 9.728-34.304 7.68-46.592-5.12l-42.496-42.496c-11.776-11.776-14.336-30.72-5.632-45.568l13.312-23.04-23.552-5.12c-17.408-3.584-29.696-18.944-29.696-36.864v-60.416c0-16.896 11.264-31.744 28.16-36.352l25.6-6.656-13.824-20.48s0-0.512-0.512-0.512c-9.728-14.848-7.68-34.304 5.12-46.592l42.496-42.496c11.776-11.776 30.72-14.336 45.568-5.632l23.04 13.312 6.656-25.6c4.096-16.384 18.944-28.16 36.352-28.16h60.416c17.408 0 32.768 12.288 36.864 29.696v0.512l4.608 24.064 22.528-13.312c14.848-8.704 33.28-6.144 45.568 5.632l42.496 42.496c12.288 12.288 14.336 32.256 5.12 46.592l-12.8 19.968 25.6 6.656c16.384 4.096 28.16 19.456 28.16 36.352v60.416c-1.024 19.456-13.312 34.816-30.72 38.4z m-18.432-88.576l-50.176-13.312c-7.68-2.048-13.824-7.168-16.384-14.848-2.56-7.168-2.048-15.36 2.048-21.504l26.112-40.448-30.72-30.72-45.056 26.112c-6.656 4.096-14.848 4.608-22.016 1.024-7.168-3.072-12.288-9.728-13.824-17.408l-9.728-48.128h-43.008l-12.8 48.64c-2.048 7.168-7.168 13.312-14.336 16.384-7.168 2.56-14.848 2.048-21.504-1.536l-43.008-25.088-30.72 30.72 27.136 40.96c4.096 6.656 5.12 14.848 2.56 22.016s-8.704 12.8-16.384 14.848l-50.176 13.312v43.52l47.616 10.24c7.68 1.536 13.824 6.656 16.896 13.824 3.072 7.168 2.56 15.36-1.024 22.016l-26.112 44.544 30.72 30.72 36.352-23.552c3.584-4.096 8.704-7.168 14.848-8.192 12.288-1.536 23.552 5.632 26.624 17.92l13.312 50.176h43.52l11.264-49.152c1.536-7.68 7.168-13.824 14.336-16.896 7.168-3.072 15.36-2.048 22.016 2.048l40.96 26.624 30.72-30.72-25.6-44.032c-4.096-6.656-4.096-14.848-1.024-22.016 3.072-7.168 9.216-12.288 16.896-13.824l48.128-10.24 1.536-44.032zM713.728 220.672c-53.76 0-97.28-43.52-97.28-97.28s43.52-97.28 97.28-97.28 97.28 43.52 97.28 97.28c-0.512 53.76-44.032 97.28-97.28 97.28z m0-147.456c-27.648 0-50.176 22.528-50.176 50.176s22.528 50.176 50.176 50.176 50.176-22.528 50.176-50.176-22.528-50.176-50.176-50.176z"  horiz-adv-x="1024" />

    
    <glyph glyph-name="shoumingbaojing" unicode="&#58949;" d="M793.088 834.56H167.424C112.64 834.56 68.096 790.016 68.096 735.232v-625.664c0-54.784 44.544-99.328 99.328-99.328h164.864c17.408 0 31.744 14.336 31.744 31.744 0 17.408-14.336 31.744-31.744 31.744H167.424c-19.968 0-35.84 16.384-35.84 35.84V735.232c0 19.968 16.384 35.84 35.84 35.84h625.664c19.968 0 35.84-16.384 35.84-35.84V506.88c0-17.408 14.336-31.744 31.744-31.744 17.408 0 31.744 14.336 31.744 31.744V735.232c0 54.784-44.544 99.328-99.328 99.328zM706.048 357.888c49.664 0 95.744-19.456 131.072-54.272 34.816-34.816 54.272-81.408 54.272-131.072 0-49.664-18.944-95.744-54.272-131.072-34.816-34.816-81.408-54.272-131.072-54.272-49.664 0-95.744 19.456-131.072 54.272-34.816 34.816-54.272 81.408-54.272 131.072 0 49.664 19.456 95.744 54.272 131.072 35.328 35.328 81.92 54.272 131.072 54.272m0 66.56c-139.264 0-251.904-112.64-251.904-251.904s112.64-251.904 251.904-251.904 251.904 112.64 251.904 251.904-112.64 251.904-251.904 251.904zM818.176 113.152h-125.44c-18.432 0-33.28 14.848-33.28 33.28s14.848 33.28 33.28 33.28h125.44c18.432 0 33.28-14.848 33.28-33.28s-14.848-33.28-33.28-33.28zM692.736 113.152c-18.432 0-33.28 14.848-33.28 33.28v138.752c0 18.432 14.848 33.28 33.28 33.28s33.28-14.848 33.28-33.28v-138.752c0-18.432-14.848-33.28-33.28-33.28zM487.936 509.44c-18.432 0-33.28 14.848-33.28 33.28V684.032c0 18.432 14.848 33.28 33.28 33.28s33.28-14.848 33.28-33.28V542.72c0-18.432-14.848-33.28-33.28-33.28zM454.144 448c0-18.432 14.848-33.28 33.28-33.28s33.28 14.848 33.28 33.28-14.336 33.28-32.768 33.28c-18.432 0-33.792-14.848-33.792-33.28z"  horiz-adv-x="1024" />

    
    <glyph glyph-name="shoumingjilu" unicode="&#58948;" d="M793.088 839.68H167.424C112.64 839.68 68.096 795.136 68.096 740.352v-625.664c0-54.784 44.544-99.328 99.328-99.328h164.864c17.408 0 31.744 14.336 31.744 31.744 0 17.408-14.336 31.744-31.744 31.744H167.424c-19.968 0-35.84 16.384-35.84 35.84V740.352c0 19.968 16.384 35.84 35.84 35.84h625.664c19.968 0 35.84-16.384 35.84-35.84V512c0-17.408 14.336-31.744 31.744-31.744 17.408 0 31.744 14.336 31.744 31.744V740.352c0 54.784-44.544 99.328-99.328 99.328zM226.304 607.232h274.944c17.408 0 31.744 14.336 31.744 31.744 0 17.408-14.336 31.744-31.744 31.744H226.304c-17.408 0-31.744-14.336-31.744-31.744 0-17.408 14.336-31.744 31.744-31.744z m0-147.968h274.944c17.408 0 31.744 14.336 31.744 31.744 0 17.408-14.336 31.744-31.744 31.744H226.304c-17.408 0-31.744-14.336-31.744-31.744s14.336-31.744 31.744-31.744zM706.048 363.008c49.664 0 95.744-19.456 131.072-54.272 34.816-34.816 54.272-81.408 54.272-131.072 0-49.664-18.944-95.744-54.272-131.072-34.816-34.816-81.408-54.272-131.072-54.272-49.664 0-95.744 19.456-131.072 54.272-34.816 34.816-54.272 81.408-54.272 131.072 0 49.664 19.456 95.744 54.272 131.072 35.328 35.328 81.92 54.272 131.072 54.272m0 66.56c-139.264 0-251.904-112.64-251.904-251.904s112.64-251.904 251.904-251.904 251.904 112.64 251.904 251.904-112.64 251.904-251.904 251.904zM818.176 118.272h-125.44c-18.432 0-33.28 14.848-33.28 33.28s14.848 33.28 33.28 33.28h125.44c18.432 0 33.28-14.848 33.28-33.28s-14.848-33.28-33.28-33.28zM692.736 118.272c-18.432 0-33.28 14.848-33.28 33.28v138.752c0 18.432 14.848 33.28 33.28 33.28s33.28-14.848 33.28-33.28v-138.752c0-18.432-14.848-33.28-33.28-33.28z"  horiz-adv-x="1024" />

    
    <glyph glyph-name="lingyong1" unicode="&#58946;" d="M908.288 349.184l-71.168 200.192c-5.12 14.336-18.432 24.064-33.792 24.064h-75.776c-19.968 0-35.84-16.384-35.84-36.352s15.872-36.352 35.84-36.352h50.688l45.568-128.512H201.728l45.568 128.512h50.688c19.968 0 35.84 16.384 35.84 36.352s-15.872 36.352-35.84 36.352H222.208c-14.848 0-28.672-9.728-33.792-24.064l-71.168-200.192c-1.536-4.096-2.56-8.192-2.56-13.312v-418.816c0-19.968 15.872-36.352 35.84-36.352h723.968c19.968 0 35.84 16.384 35.84 36.352v418.816c0.512 4.608-0.512 9.216-2.048 13.312z m-69.12-395.776H186.368v346.112h652.8v-346.112zM629.248 90.112H396.288c-19.968 0-35.84 16.384-35.84 36.352s15.872 36.352 35.84 36.352h232.448c19.968 0 35.84-16.384 35.84-36.352s-15.872-36.352-35.328-36.352z m-23.04 357.376c11.776-0.512 22.016 8.704 22.528 15.872l15.872 177.664h66.56c7.168 0 13.824 4.608 16.384 11.264s4.608 23.04-3.584 29.696L525.312 881.152c-7.168 7.168-17.92 7.168-25.088 0L301.568 681.984c-10.752-10.24-6.656-22.528-4.096-29.696 2.56-6.656 9.216-11.264 16.384-11.264h61.44L391.68 465.92c1.536-7.68 10.752-21.504 29.184-19.456 11.776 1.536 23.552 13.312 22.016 22.528L424.96 671.232c-1.024 9.216-8.704 16.384-17.92 16.384h-30.208l135.68 135.168 138.752-135.168H614.4c-9.216 0-16.896-7.168-17.92-16.384L578.56 467.456c-1.024-9.728 12.288-18.944 22.016-19.968h5.632z"  horiz-adv-x="1024" />

    
    <glyph glyph-name="shoumingjianguanli" unicode="&#58945;" d="M357.376-78.848H253.952c-90.624 0-165.888 70.144-172.032 160.768l-0.512 11.264V678.4c0 90.624 70.144 165.888 160.768 172.032l11.264 0.512h413.184c90.624 0 165.888-70.144 172.032-160.768l0.512-11.264v-101.888c0-18.944-15.36-34.304-34.304-34.304-16.896 0-31.232 11.776-33.792 28.16l-0.512 6.144V678.4c0 53.248-47.104 113.152-93.184 113.152l-9.728 0.512H253.952c-43.008 0-108.032-61.44-108.032-103.424l-0.512-10.24v-585.216c0-39.424 45.568-102.912 98.304-108.032l10.24-0.512h103.424c18.944 0 34.304-10.24 34.304-29.184 0-16.896-11.776-31.232-28.16-33.792l-6.144-0.512z m399.36 175.104c-8.704-3.072-17.92-2.048-26.112 2.048l-87.04 43.52c-8.192 4.096-14.336 11.264-17.408 19.968l-13.312 104.448c-6.144 17.92 3.584 37.376 22.016 43.52 17.92 6.144 37.376-3.584 43.52-22.016l8.704-91.136 74.24-37.376c16.896-8.704 24.064-29.184 15.36-46.08-4.096-7.68-11.264-14.336-19.968-16.896zM940.544 249.856c-3.072 16.384-12.288 27.136-23.552 26.624h-2.56c-38.912 0-70.656 33.792-70.656 75.264 0 13.824 6.144 28.672 6.144 28.672 6.144 14.336 1.536 32.256-10.752 40.96l-0.512 0.512-68.096 39.936-0.512 0.512c-4.096 2.048-8.704 2.56-13.312 2.56-9.728 0-19.456-4.096-25.6-10.752-8.192-9.216-34.304-32.768-55.808-32.768s-47.616 24.064-56.32 33.28c-6.144 7.168-15.872 11.264-25.6 11.264-4.608 0-8.704-1.024-12.8-2.56l-0.512-0.512-70.656-40.96-0.512-0.512c-12.288-9.216-16.896-26.624-10.752-40.96 0 0 6.144-14.848 6.144-28.672 0-41.472-31.744-75.264-70.656-75.264h-2.56c-11.264 0.512-20.48-10.24-23.552-26.624 0-1.536-5.632-32.256-5.632-56.32 0-24.576 5.632-55.296 5.632-56.32 3.072-16.384 11.776-26.624 23.04-26.624h3.072c38.912 0 70.656-33.792 70.656-75.264 0-13.824-6.144-28.672-6.144-28.672-6.144-14.336-1.536-32.256 10.752-40.96l0.512-0.512 66.56-39.424 0.512-0.512c4.096-2.048 8.192-3.072 13.312-3.072 9.728 0 19.456 4.096 25.6 11.264 7.68 9.216 35.328 34.816 56.832 34.816 22.016 0 48.64-25.6 57.344-35.328 6.144-7.168 15.872-11.776 25.6-11.776 4.608 0 8.704 1.024 12.8 2.56l0.512 0.512 69.12 40.448 0.512 0.512c12.288 9.216 16.896 26.624 10.752 40.96 0 0-6.144 14.848-6.144 28.672 0 41.472 31.744 75.264 70.656 75.264h2.56c11.264 0 20.48 10.24 23.552 26.624 0 1.536 5.632 32.256 5.632 56.32s-4.608 55.296-4.608 56.832z m-60.416-88.064c-50.688-9.728-95.232-61.952-95.232-112.64 0-16.896 6.144-33.28 7.68-36.864l-36.864-21.504c-1.024 0-1.536 0.512-2.048 0.512-1.024 1.024-9.728 9.728-24.576 18.432-18.944 14.848-41.472 16.384-56.832 16.384s-35.84-3.072-55.808-15.872c-13.824-8.192-22.016-16.896-23.04-18.432-0.512 0-1.024-0.512-2.048-0.512l-36.352 21.504c1.536 6.656 5.632 18.944 2.56 44.032-5.632 50.688-43.52 101.888-90.624 104.448-0.512 4.096-2.56 15.872-2.56 32.768 0 16.896 2.56 31.232 3.072 35.328 47.104 2.56 93.696 56.832 93.696 108.032 0 16.896-6.144 33.28-7.68 36.864l41.984 25.088c1.024 0 2.048-0.512 2.048-0.512 1.024-1.024 9.216-9.728 20.48-18.944 17.408-13.312 40.96-15.872 55.808-15.872 14.848 0 35.328 3.072 54.784 15.36 13.312 7.68 21.504 16.896 22.016 17.92 0.512 0 1.024 0.512 2.048 0.512l33.28-19.968c-1.536-3.584-4.096-20.48-4.096-37.888 0-51.2 49.664-111.104 96.768-113.664 0.512-4.096 2.56-15.36 2.56-32.256 1.536-17.92 0-28.16-1.024-32.256zM614.4 608.256H307.712c-20.48 0-36.864 11.264-36.864 31.744s16.384 31.744 36.864 31.744H614.4c20.48 0 36.864-11.264 36.864-31.744 0-19.968-16.384-31.744-36.864-31.744zM384 441.856H307.712c-20.48 0-36.864 11.264-36.864 31.744s16.384 31.744 36.864 31.744H384c20.48 0 36.864-11.264 36.864-31.744 0-19.968-16.384-31.744-36.864-31.744z"  horiz-adv-x="1024" />

    
    <glyph glyph-name="chuangjianrukudan" unicode="&#58944;" d="M311.296 251.392c-5.12-4.096-7.68-9.728-9.216-16.384-1.536-8.192 1.536-16.384 7.168-21.504l89.6-89.6c6.144-6.144 18.432-8.192 25.088-6.144 7.168 2.048 11.776 5.632 13.824 13.312 2.56 7.68-2.56 19.456-9.728 26.112l-52.224 51.712h145.408c9.216 0 17.408 2.56 22.528 10.752s5.12 18.432 0 26.112-13.312 11.264-22.528 11.264H376.32l55.808 52.736c7.68 6.144 11.264 18.944 9.728 26.112-2.048 7.168-5.632 13.312-13.312 15.36-9.216 2.048-18.944-1.536-26.112-8.192l-91.136-91.648zM484.864-23.552H210.944c-24.576 0-45.056 20.48-45.056 45.056l2.56 529.408c0 15.36 7.68 30.208 20.992 37.888l295.424 188.416c14.848 9.216 32.768 9.216 47.616 0L828.416 588.8c13.312-8.192 20.992-22.528 20.992-37.888v-83.456c0-24.576-2.56-38.4-27.136-38.4s-27.136 13.824-27.136 38.4v71.68L508.928 719.36 224.256 539.136l-2.56-506.88h263.68c16.384 0 26.624-9.216 32.256-22.528 3.584-7.168 2.048-5.12-0.512-11.264-6.144-11.264-16.896-22.016-32.256-22.016zM225.792 540.16L101.376 461.824c-13.312-8.704-31.232-5.12-39.936 8.704l-2.048 3.072c-8.704 13.312-5.12 31.232 8.704 39.936l123.904 77.824c13.312 8.704 31.232 5.12 39.936-8.704l2.048-3.072c8.704-13.312 4.608-31.232-8.192-39.424zM799.744 535.04l121.856-76.8c12.8-8.704 30.72-5.12 39.424 8.704l2.048 3.072c8.704 12.8 5.12 30.72-8.704 39.424l-121.856 76.8c-12.8 8.704-30.72 5.12-39.424-8.704l-2.048-3.072c-8.704-12.8-5.12-30.72 8.704-39.424zM850.432 386.56h-195.584c-18.432 0-33.792-14.848-33.792-33.792v-336.896c0-18.432 14.848-33.792 33.792-33.792h275.456c18.432 0 33.792 14.848 33.792 33.792v252.416l-113.664 118.272z m74.24-118.272h-58.368c-10.752 0-17.408 7.68-17.408 19.456v58.368l75.776-77.824z m-257.536 77.312h147.968l-1.536-58.368c0.512-28.16 13.824-53.76 52.736-53.76h2.048l53.248 0.512v-204.8c0-2.56-2.048-5.12-5.12-5.12h-250.368c-2.56 0-5.12 2.048-5.12 5.12v311.296c1.536 2.56 3.584 5.12 6.144 5.12z m27.648-203.776c0-13.312 12.288-17.92 16.896-17.92l153.088-0.512c5.12 0 17.408 5.12 17.408 18.944 0 13.312-12.8 17.92-17.408 17.92l-153.088 0.512c-4.608 0.512-16.896-4.096-16.896-18.944z m95.744-90.112c13.312 0 19.456 9.728 19.456 14.336l0.512 145.92c0 5.12-5.632 15.36-18.432 15.36-12.288 0-18.944-11.264-18.944-15.36l-0.512-145.92c-1.024-4.608 6.144-14.336 17.92-14.336z"  horiz-adv-x="1024" />

    
    <glyph glyph-name="guihuan1" unicode="&#58941;" d="M885.76 351.744l-66.56 187.904c-4.608 13.312-17.408 22.528-31.232 22.528H716.8c-18.432 0-33.28-15.36-33.28-33.792s14.848-33.792 33.28-33.792h47.616l43.008-120.32h-583.68L266.24 494.08h47.616c18.432 0 33.28 15.36 33.28 33.792s-14.848 33.792-33.28 33.792H242.688c-14.336 0-26.624-9.216-31.744-22.528l-66.56-187.904c-1.536-3.584-2.048-7.68-2.048-12.288v-392.704c0-18.944 14.848-33.792 33.792-33.792H855.04c18.432 0 33.792 15.36 33.792 33.792v392.704c-1.024 5.12-1.536 9.216-3.072 12.8zM208.896-18.944v324.608h611.84v-324.608H208.896z m415.232 128H406.016c-18.432 0-33.28 15.36-33.28 33.792s14.848 33.792 33.28 33.792h218.112c18.432 0 33.28-15.36 33.28-33.792s-14.848-33.792-33.28-33.792zM602.624 855.04h-4.608c-9.216-1.024-21.504-9.216-20.48-18.432L593.92 645.12c1.024-8.704 8.192-15.36 16.896-15.36h34.304l-130.048-126.976L387.584 629.76h28.16c8.704 0 15.872 6.656 16.896 15.36l16.896 188.416c1.536 8.704-9.216 19.968-20.48 20.992-17.408 2.048-26.112-10.752-27.648-17.92l-15.36-163.84H328.192c-6.656 0-12.8-4.096-15.36-10.752-2.56-6.144-6.656-17.92 3.584-27.648l186.368-186.368c6.656-6.656 16.896-6.656 23.552 0L713.216 634.88c7.168 6.144 5.632 20.992 3.072 27.648-2.56 6.144-8.704 10.752-15.36 10.752h-62.464L623.616 839.68c-0.512 7.168-10.24 15.872-20.992 15.36z"  horiz-adv-x="1024" />

    
    <glyph glyph-name="biaoqianzhizuo1" unicode="&#58939;" d="M903.168 795.648H116.224c-18.944 0-34.304-15.36-34.304-34.304v-614.4c0-18.944 15.36-34.304 34.304-34.304h114.688a34.304 34.304 0 0 1 0 68.608H150.528V727.552h718.336v-546.304h-72.704a34.304 34.304 0 0 1 0-68.608h107.008c18.944 0 34.304 15.36 34.304 34.304v614.4c-0.512 18.944-15.872 34.304-34.304 34.304zM519.68 266.24c-12.8 13.312-33.792 13.824-47.104 1.536l-66.048-58.88-13.312 256 253.44-30.208-51.712-48.128c-9.216-8.192-13.312-20.992-10.752-32.768 2.56-12.288 11.776-21.504 23.552-25.088 11.776-3.584 24.576-0.512 33.792 8.192L747.008 435.2c9.728 9.216 13.312 23.04 9.216 35.84s-15.36 21.504-28.16 23.552L360.96 537.6c-10.24 1.024-19.968-2.048-27.136-8.704-7.68-7.168-11.264-16.896-10.752-27.136l19.456-367.616c0.512-13.312 8.704-24.576 20.992-29.696 12.288-5.12 26.112-2.56 35.84 6.144l94.72 84.48 205.312-212.992c13.312-13.824 34.816-13.824 48.128-1.024 13.824 13.312 13.824 34.816 1.024 48.128L519.68 266.24z"  horiz-adv-x="1024" />

    
    <glyph glyph-name="xiangqing" unicode="&#59130;" d="M778.04492188-9.837890629999947L246.04296875-9.837890629999947c-47.19726563 0-85.60546875 38.3203125-85.60546875 85.51757813l0 616.46484375c0 47.19726563 38.40820313 85.51757813 85.60546875 85.51757813l532.00195313-1e-8c47.19726563 0 85.51757813-38.3203125 85.51757812-85.51757812l0-616.46484375C863.5625 28.482421870000053 825.2421875-9.837890629999947 778.04492188-9.837890629999947L778.04492188-9.837890629999947zM246.04296875 729.49804688c-20.65429689 0-37.35351563-16.78710938-37.35351563-37.35351563l0-616.46484375c0-20.56640625 16.78710938-37.44140625 37.35351563-37.44140625l532.00195313 0c20.56640625 0 37.35351563 16.78710938 37.35351562 37.44140625L815.3984375 692.14453125c0 20.56640625-16.78710938 37.35351563-37.35351563 37.35351563L246.04296875 729.49804688 246.04296875 729.49804688zM340.0859375 539.6542968900001l-46.66992188-2e-8L293.41601562 587.90625001l46.66992188-2e-8L340.0859375 539.6542968900001 340.0859375 539.6542968900001zM340.0859375 407.99414063l-46.66992188-1e-8 0-48.1640625 46.66992188 0L340.0859375 407.99414063 340.0859375 407.99414063zM340.0859375 228.08203125l-46.66992188 0 0-48.1640625 46.66992188 0L340.0859375 228.08203125 340.0859375 228.08203125zM730.58398438 539.6542968900001L377.79101562 539.6542968900001 377.79101562 587.90625001l352.79296876-2e-8L730.58398438 539.6542968900001 730.58398438 539.6542968900001zM730.58398438 407.99414063L377.79101562 407.99414063l1e-8-48.16406251 352.79296874 0L730.58398438 407.99414063 730.58398438 407.99414063zM730.58398438 228.08203125L377.79101562 228.08203125l1e-8-48.1640625 352.79296874 0L730.58398438 228.08203125 730.58398438 228.08203125z"  horiz-adv-x="1024" />

    
    <glyph glyph-name="xinzeng1" unicode="&#58938;" d="M833.536 419.84H547.84V705.536c0 19.968-15.872 35.84-35.84 35.84s-35.84-15.872-35.84-35.84V419.84H190.464c-19.968 0-35.84-15.872-35.84-35.84s15.872-35.84 35.84-35.84H476.16v-285.696c0-19.968 15.872-35.84 35.84-35.84s35.84 15.872 35.84 35.84V348.16h285.696c19.968 0 35.84 15.872 35.84 35.84-0.512 19.968-16.384 35.84-35.84 35.84z"  horiz-adv-x="1024" />

    
    <glyph glyph-name="zidianweihu" unicode="&#58906;" d="M810.389333 85.589333a63.850667 63.850667 0 0 1 56.32 63.232v618.666667c0 35.285333-28.714667 64-64 64h-618.666666c-35.285333 0-64-28.714667-64-64v-618.666667c0-1.664 0.362667-3.221333 0.490666-4.842666v-112.661334a192.64 192.64 0 0 1-1.301333-22.762666c0-58.901333 47.765333-85.333333 106.666667-85.333334h611.541333a26.538667 26.538667 0 0 1 0 53.077334h-66.346667a62.357333 62.357333 0 0 0-11.2 32.256c-2.538667 33.557333 20.885333 62.464 50.496 77.034666zM184.042667 788.821333h618.666666c11.776 0 21.333333-9.578667 21.333334-21.333333v-618.666667a21.333333 21.333333 0 0 0-21.333334-21.333333h-618.666666a21.12 21.12 0 0 0-20.842667 18.901333V458.154667h-0.490667v309.333333c0 11.754667 9.578667 21.333333 21.333334 21.333333zM172.565333 8.533333c0 42.858667 10.474667 53.333333 53.333334 53.333334h490.325333a120.896 120.896 0 0 1-9.493333-57.365334c0.768-10.24 2.645333-19.52 5.312-27.968H225.898667c-53.333333 0-53.333333 24.085333-53.333334 32zM306.752 408.469333h73.898667l-52.266667-52.266666a21.312 21.312 0 0 1 0-30.165334l45.248-45.248a21.312 21.312 0 0 1 30.165333 0l57.493334 57.493334v-79.146667a21.333333 21.333333 0 0 1 21.333333-21.333333h64a21.333333 21.333333 0 0 1 21.333333 21.333333v68.672l47.04-47.04a21.312 21.312 0 0 1 30.165334 0l45.248 45.248a21.312 21.312 0 0 1 0 30.165333l-52.266667 52.266667h73.898667a21.333333 21.333333 0 0 1 21.333333 21.333333v64a21.333333 21.333333 0 0 1-21.333333 21.376h-73.898667l52.266667 52.266667a21.312 21.312 0 0 1 0 30.165333l-45.248 45.248a21.312 21.312 0 0 1-30.165334 0l-47.04-47.04v68.672a21.333333 21.333333 0 0 1-21.333333 21.333334h-64a21.333333 21.333333 0 0 1-21.333333-21.333334v-79.146666l-57.493334 57.493333a21.312 21.312 0 0 1-30.165333 0l-45.248-45.248a21.312 21.312 0 0 1 0-30.165333l52.266667-52.266667h-73.898667a21.333333 21.333333 0 0 1-21.333333-21.333333v-64a21.333333 21.333333 0 0 1 21.333333-21.333334z m202.624 138.688a85.333333 85.333333 0 1 0 0-170.666666 85.333333 85.333333 0 0 0 0 170.666666z"  horiz-adv-x="1024" />

    
    <glyph glyph-name="jihuashangT" unicode="&#58904;" d="M990.92992-25.6h-331.0592a22.84544 22.84544 0 0 0-22.83008 22.86592v354.40128a22.85056 22.85056 0 0 0 22.83008 22.86592h62.78656v11.43296a34.27328 34.27328 0 0 0 34.24768 34.304h136.99072a34.27328 34.27328 0 0 0 34.24768-34.304v-11.43296h62.78656a22.85056 22.85056 0 0 0 22.83008-22.86592v-354.40128a22.84544 22.84544 0 0 0-22.83008-22.86592z m-108.45184 405.84704h-114.176v-40.0128h114.176v40.0128z m79.91296-51.44576h-34.816a34.19648 34.19648 0 0 0-33.66912-28.57984h-137.00096a34.2016 34.2016 0 0 0-33.67424 28.57984h-34.816v-302.95552h273.98144v302.95552z m-234.02496-137.18528a28.58496 28.58496 0 1 0-28.53888-28.58496 28.56448 28.56448 0 0 0 28.53888 28.58496z m0-34.304a5.71904 5.71904 0 1 1-5.7088 5.71392 5.71392 5.71392 0 0 1 5.7088-5.7088z m0-51.44576a28.57984 28.57984 0 1 0-28.53888-28.57984 28.55936 28.55936 0 0 0 28.53888 28.58496z m0-34.304a5.71904 5.71904 0 1 1-5.7088 5.71904 5.71392 5.71392 0 0 1 5.7088-5.7088z m-0.26112 145.6384a17.03936 17.03936 0 0 0-6.61504 3.5328l-15.80032 13.06624a17.13664 17.13664 0 0 0 22.528 25.85088l5.01248-4.1472 21.67808 21.53472a17.13664 17.13664 0 0 0 23.34208-25.088l-31.744-31.5392a17.1008 17.1008 0 0 0-18.40128-3.2z m80.16896 43.008h125.57312a17.152 17.152 0 0 0 0-34.304h-125.57312a17.152 17.152 0 0 0 0 34.304z m0-80.0256h74.20416a17.152 17.152 0 0 0 0-34.304h-74.20416a17.152 17.152 0 0 0 0 34.304z m0-85.74464h125.57312a17.14688 17.14688 0 0 0 0-34.304h-125.57312a17.14688 17.14688 0 0 0 0 34.304zM628.10624 406.528l-133.76512 42.31168v-360.1152l57.07776-5.71904s23.79776-54.30784 51.37408-74.30656a683.80672 683.80672 0 0 1-142.69952 22.8608c-48.29696 2.83136-114.176-10.112-148.4032-28.57984s-136.28928-15.0784-188.35968 5.71904-102.74304 45.72672-102.74304 45.72672-19.0208 19.87072-5.7088 40.0128 33.88416 17.66912 51.36896 5.71904 114.176-40.0128 114.176-40.0128l-114.176 280.064S48.2816 390.54336 117.62176 414.54592l51.38944 16.83968V597.46304a57.11872 57.11872 0 0 0 57.05728 57.15968h91.33056V717.50144A91.392 91.392 0 0 0 408.72448 808.96h108.44672a91.38688 91.38688 0 0 0 91.32544-91.45856v-62.87872h91.33056a57.11872 57.11872 0 0 0 57.07776-57.15968V468.992c-61.89568-15.60064-102.43072-39.26528-128.79872-62.464z m-493.3632-54.87104c-1.11616 0.36864 114.176-297.2416 114.176-297.2416 17.79712-1.94048 45.66528 11.43296 45.66528 11.43296 24.91392 15.104 136.99072 22.86592 136.99072 22.86592V448.83968s-295.71584-97.54112-296.832-97.17248z m410.96704 360.12544a34.26816 34.26816 0 0 1-34.24768 34.304H414.43328a34.27328 34.27328 0 0 1-34.24768-34.304v-57.15968h165.5296V711.7824z m136.99072-114.31936H237.48608v-143.63136l194.048 63.60576s70.28736 11.09504 102.74304-5.71392c18.89792-9.78944 91.24352-33.36192 148.4032-51.35872V597.46304z"  horiz-adv-x="1024" />

    
    <glyph glyph-name="qicaixiaohao" unicode="&#58901;" d="M916.48-35.84H112.64a15.36 15.36 0 0 0-15.36 15.36v199.68a15.36 15.36 0 0 0 15.36 15.36h803.84a15.36 15.36 0 0 0 15.36-15.36v-199.68a15.36 15.36 0 0 0-15.36-15.36z m-115.2 168.96h-476.16a48.64 48.64 0 0 1 0-97.28h476.16a48.64 48.64 0 0 1 0 97.28z m115.2 133.12H112.64a15.36 15.36 0 0 0-15.36 15.36V481.28a15.36 15.36 0 0 0 15.36 15.36h803.84a15.36 15.36 0 0 0 15.36-15.36v-199.68a15.36 15.36 0 0 0-15.36-15.36z m-115.2 163.84h-215.04a48.64 48.64 0 0 1 0-97.28h215.04a48.64 48.64 0 0 1 0 97.28zM916.48 568.32H112.64a15.36 15.36 0 0 0-15.36 15.36V783.36a15.36 15.36 0 0 0 15.36 15.36h803.84a15.36 15.36 0 0 0 15.36-15.36v-199.68a15.36 15.36 0 0 0-15.36-15.36z m-115.2 158.72h-322.56a48.64 48.64 0 0 1 0-97.28h322.56a48.64 48.64 0 0 1 0 97.28z"  horiz-adv-x="1024" />

    
    <glyph glyph-name="shangchuan1" unicode="&#58899;" d="M907.776 32.256H116.224c-24.064 0-44.032 19.456-44.032 44.032v343.04c0 24.064 19.456 44.032 44.032 44.032h88.064c24.064 0 44.032-19.456 44.032-44.032 0-24.064-19.456-44.032-44.032-44.032h-44.032v-254.976h703.488v254.976h-44.032c-24.064 0-44.032 19.456-44.032 44.032 0 24.064 19.456 44.032 44.032 44.032h88.064c24.064 0 44.032-19.456 44.032-44.032v-343.04c0-24.576-19.968-44.032-44.032-44.032zM467.968 586.24L411.136 528.896c-16.384-14.336-40.96-14.336-57.344 0-18.432 15.872-20.48 43.52-4.608 61.952L481.28 722.944c8.192 8.192 19.456 12.8 31.232 12.8 13.824 0 26.624-6.656 35.328-17.408l126.976-126.976c14.336-16.384 14.336-40.96 0-57.344-15.872-18.432-43.52-20.48-61.952-4.608l-56.32 56.32v-333.312c0-24.064-19.456-44.032-44.032-44.032-24.064 0-44.032 19.456-44.032 44.032V586.24h-0.512z"  horiz-adv-x="1024" />

    
    <glyph glyph-name="xiazai" unicode="&#58898;" d="M907.776 32.256H116.224c-24.064 0-44.032 19.456-44.032 44.032v343.04c0 24.064 19.456 44.032 44.032 44.032h88.064c24.064 0 44.032-19.456 44.032-44.032 0-24.064-19.456-44.032-44.032-44.032h-44.032v-254.976h703.488v254.976h-44.032c-24.064 0-44.032 19.456-44.032 44.032 0 24.064 19.456 44.032 44.032 44.032h88.064c24.064 0 44.032-19.456 44.032-44.032v-343.04c0-24.576-19.968-44.032-44.032-44.032z m-439.808 325.12V691.712c0 24.064 19.456 44.032 44.032 44.032 24.064 0 44.032-19.456 44.032-44.032V358.4l56.32 56.32c18.432 15.872 46.08 13.824 61.952-4.608 14.336-16.384 14.336-40.96 0-57.344l-126.976-126.976c-8.192-11.264-21.504-17.408-35.328-17.408-11.776 0-23.04 4.608-31.232 12.8L348.672 353.28c-15.872 18.432-13.824 46.08 4.608 61.952 16.384 14.336 40.96 14.336 57.344 0l57.344-57.856z"  horiz-adv-x="1024" />

    
    <glyph glyph-name="shanchu" unicode="&#58897;" d="M592.384 413.696v-214.528c0-17.92 14.848-32.768 32.768-32.768 17.92 0 32.768 14.848 32.768 32.768V413.696c0 17.92-14.848 32.768-32.768 32.768-18.432-0.512-32.768-14.848-32.768-32.768m-196.096 0v-214.528c0-17.92 14.848-32.768 32.768-32.768 17.92 0 32.768 14.848 32.768 32.768V413.696c0 17.92-14.848 32.768-32.768 32.768-17.92-0.512-32.768-14.848-32.768-32.768M353.28 650.24l-10.752 75.264 301.568 42.496 10.752-75.264L353.28 650.24z m527.872 74.24l-151.04-20.992-13.824 100.352c-1.536 11.776-7.68 22.016-17.408 28.672-19.456 14.848-49.152 13.312-65.024 10.752l-302.08-42.496c-55.296-7.68-71.68-36.352-68.096-60.928l14.336-100.864-151.04-20.992c-13.824-1.536-25.6-10.752-30.72-23.552-5.12-12.8-3.072-27.136 5.12-38.4 8.704-10.752 22.528-16.384 35.84-13.824l54.784 7.68c-3.072-5.632-4.608-11.776-5.12-17.92v-532.992c0-41.984 34.304-76.288 76.288-76.288h532.992c41.984 0 76.288 34.304 76.288 76.288V532.48c0 20.992-16.896 37.888-37.888 37.888-20.992 0-37.888-16.896-37.888-37.888v-532.992H263.68V532.48c0 9.728-4.096 19.456-10.752 26.112l638.976 89.6c20.992 3.072 35.328 22.016 32.256 43.008-1.536 10.24-6.656 18.944-14.848 25.088-8.192 7.168-17.92 9.728-28.16 8.192z"  horiz-adv-x="1024" />

    
    <glyph glyph-name="edit" unicode="&#59265;" d="M907.5078125-11.5078125H116.4921875V779.5078125h474.609375v-79.10156249h-395.50781251v-632.8125h632.8125V423.55078125H907.5078125V-11.5078125z m0 731.68945313L848.18164063 779.5078125 373.57226562 304.8984375l59.32617188-59.32617188L907.5078125 720.18164063z"  horiz-adv-x="1024" />

    
    <glyph glyph-name="shezhi" unicode="&#58980;" d="M955.67 447.105c-3.505 19.761-22.258 39.876-41.712 44.328l-14.546 3.382c-34.176 10.503-64.495 33.466-83.774 67.289-19.279 34.001-23.836 72.631-15.423 108.055l4.557 13.884c5.784 19.226-1.752 45.751-17.001 58.924 0 0-13.67 11.748-52.226 34.356-38.558 22.43-55.207 28.661-55.207 28.661-18.753 6.943-45.042 0.355-58.713-14.419l-10.165-11.037c-25.938-24.922-60.815-40.054-99.372-40.054s-73.784 15.31-99.722 40.409l-9.814 10.682c-13.495 14.775-39.959 21.362-58.713 14.419 0 0-16.825-6.23-55.382-28.661-38.558-22.786-52.053-34.536-52.053-34.536-15.247-12.994-22.784-39.341-17-58.745l4.206-14.062c8.237-35.426 3.856-73.877-15.423-107.878-19.278-34.001-49.948-57.142-84.3-67.467l-14.021-3.204c-19.279-4.452-38.207-24.389-41.712-44.328 0 0-3.155-17.801-3.155-63.017 0-45.216 3.155-63.017 3.155-63.017 3.505-19.937 22.258-39.874 41.712-44.326l13.671-3.204c34.35-10.325 65.196-33.468 84.475-67.646 19.279-34.001 23.835-72.629 15.422-108.055l-4.03-13.707c-5.784-19.226 1.752-45.749 17-58.923 0 0 13.671-11.748 52.227-34.356 38.558-22.608 55.207-28.661 55.207-28.661 18.753-6.943 45.042-0.357 58.713 14.419l9.638 10.503c26.114 25.1 61.166 40.409 99.898 40.409s73.96-15.487 99.899-40.587l9.638-10.503c13.495-14.776 39.959-21.362 58.713-14.419 0 0 16.824 6.23 55.382 28.661 38.557 22.606 52.052 34.356 52.052 34.356 15.248 12.994 22.785 39.519 17.001 58.923l-4.206 14.242c-8.237 35.247-3.856 73.697 15.423 107.521 19.278 34.001 50.124 57.322 84.475 67.646l13.67 3.204c19.279 4.45 38.207 24.389 41.712 44.326 0 0 3.155 17.801 3.155 63.017-0.177 45.395-3.331 63.196-3.331 63.196zM512.087 203.048c-98.32 0-178.238 80.996-178.238 181.04 0 99.867 79.743 180.864 178.238 180.864 98.321 0 178.239-80.998 178.239-181.042-0.174-99.866-79.917-180.862-178.239-180.862z"  horiz-adv-x="1024" />

    
    <glyph glyph-name="shu" unicode="&#59019;" d="M768 832a32 32 0 0 0 32-31.68V704h64c17.664 0 32-14.208 32-32v-32H128V768.064C128 803.392 156.736 832 191.68 832H768z m-32-64H223.776A31.904 31.904 0 0 1 192 736c0-17.792 14.24-32 31.776-32H736v64zM128 640h768v-640.288c0-35.2-28.704-63.712-64.16-63.712H192.16A63.904 63.904 0 0 0 128-0.2880000000000109V640z m64 0v-608.256A32 32 0 0 1 223.744 0h576.512A32 32 0 0 1 832 31.744000000000028V640H192z m475.52-222.816H317.952c-16.032 0-29.056 14.08-29.056 31.424s13.024 31.36 29.056 31.392h349.504c16.032 0 29.056-14.08 29.056-31.392 0-17.344-13.024-31.424-29.056-31.424z m-153.216-128h-194.24a31.264 31.264 0 0 0-31.136 31.424c0 17.344 13.952 31.392 31.136 31.392h194.208c17.184 0 31.104-14.08 31.104-31.392a31.264 31.264 0 0 0-31.104-31.424h0.032z"  horiz-adv-x="1024" />

    
    <glyph glyph-name="shu1" unicode="&#59017;" d="M210.304 146.304h171.264a20.544 20.544 0 1 0 0-41.152H189.824a20.544 20.544 0 0 0-20.672 20.544V516.544h-20.48A20.672 20.672 0 0 0 128 537.216v82.112c0 11.456 9.28 20.672 20.672 20.672h82.112c11.392 0 20.672-9.28 20.672-20.672v-82.112a20.672 20.672 0 0 0-20.672-20.672h-20.48v-150.848h171.264a20.544 20.544 0 1 0 0-41.152H210.304v-178.24z m123.392 473.024c0 11.456 9.28 20.672 20.672 20.672h520.96C886.72 640 896 630.72 896 619.328v-82.112a20.672 20.672 0 0 0-20.672-20.672h-520.96a20.672 20.672 0 0 0-20.672 20.672v82.112z m150.848-233.152c0 11.456 9.216 20.672 20.736 20.672h370.048c11.392 0 20.672-9.28 20.672-20.672v-82.112a20.608 20.608 0 0 0-20.672-20.608H505.28a20.672 20.672 0 0 0-20.736 20.608v82.112z m0-219.392c0 11.392 9.216 20.672 20.736 20.672h370.048c11.392 0 20.672-9.28 20.672-20.672v-82.112A20.608 20.608 0 0 0 875.328 64H505.28a20.672 20.672 0 0 0-20.736 20.672v82.112z"  horiz-adv-x="1024" />

    
    <glyph glyph-name="xitong" unicode="&#59204;" d="M640 832H64v-576h64V768h512zM256 640h576v-192h64V704H192v-704h256v64H256zM870.4 268.8H832c-6.4 6.4-6.4 25.6-19.2 38.4l25.6 25.6c6.4 6.4 6.4 25.6 0 32l-32 32c-6.4 6.4-25.6 6.4-32 0l-25.6-25.6c-12.8 6.4-32 12.8-38.4 19.2v38.4c0 12.8-12.8 25.6-25.6 25.6H640c-12.8 0-25.6-12.8-25.6-25.6v-38.4c-6.4-6.4-25.6-12.8-32-19.2l-32 32c-6.4 6.4-25.6 6.4-32 0l-32-32c-6.4-6.4-6.4-25.6 0-32l25.6-25.6c0-19.2-6.4-32-12.8-44.8h-38.4c-12.8 0-25.6-12.8-25.6-25.6v-44.8c0-12.8 12.8-25.6 25.6-25.6h38.4c6.4-6.4 6.4-25.6 19.2-38.4l-25.6-25.6c-6.4-6.4-6.4-25.6 0-32l32-32c6.4-6.4 25.6-6.4 32 0l25.6 25.6c12.8-6.4 32-12.8 38.4-19.2v-38.4c0-12.8 12.8-25.6 25.6-25.6h44.8c12.8 0 25.6 12.8 25.6 25.6v38.4c6.4 6.4 25.6 6.4 38.4 19.2l25.6-25.6c6.4-6.4 25.6-6.4 32 0l32 32c6.4 6.4 6.4 25.6 0 32l-25.6 25.6c6.4 12.8 12.8 32 19.2 38.4h38.4c12.8 0 25.6 12.8 25.6 25.6v44.8c-6.4 12.8-19.2 25.6-32 25.6z m-204.8-147.2c-57.6 0-102.4 44.8-102.4 102.4 0 57.6 44.8 102.4 102.4 102.4 57.6 0 102.4-44.8 102.4-102.4 0-57.6-44.8-102.4-102.4-102.4z"  horiz-adv-x="1024" />

    
    <glyph glyph-name="shebei1" unicode="&#59041;" d="M1024 444.235294c0 150.588235-120.470588 271.058824-271.058824 271.058824H271.058824c-150.588235 0-271.058824-120.470588-271.058824-271.058824 0-105.411765 60.235294-198.776471 150.588235-243.952941V112.941176c0-33.129412 27.105882-60.235294 60.235294-60.235294s60.235294 27.105882 60.235295 60.235294v60.235295h481.882352v-60.235295c0-33.129412 27.105882-60.235294 60.235295-60.235294s60.235294 27.105882 60.235294 60.235294v87.341177c90.352941 45.176471 150.588235 138.541176 150.588235 243.952941z m-271.058824-150.588235H271.058824c-84.329412 0-150.588235 66.258824-150.588236 150.588235s66.258824 150.588235 150.588236 150.588235h481.882352c84.329412 0 150.588235-66.258824 150.588236-150.588235s-66.258824-150.588235-150.588236-150.588235zM755.952941 495.435294c-9.035294 6.023529-21.082353 9.035294-33.129412 9.035294s-24.094118-3.011765-33.129411-9.035294c-6.023529-3.011765-12.047059-9.035294-15.058824-15.058823-9.035294-12.047059-12.047059-24.094118-12.047059-36.141177 0-33.129412 27.105882-60.235294 60.235294-60.235294s60.235294 27.105882 60.235295 60.235294c0 12.047059-3.011765 24.094118-9.035295 33.129412l-18.070588 18.070588zM451.764706 504.470588H271.058824c-33.129412 0-60.235294-27.105882-60.235295-60.235294s27.105882-60.235294 60.235295-60.235294h180.705882c33.129412 0 60.235294 27.105882 60.235294 60.235294s-27.105882 60.235294-60.235294 60.235294z"  horiz-adv-x="1024" />

    
    <glyph glyph-name="bangongbao" unicode="&#60100;" d="M426.666667 426.666667H256V512h512v-85.333333h-170.666667v-42.666667h-170.666666v42.666667z m213.333333 213.333333h213.333333v-554.666667H170.666667V640h213.333333V682.666667h256v-42.666667zM256 554.666667v-384h512V554.666667H256z"  horiz-adv-x="1024" />

    
    <glyph glyph-name="tuwen" unicode="&#60159;" d="M213.333333 682.666667h597.333334v-597.333334H213.333333V682.666667z m85.333334-85.333334v-426.666666h426.666666V597.333333H298.666667z m170.666666-42.666666h213.333334v-85.333334h-213.333334V554.666667z m-128-128h341.333334v-85.333334H341.333333v85.333334z m0-128h341.333334v-85.333334H341.333333v85.333334z m42.666667 170.666666c-25.6 0-42.666667 17.066667-42.666667 42.666667s17.066667 42.666667 42.666667 42.666667 42.666667-17.066667 42.666667-42.666667-17.066667-42.666667-42.666667-42.666667z"  horiz-adv-x="1024" />

    
    <glyph glyph-name="jiantou_zuoyouqiehuan" unicode="&#60173;" d="M234.666667 465.066667H128l85.333333 81.066666L345.6 682.666667l51.2-51.2-81.066667-81.066667H896V469.333333H234.666667v-4.266666zM793.6 341.333333H896l-85.333333-81.066666-132.266667-132.266667-51.2 51.2 81.066667 81.066667H128V341.333333h665.6z"  horiz-adv-x="1024" />

    
    <glyph glyph-name="gerentouxiang" unicode="&#60196;" d="M725.333333 174.933333l-38.4 38.4H379.733333l-38.4-38.4V128h384v46.933333z m85.333334 38.4v-170.666666H256v170.666666h4.266667l85.333333 85.333334h375.466667l89.6-85.333334z m-85.333334 320c0-106.666667-85.333333-192-192-192S341.333333 426.666667 341.333333 533.333333 426.666667 725.333333 533.333333 725.333333 725.333333 640 725.333333 533.333333z m-85.333333 0C640 593.066667 593.066667 640 533.333333 640S426.666667 593.066667 426.666667 533.333333s46.933333-106.666667 106.666666-106.666666S640 473.6 640 533.333333z"  horiz-adv-x="1024" />

    
    <glyph glyph-name="dengchu" unicode="&#60229;" d="M733.866667 426.666667l-46.933334 46.933333 59.733334 59.733333L896 384l-149.333333-149.333333-59.733334 64 42.666667 42.666666H512v85.333334h221.866667zM725.333333 554.666667h-85.333333V640H341.333333v-512h298.666667v85.333333h85.333333v-170.666666H256V725.333333h469.333333v-170.666666z"  horiz-adv-x="1024" />

    
    <glyph glyph-name="jihua" unicode="&#58947;" d="M665 815v-105H369V815h296m20 80H349c-33.1 0-60-26.9-60-60v-145c0-33.1 26.9-60 60-60h336c33.1 0 60 26.9 60 60V835c0 33.1-26.9 60-60 60zM298.5 207c-37.2 0-67.5 30.3-67.5 67.5s30.3 67.5 67.5 67.5 67.5-30.3 67.5-67.5-30.3-67.5-67.5-67.5z m0 80c-6.9 0-12.5-5.6-12.5-12.5s5.6-12.5 12.5-12.5 12.5 5.6 12.5 12.5-5.6 12.5-12.5 12.5zM298.5 12c-37.2 0-67.5 30.3-67.5 67.5s30.3 67.5 67.5 67.5 67.5-30.3 67.5-67.5-30.3-67.5-67.5-67.5z m0 80c-6.9 0-12.5-5.6-12.5-12.5s5.6-12.5 12.5-12.5 12.5 5.6 12.5 12.5-5.6 12.5-12.5 12.5zM642 235H477c-22.1 0-40 17.9-40 40s17.9 40 40 40h165c22.1 0 40-17.9 40-40s-17.9-40-40-40zM762 37H477c-22.1 0-40 17.9-40 40s17.9 40 40 40h285c22.1 0 40-17.9 40-40s-17.9-40-40-40zM762 427H477c-22.1 0-40 17.9-40 40s17.9 40 40 40h285c22.1 0 40-17.9 40-40s-17.9-40-40-40zM863 719v-767H171V719h118v-9c0-44.2 35.8-80 80-80h296c44.2 0 80 35.8 80 80v9h118m20 80H665v-89H369V799H151c-33.1 0-60-26.9-60-60v-807c0-33.1 26.9-60 60-60h732c33.1 0 60 26.9 60 60V739c0 33.1-26.9 60-60 60zM298.8 402.4c-10.2 0-20.4 3.9-28.2 11.6l-35.8 35.6c-15.7 15.6-15.8 40.9-0.2 56.6 15.6 15.7 40.9 15.8 56.6 0.2l7.6-7.6 52 51.6c15.7 15.6 41 15.5 56.6-0.2 15.6-15.7 15.5-41-0.2-56.6L327 414c-7.8-7.7-18-11.6-28.2-11.6z"  horiz-adv-x="1024" />

    
    <glyph glyph-name="yidongduanbuju" unicode="&#58953;" d="M207.616 704h608.96v32a32 32 0 0 1-32 32H239.616a32 32 0 0 1-32-32V704z m608.96-64H207.616v-416h608.96V640z m0-480H207.616v-128a32 32 0 0 1 32-32h544.96a32 32 0 0 1 32 32v128z m-367.488-51.2h128a32 32 0 1 0 0-64h-128a32 32 0 0 0 0 64zM239.616 832h544.96a96 96 0 0 0 96-96v-704a96 96 0 0 0-96-96H239.616a96 96 0 0 0-96 96v704a96 96 0 0 0 96 96z"  horiz-adv-x="1024" />

    
    <glyph glyph-name="lingjianguanli" unicode="&#58881;" d="M768 798.4H256L0 376l256-422.4h512l256 422.4L768 798.4z m-254.4-640c-116.8 0-211.2 89.6-211.2 201.6s94.4 201.6 211.2 201.6c116.8 0 211.2-89.6 211.2-201.6 1.6-110.4-92.8-201.6-211.2-201.6z"  horiz-adv-x="1024" />

    
    <glyph glyph-name="xunlian" unicode="&#59013;" d="M338.707692 336.738462s-3.938462 0-3.938461-3.938462c-27.569231-15.753846-43.323077-35.446154-51.2-63.015385-7.876923-23.630769-3.938462-55.138462 11.815384-78.76923 15.753846-23.630769 43.323077-43.323077 70.892308-47.261539 27.569231-7.876923 59.076923-3.938462 86.646154 7.876923 27.569231 15.753846 47.261538 39.384615 55.138461 63.015385 7.876923 23.630769 3.938462 51.2-11.815384 78.769231l-3.938462 3.938461c-15.753846 23.630769-39.384615 39.384615-70.892307 47.261539-23.630769 7.876923-55.138462 7.876923-82.707693-7.876923z m-39.384615 63.015384c47.261538 23.630769 98.461538 27.569231 145.723077 15.753846 47.261538-11.815385 90.584615-39.384615 118.153846-82.707692v-3.938462c27.569231-43.323077 31.507692-90.584615 19.692308-133.907692-11.815385-43.323077-43.323077-82.707692-90.584616-106.338461h-3.938461c-47.261538-23.630769-98.461538-27.569231-145.723077-15.753847-47.261538 11.815385-90.584615 39.384615-118.153846 82.707693v3.938461c-27.569231 43.323077-31.507692 90.584615-19.692308 133.907693 11.815385 43.323077 43.323077 82.707692 94.523077 106.338461zM189.046154 565.1692310000001l555.323077 315.076923c23.630769 15.753846 55.138462 19.692308 82.707692 11.815384 27.569231-7.876923 51.2-23.630769 66.953846-51.2v-3.938461l114.215385-192.984615c0-3.938462 3.938462-3.938462 3.938461-7.876924 11.815385-23.630769 15.753846-51.2 7.876923-78.76923s-23.630769-51.2-47.261538-63.015385c0 0-3.938462-3.938462-7.876923-3.938461l-232.369231-133.907693c27.569231-78.769231 23.630769-157.538462 0-232.369231-27.569231-82.707692-86.646154-157.538462-169.353846-204.8-90.584615-47.261538-192.984615-59.076923-283.569231-35.446153-94.523077 23.630769-177.230769 82.707692-228.430769 173.292307C0 147.69230800000003-11.815385 246.15384600000004 11.815385 340.676923s86.646154 173.292308 177.230769 224.492308z m590.769231 252.061538L224.492308 502.153846c-70.892308-39.384615-118.153846-106.338462-137.846154-181.169231-19.692308-70.892308-11.815385-153.6 27.569231-220.553846l3.938461-3.938461c39.384615-66.953846 106.338462-114.215385 181.169231-133.907693s153.6-11.815385 224.492308 27.569231l3.938461 3.938462c63.015385 39.384615 110.276923 94.523077 129.969231 161.476923 23.630769 66.953846 19.692308 141.784615-11.815385 208.738461-7.876923 15.753846 0 39.384615 15.753846 47.261539l263.876924 149.661538h3.938461c7.876923 3.938462 11.815385 11.815385 15.753846 19.692308 3.938462 7.876923 0 15.753846-3.938461 23.630769l-114.215385 196.923077v3.938462c-3.938462 3.938462-11.815385 11.815385-19.692308 11.815384-7.876923 3.938462-19.692308 3.938462-27.56923 0z"  horiz-adv-x="1024" />

    
    <glyph glyph-name="juxingkaobei1" unicode="&#59301;" d="M128.692 768.01v-191.05H319.04V768.01H128.692z m127.261-127.963h-64.169v64.169h64.169v-64.169zM511.333 191.77700000000004v-191.416h385.792V191.77700000000004H511.333zM832 64H576.112v64.198H832V64zM384.075 768.01v-191.05h512.099V768.01H384.075z m448.087-127.963H448.087v64.169h384.075v-64.169zM511.333 447.791v-191.416H896.23V447.791H511.333z m319.922-127.776H575.961v64.198h255.294v-64.198zM192.037 576.9590000000001h64.012v-512.68h-64.012zM256.05 128.19799999999998h255.284v-63.919H256.05zM256.05 384h255.284v-63.381H256.05z"  horiz-adv-x="1024" />

    
    <glyph glyph-name="shu2" unicode="&#58959;" d="M925.184 450.56h-456.192c-14.848 0-26.624-12.288-26.624-26.624v-22.016h-259.072v161.792h29.696c16.384 0 29.696 13.312 29.696 29.696v111.104c0 16.384-13.312 29.696-29.696 29.696h-111.104c-16.384 0-29.696-13.312-29.696-29.696V593.408c0-16.384 13.312-29.696 29.696-29.696h29.696V109.05600000000004c0-14.336 11.776-26.112 26.112-26.112h285.184v-22.016c0-14.848 12.288-26.624 26.624-26.624h456.192c14.848 0 26.624 12.288 26.624 26.624v96.256c0 14.848-12.288 26.624-26.624 26.624h-456.192c-14.848 0-26.624-12.288-26.624-26.624v-22.016h-259.072v214.528h259.072v-22.016c0-14.848 12.288-26.624 26.624-26.624h456.192c14.848 0 26.624 12.288 26.624 26.624v96.256c0 14.848-12.288 26.624-27.136 26.624z m-801.28 169.472v57.344c0 2.56 2.048 4.608 4.608 4.608h57.344c2.56 0 4.608-2.048 4.608-4.608v-57.344c0-2.56-2.048-4.608-4.608-4.608h-57.344c-2.56 0-4.608 2.048-4.608 4.608z m370.176-492.032c0 2.56 2.048 4.096 4.096 4.096H896c2.56 0 4.096-2.048 4.096-4.096v-37.888c0-2.56-2.048-4.096-4.096-4.096h-397.312c-2.56 0-4.096 2.048-4.096 4.096v37.888z m406.016 228.864c0-2.56-2.048-4.096-4.096-4.096h-397.312c-2.56 0-4.096 2.048-4.096 4.096v37.888c0 2.56 2.048 4.096 4.096 4.096H896c2.56 0 4.096-2.048 4.096-4.096v-37.888zM925.184 733.696h-589.312c-14.848 0-26.624-12.288-26.624-26.624v-96.256c0-14.848 12.288-26.624 26.624-26.624h589.312c14.848 0 26.624 12.288 26.624 26.624v96.256c0.512 14.848-11.776 26.624-26.624 26.624z m-25.088-93.696c0-2.56-2.048-4.096-4.096-4.096h-530.944c-2.56 0-4.096 2.048-4.096 4.096v37.888c0 2.56 2.048 4.096 4.096 4.096H896c2.56 0 4.096-2.048 4.096-4.096v-37.888z"  horiz-adv-x="1024" />

    
    <glyph glyph-name="jihua1" unicode="&#59059;" d="M821.646222 455.054222a42.666667 42.666667 0 0 0 85.333334 0v-422.741333a148.878222 148.878222 0 0 0-148.821334-148.878222h-509.724444A148.878222 148.878222 0 0 0 99.555556 32.31288900000004V662.357333A148.878222 148.878222 0 0 0 248.433778 811.235556h234.154666a42.666667 42.666667 0 0 0 0-85.333334H248.433778C213.333333 725.9022219999999 184.888889 697.457778 184.888889 662.357333v-630.044444c0-35.100444 28.444444-63.544889 63.544889-63.544889h509.724444c35.043556 0 63.488 28.444444 63.488 63.544889V455.054222zM262.599111 347.363556m28.444445 0l424.504888 0q28.444444 0 28.444445-28.444445l0-28.444444q0-28.444444-28.444445-28.444445l-424.504888 0q-28.444444 0-28.444445 28.444445l0 28.444444q0 28.444444 28.444445 28.444445ZM262.599111 166.798222m28.444445 0l424.504888 0q28.444444 0 28.444445-28.444444l0-28.444445q0-28.444444-28.444445-28.444444l-424.504888 0q-28.444444 0-28.444445 28.444444l0 28.444445q0 28.444444 28.444445 28.444444ZM570.140444 496.64l242.346667 242.346667a17.521778 17.521778 0 0 1-24.746667 24.803555L544.483556 520.5333330000001l-0.568889-23.210666 26.225777-0.625778z m302.705778 327.509333c40.163556-40.163556 40.163556-105.244444 0-145.464889L604.615111 410.453333 456.248889 414.151111l3.754667 142.677333 267.377777 267.320889a102.855111 102.855111 0 0 0 145.408 0z"  horiz-adv-x="1024" />

    
    </font>
</defs>
</svg>
