<?xml version="1.0" standalone="no"?>
<!DOCTYPE svg PUBLIC "-//W3C//DTD SVG 1.1//EN" "http://www.w3.org/Graphics/SVG/1.1/DTD/svg11.dtd" >
<svg xmlns="http://www.w3.org/2000/svg">
<metadata>
This is a custom SVG webfont generated by Font Squirrel.
Copyright   : Copyright c 2011 Barry Schwartz
</metadata>
<defs>
<font id="FanwoodItalic" horiz-adv-x="360" >
<font-face units-per-em="1000" ascent="690" descent="-310" />
<missing-glyph horiz-adv-x="200" />
<glyph unicode="fi" horiz-adv-x="508" d="M-125 -240q0 13 17 27t32 14q12 0 37.5 -12t43.5 -12q9 0 17.5 6.5t14 19t10 25t8.5 31.5t6 31.5t4.5 31t3.5 24.5l23.5 161.5t21.5 160t8 68.5q0 11 -4 11h-76q-7 0 -7 6q0 5 2 13q1 6 7 6h73q7 0 8 1.5t2 10.5q9 98 42 157q41 72 110 112q48 28 100 28q24 0 48.5 -12.5 t24.5 -23.5q0 -13 -19 -27t-35 -14q-12 0 -42 18.5t-48 18.5q-26 0 -49.5 -27.5t-36.5 -68.5q-17 -52 -33 -167q-1 -3 2 -4.5t6 -1.5h82q52 0 87.5 5.5t47.5 5.5q20 0 20 -22q0 -26 -32.5 -150t-32.5 -136q0 -20 13 -20q8 0 27 16t35 32t17 16q3 0 7.5 -5t4.5 -7 q0 -12 -64.5 -62.5t-86.5 -50.5q-24 0 -24 18q0 24 35.5 145t35.5 153q0 37 -13 37h-161q-7 0 -7.5 -1t-2.5 -10q-2 -11 -13 -91l-23.5 -164.5l-20.5 -134.5q-3 -17 -11 -44.5t-31 -70.5t-52 -65q-2 -1 -8.5 -6t-9.5 -7.5t-10 -7t-11.5 -6.5t-11.5 -5.5t-13 -5t-13 -3 t-14 -1.5q-24 0 -46 12.5t-22 23.5z" />
<glyph unicode="fl" horiz-adv-x="534" d="M-125 -240q0 13 17 27t32 14q12 0 37.5 -12t43.5 -12q9 0 17.5 6.5t14 19t10 25t8.5 31.5t6 31.5t4.5 31t3.5 24.5l23.5 161.5t21.5 160t8 68.5q0 11 -4 11h-76q-7 0 -7 6q0 5 2 13q1 6 7 6h73q7 0 8 1.5t2 10.5q2 19 11 64q14 62 38 101.5t67 75.5q62 53 128 53 q29 0 50 -16q9 -6 9.5 -6t9.5 4q11 5 20.5 10.5t13 7t5.5 1.5q10 0 10 -9q0 -12 -50 -305.5t-50 -296.5q0 -21 14 -21q12 0 36 21t43.5 42t20.5 21q3 0 9.5 -5.5t6.5 -7.5q0 -4 -28 -34.5t-71.5 -62t-73.5 -31.5q-29 0 -29 38q0 5 7 46l21 120l25 143q1 7 0 8.5t-8 1.5h-167 q-7 0 -7.5 -1t-2.5 -10q-2 -13 -13 -91.5l-23.5 -163.5t-20.5 -135q-3 -17 -11 -44.5t-31 -70.5t-52 -65q-2 -1 -8.5 -6t-9.5 -7.5t-10 -7t-11.5 -6.5t-11.5 -5.5t-13 -5t-13 -3t-14 -1.5q-24 0 -46 12.5t-22 23.5zM189 377q0 -5 8 -5h169h6t3 1.5t1.5 2.5t1 4t0.5 5 q26 162 35 239q-4 -2 -9 -4q-8 -4 -21 -4q-12 0 -42 16q-18 9 -24 9q-14 0 -37 -16q-74 -53 -91 -248z" />
<glyph unicode="ff" horiz-adv-x="531" d="M-125 -240q0 13 17 27t32 14q12 0 37.5 -12t43.5 -12q9 0 17.5 6.5t14 19t10 25t8.5 31.5t6 31.5t4.5 31t3.5 24.5l23.5 161.5t21.5 160t8 68.5q0 11 -4 11h-76q-7 0 -7 6q0 5 2 13q1 6 7 6h73q7 0 8 1.5t2 10.5q6 51 24 102q26 71 86.5 128t140.5 57q31 0 60 -13t38 -27 q2 -2 2 -5q0 -1 2 0l2 2q24 19 35 25q48 28 91 28q24 0 48.5 -12.5t24.5 -23.5q0 -13 -19 -27t-35 -14q-12 0 -37.5 18.5t-43.5 18.5q-75 0 -109 -254q-1 -6 -1 -9q-1 -3 2 -4.5t6 -1.5h82q5 0 5 -2q0 -8 -2 -14q-1 -9 -7 -9h-80q-6 0 -7 -1t-2 -7q-1 -2 -1 -3l-48 -320 q-9 -56 -34.5 -116.5t-64.5 -95.5q-48 -43 -91 -43q-23 0 -44 9.5t-21 19.5q0 13 16.5 26t30.5 13q12 0 36.5 -7.5t41.5 -7.5q11 0 20.5 7t16.5 22.5t12 28.5t9.5 37l6.5 35t5 34.5t3 25.5q42 290 42 332q0 11 -4 11h-170q-7 0 -7.5 -1t-2.5 -10q-2 -13 -13 -91.5 l-23.5 -163.5t-20.5 -135q-3 -17 -11 -44.5t-31 -70.5t-52 -65q-2 -1 -8.5 -6t-9.5 -7.5t-10 -7t-11.5 -6.5t-11.5 -5.5t-13 -5t-13 -3t-14 -1.5q-24 0 -46 12.5t-22 23.5zM189 377q0 -5 8 -5h167q7 0 8 1.5t2 10.5q9 98 42 157q18 33 37 56q4 4 4 5h-2.5t-6.5 -2 q-6 -3 -12 -3q-16 0 -37 17q-39 30 -60 30q-43 0 -77 -37t-48 -88q-25 -93 -25 -142z" />
<glyph unicode="ffi" horiz-adv-x="755" d="M-125 -240q0 13 17 27t32 14q12 0 37.5 -12t43.5 -12q9 0 17.5 6.5t14 19t10 25t8.5 31.5t6 31.5t4.5 31t3.5 24.5l23.5 161.5t21.5 160t8 68.5q0 11 -4 11h-76q-7 0 -7 6q0 5 2 13q1 6 7 6h73q7 0 8 1.5t2 10.5q6 51 24 102q26 71 86.5 128t140.5 57q31 0 60 -13t38 -27 q2 -3 3 -6q3 -5 8 1q2 1 3 2q10 9 36 25q48 28 100 28q24 0 48.5 -12.5t24.5 -23.5q0 -13 -19 -27t-35 -14q-12 0 -42 18.5t-48 18.5q-26 0 -49.5 -27.5t-36.5 -68.5q-17 -52 -33 -167v-1q0 -5 8 -5h82q52 0 87.5 5.5t47.5 5.5q20 0 20 -22q0 -26 -32.5 -150t-32.5 -136 q0 -20 13 -20q8 0 27 16t35 32t17 16q3 0 7.5 -5t4.5 -7q0 -12 -64.5 -62.5t-86.5 -50.5q-24 0 -24 18q0 24 35.5 145t35.5 153q0 37 -13 37h-161q-6 0 -7 -1t-2 -7q-1 -2 -1 -3l-48 -320q-9 -56 -34.5 -116.5t-64.5 -95.5q-48 -43 -91 -43q-23 0 -44 9.5t-21 19.5 q0 13 16.5 26t30.5 13q12 0 36.5 -7.5t41.5 -7.5q11 0 20.5 7t16.5 22.5t12 28.5t9.5 37l6.5 35t5 34.5t3 25.5q42 290 42 332v4q0 7 -4 7h-170q-7 0 -7.5 -1t-2.5 -10q-2 -13 -13 -91.5l-23.5 -163.5t-20.5 -135q-3 -17 -11 -44.5t-31 -70.5t-52 -65q-2 -1 -8.5 -6 t-9.5 -7.5t-10 -7t-11.5 -6.5t-11.5 -5.5t-13 -5t-13 -3t-14 -1.5q-24 0 -46 12.5t-22 23.5zM189 377q0 -5 8 -5h167q7 0 8 1.5t2 10.5q3 32 14.5 82.5t31.5 81.5q13 21 37 48l5 6q-1 1 -7 -1q-12 -4 -19 -4q-16 0 -37 17q-39 30 -60 30q-43 0 -77 -37t-48 -88 q-25 -93 -25 -142z" />
<glyph unicode="ffl" horiz-adv-x="781" d="M-125 -240q0 13 17 27t32 14q12 0 37.5 -12t43.5 -12q9 0 17.5 6.5t14 19t10 25t8.5 31.5t6 31.5t4.5 31t3.5 24.5l23.5 161.5t21.5 160t8 68.5q0 11 -4 11h-76q-7 0 -7 6q0 5 2 13q1 6 7 6h73q7 0 8 1.5t2 10.5q6 51 24 102q26 71 86.5 128t140.5 57q39 0 75 -21 q21 -12 25 -25l1 -9l1 1q2 1 5 3.5t5 4.5q62 53 128 53q29 0 50 -16q9 -6 9.5 -6t9.5 4q11 5 20.5 10.5t13 7t5.5 1.5q10 0 10 -9q0 -12 -50 -305.5t-50 -296.5q0 -21 14 -21q12 0 36 21t43.5 42t20.5 21q3 0 9.5 -5.5t6.5 -7.5q0 -4 -28 -34.5t-71.5 -62t-73.5 -31.5 q-29 0 -29 38q0 5 7 46l21 120l25 143q1 7 0 8.5t-8 1.5h-167q-6 0 -7 -1t-2 -7q-1 -2 -1 -3l-48 -320q-9 -56 -34.5 -116.5t-64.5 -95.5q-48 -43 -91 -43q-23 0 -44 9.5t-21 19.5q0 13 16.5 26t30.5 13q12 0 36.5 -7.5t41.5 -7.5q11 0 20.5 7t16.5 22.5t12 28.5t9.5 37 l6.5 35t5 34.5t3 25.5q42 290 42 332q0 11 -4 11h-170q-7 0 -7.5 -1t-2.5 -10q-2 -13 -13 -91.5l-23.5 -163.5t-20.5 -135q-3 -17 -11 -44.5t-31 -70.5t-52 -65q-2 -1 -8.5 -6t-9.5 -7.5t-10 -7t-11.5 -6.5t-11.5 -5.5t-13 -5t-13 -3t-14 -1.5q-24 0 -46 12.5t-22 23.5z M189 377q0 -5 8 -5h167q7 0 8 1.5t2 10.5q2 19 11 64q21 92 73 147q5 5 4.5 5.5t-8.5 -2.5q-6 -3 -12 -3q-20 0 -43 19q-39 30 -60 30q-43 0 -77 -37t-48 -88q-25 -93 -25 -142zM436 377q0 -5 8 -5h169h6t3 1.5t1.5 2.5t1 4t0.5 5q26 162 35 239q-4 -2 -9 -4q-8 -4 -21 -4 q-12 0 -42 16q-18 9 -24 9q-14 0 -37 -16q-74 -53 -91 -248z" />
<glyph unicode="fj" horiz-adv-x="508" d="M-125 -240q0 13 17 27t32 14q12 0 37.5 -12t43.5 -12q9 0 17.5 6.5t14 19t10 25t8.5 31.5t6 31.5t4.5 31t3.5 24.5l23.5 161.5t21.5 160t8 68.5q0 11 -4 11h-76q-7 0 -7 6q0 5 2 13q1 6 7 6h73q7 0 8 1.5t2 10.5q9 98 42 157q41 72 110 112q48 28 100 28q24 0 48.5 -12.5 t24.5 -23.5q0 -13 -19 -27t-35 -14q-12 0 -42 18.5t-48 18.5q-26 0 -49.5 -27.5t-36.5 -68.5q-17 -52 -33 -167q-1 -3 2 -4.5t6 -1.5h82q52 0 87.5 5.5t47.5 5.5q14 0 18 -10q3 -6 3 -14q0 -21 -13 -103.5l-27.5 -167t-15.5 -91.5q-6 -37 -9 -51.5t-13 -48t-27 -57 t-41 -41.5q-52 -38 -87 -38q-24 0 -39.5 11t-15.5 23q0 15 10 25.5t25 10.5q18 0 38 -12.5t37 -12.5q10 0 17 5.5t12.5 20.5t8.5 26.5t9 39.5q18 91 41.5 240.5t23.5 171.5q0 37 -13 37h-161q-7 0 -7.5 -1t-2.5 -10q-2 -13 -13 -91.5l-23.5 -163.5t-20.5 -135 q-3 -17 -11 -44.5t-31 -70.5t-52 -65q-2 -1 -8.5 -6t-9.5 -7.5t-10 -7t-11.5 -6.5t-11.5 -5.5t-13 -5t-13 -3t-14 -1.5q-24 0 -46 12.5t-22 23.5z" />
<glyph unicode="ffj" horiz-adv-x="755" d="M-125 -240q0 13 17 27t32 14q12 0 37.5 -12t43.5 -12q9 0 17.5 6.5t14 19t10 25t8.5 31.5t6 31.5t4.5 31t3.5 24.5l23.5 161.5t21.5 160t8 68.5q0 11 -4 11h-76q-7 0 -7 6q0 5 2 13q1 6 7 6h73q7 0 8 1.5t2 10.5q6 51 24 102q26 71 86.5 128t140.5 57q31 0 60 -13t38 -27 q2 -3 3 -6q3 -5 8 1q2 1 3 2q10 9 36 25q48 28 100 28q24 0 48.5 -12.5t24.5 -23.5q0 -13 -19 -27t-35 -14q-12 0 -42 18.5t-48 18.5q-26 0 -49.5 -27.5t-36.5 -68.5q-17 -52 -33 -167v-1q0 -5 8 -5h82q52 0 87.5 5.5t47.5 5.5q14 0 18 -10q3 -6 3 -14q0 -21 -13 -103.5 l-27.5 -167t-15.5 -91.5q-6 -37 -9 -51.5t-13 -48t-27 -57t-41 -41.5q-52 -38 -87 -38q-24 0 -39.5 11t-15.5 23q0 15 10 25.5t25 10.5q18 0 38 -12.5t37 -12.5q10 0 17 5.5t12.5 20.5t8.5 26.5t9 39.5q18 91 41.5 240.5t23.5 171.5q0 37 -13 37h-161q-6 0 -7 -1t-2 -7 q-1 -2 -1 -3l-48 -320q-9 -56 -34.5 -116.5t-64.5 -95.5q-48 -43 -91 -43q-23 0 -44 9.5t-21 19.5q0 13 16.5 26t30.5 13q12 0 36.5 -7.5t41.5 -7.5q11 0 20.5 7t16.5 22.5t12 28.5t9.5 37l6.5 35t5 34.5t3 25.5q42 290 42 332v4q0 7 -4 7h-170q-7 0 -7.5 -1t-2.5 -10 q-2 -13 -13 -91.5l-23.5 -163.5t-20.5 -135q-3 -17 -11 -44.5t-31 -70.5t-52 -65q-2 -1 -8.5 -6t-9.5 -7.5t-10 -7t-11.5 -6.5t-11.5 -5.5t-13 -5t-13 -3t-14 -1.5q-24 0 -46 12.5t-22 23.5zM189 377q0 -5 8 -5h167q7 0 8 1.5t2 10.5q3 32 14.5 82.5t31.5 81.5q13 21 37 48 l5 6q-1 1 -7 -1q-12 -4 -19 -4q-16 0 -37 17q-39 30 -60 30q-43 0 -77 -37t-48 -88q-25 -93 -25 -142z" />
<glyph unicode="fb" horiz-adv-x="732" d="M-125 -240q0 13 17 27t32 14q12 0 37.5 -12t43.5 -12q9 0 17.5 6.5t14 19t10 25t8.5 31.5t6 31.5t4.5 31t3.5 24.5l23.5 161.5t21.5 160t8 68.5q0 11 -4 11h-76q-7 0 -7 6q0 5 2 13q1 6 7 6h73q7 0 8 1.5t2 10.5q2 19 11 64q14 62 38 101.5t67 75.5q62 53 128 53 q29 0 50 -16q9 -6 9.5 -6t9.5 4l16.5 8.5t17.5 9.5t9 4q12 0 12 -10q0 -6 -17.5 -117.5t-22.5 -140.5l-49 -251q51 85 87 133q38 51 64.5 71.5t71.5 20.5q41 0 64 -23q14 -14 14 -42q0 -72 -28.5 -137t-69.5 -106t-84 -64.5t-76 -23.5q-20 0 -40 7t-32.5 14t-15.5 7 q-4 0 -20 -8q-20 -8 -27 -8q-10 0 -10 8q0 4 13 23q5 7 8 19q75 403 87 569q-2 0 -8 -3q-8 -4 -21 -4q-12 0 -42 16q-18 9 -24 9q-14 0 -37 -16q-74 -53 -91 -248q0 -5 8 -5h82q5 0 5 -2q0 -8 -2 -14q-2 -9 -7 -9h-80q-7 0 -7.5 -1t-2.5 -10q-2 -13 -13 -91.5l-23.5 -163.5 t-20.5 -135q-3 -17 -11 -44.5t-31 -70.5t-52 -65q-2 -1 -8.5 -6t-9.5 -7.5t-10 -7t-11.5 -6.5t-11.5 -5.5t-13 -5t-13 -3t-14 -1.5q-24 0 -46 12.5t-22 23.5zM391 80q0 -25 17 -42.5t51 -17.5q41 0 84.5 51t69 112.5t25.5 98.5q0 23 -10 41t-32 18q-41 0 -83 -59l-48.5 -68 l-36.5 -54.5t-28.5 -49t-8.5 -30.5z" />
<glyph unicode="fh" horiz-adv-x="766" d="M-125 -240q0 13 17 27t32 14q12 0 37.5 -12t43.5 -12q9 0 17.5 6.5t14 19t10 25t8.5 31.5t6 31.5t4.5 31t3.5 24.5l23.5 161.5t21.5 160t8 68.5q0 11 -4 11h-76q-7 0 -7 6q0 5 2 13q1 6 7 6h73q7 0 8 1.5t2 10.5q2 19 11 64q14 62 38 101.5t67 75.5q62 53 128 53 q29 0 50 -16q9 -6 9.5 -6t9.5 4l16.5 8.5t17.5 9.5t9 4q12 0 12 -10q0 -33 -9 -93q-23 -158 -84 -456q47 110 115 192q56 68 124 68q26 0 42.5 -12t16.5 -36q0 -37 -33.5 -147.5t-33.5 -120.5q0 -22 21 -22q11 0 34 21.5t41.5 43.5t19.5 22q2 0 7 -4t5 -6q0 -5 -22 -33.5 t-60.5 -58.5t-72.5 -30q-18 0 -29.5 10.5t-11.5 27.5q0 14 36.5 127.5t36.5 141.5q0 17 -9 28t-25 11q-33 0 -66.5 -40t-74.5 -107q-46 -77 -54 -108l-20 -82q-2 -11 -58 -11q-8 0 -8 8q0 1 7 33t18.5 90t24 130t26 171t23.5 196q-14 -4 -18 -6q-8 -4 -21 -4q-12 0 -42 16 q-18 9 -24 9q-14 0 -37 -16q-74 -53 -91 -248q0 -5 8 -5h82q5 0 5 -2q0 -8 -2 -14q-2 -9 -7 -9h-80q-7 0 -7.5 -1t-2.5 -10q-2 -13 -13 -91.5l-23.5 -163.5t-20.5 -135q-3 -17 -11 -44.5t-31 -70.5t-52 -65q-2 -1 -8.5 -6t-9.5 -7.5t-10 -7t-11.5 -6.5t-11.5 -5.5t-13 -5 t-13 -3t-14 -1.5q-24 0 -46 12.5t-22 23.5z" />
<glyph unicode="fk" horiz-adv-x="731" d="M-125 -240q0 13 17 27t32 14q12 0 37.5 -12t43.5 -12q9 0 17.5 6.5t14 19t10 25t8.5 31.5t6 31.5t4.5 31t3.5 24.5l23.5 161.5t21.5 160t8 68.5q0 11 -4 11h-76q-7 0 -7 6q0 5 2 13q1 6 7 6h73q7 0 8 1.5t2 10.5q2 19 11 64q14 62 38 101.5t67 75.5q62 53 128 53 q29 0 50 -16q9 -6 9.5 -6t9.5 4l16.5 8.5t17.5 9.5t9 4q12 0 12 -14q0 -16 -97 -489q36 69 72 117q33 43 66.5 64t82.5 21q59 0 59 -37q0 -42 -32.5 -78t-67.5 -53t-65 -24q-21 -3 -21 -4l4 -2q4 -2 10.5 -6.5t12.5 -9.5q47 -45 73 -77q16 -20 24 -28.5t22.5 -16.5t31.5 -8 q34 0 34 27q0 4 -1 10.5t-1 9.5q0 12 8 12t14.5 -10.5t6.5 -32.5t-38.5 -38.5t-72.5 -16.5q-22 0 -43 20q-11 10 -23.5 25t-29 37.5t-24.5 32.5q-10 13 -23.5 28.5t-20 24t-6.5 9.5q0 5 17 22q2 2 10 2q15 0 28 5q37 17 71 53.5t34 70.5q0 20 -31 20q-29 0 -63 -32 q-9 -9 -18.5 -20t-20.5 -26.5l-18.5 -26.5l-21.5 -33t-21 -32q-17 -27 -24 -58q-15 -64 -21 -98q-3 -22 -10 -22q-1 0 -11 -1.5t-22 -3t-17 -1.5q-4 0 -4.5 1t-0.5 6q0 3 21 102.5t48.5 251t38.5 268.5q-6 -1 -10 -3q-8 -4 -21 -4q-12 0 -42 16q-18 9 -24 9q-14 0 -37 -16 q-74 -53 -91 -248q0 -5 8 -5h82q5 0 5 -2q0 -8 -2 -14q-2 -9 -7 -9h-80q-7 0 -7.5 -1t-2.5 -10q-2 -13 -13 -91.5l-23.5 -163.5t-20.5 -135q-3 -17 -11 -44.5t-31 -70.5t-52 -65q-2 -1 -8.5 -6t-9.5 -7.5t-10 -7t-11.5 -6.5t-11.5 -5.5t-13 -5t-13 -3t-14 -1.5 q-24 0 -46 12.5t-22 23.5z" />
<glyph unicode="ffb" horiz-adv-x="979" d="M-125 -240q0 13 17 27t32 14q12 0 37.5 -12t43.5 -12q9 0 17.5 6.5t14 19t10 25t8.5 31.5t6 31.5t4.5 31t3.5 24.5l23.5 161.5t21.5 160t8 68.5q0 11 -4 11h-76q-7 0 -7 6q0 5 2 13q1 6 7 6h73q7 0 8 1.5t2 10.5q6 51 24 102q26 71 86.5 128t140.5 57q39 0 75 -21 q21 -12 25 -25l1 -9l1 1q2 1 5 3.5t5 4.5q62 53 128 53q29 0 50 -16q9 -6 9.5 -6t9.5 4l16.5 8.5t17.5 9.5t9 4q12 0 12 -10q0 -6 -17.5 -117.5t-22.5 -140.5l-49 -251q51 85 87 133q38 51 64.5 71.5t71.5 20.5q41 0 64 -23q14 -14 14 -42q0 -72 -28.5 -137t-69.5 -106 t-84 -64.5t-76 -23.5q-20 0 -40 7t-32.5 14t-15.5 7q-4 0 -20 -8q-20 -8 -27 -8q-10 0 -10 8q0 4 13 23q5 7 8 19q75 403 87 569q-2 0 -8 -3q-8 -4 -21 -4q-12 0 -42 16q-18 9 -24 9q-14 0 -37 -16q-74 -53 -91 -248q0 -5 8 -5h82q5 0 5 -2q0 -8 -2 -14q-1 -9 -7 -9h-80 q-6 0 -7 -1t-2 -7q-1 -2 -1 -3l-48 -320q-9 -56 -34.5 -116.5t-64.5 -95.5q-48 -43 -91 -43q-23 0 -44 9.5t-21 19.5q0 13 16.5 26t30.5 13q12 0 36.5 -7.5t41.5 -7.5q11 0 20.5 7t16.5 22.5t12 28.5t9.5 37l6.5 35t5 34.5t3 25.5q42 290 42 332q0 11 -4 11h-170 q-7 0 -7.5 -1t-2.5 -10q-2 -13 -13 -91.5l-23.5 -163.5t-20.5 -135q-3 -17 -11 -44.5t-31 -70.5t-52 -65q-2 -1 -8.5 -6t-9.5 -7.5t-10 -7t-11.5 -6.5t-11.5 -5.5t-13 -5t-13 -3t-14 -1.5q-24 0 -46 12.5t-22 23.5zM189 377q0 -5 8 -5h167q7 0 8 1.5t2 10.5q2 19 11 64 q21 92 73 147q5 5 4.5 5.5t-8.5 -2.5q-6 -3 -12 -3q-20 0 -43 19q-39 30 -60 30q-43 0 -77 -37t-48 -88q-25 -93 -25 -142zM638 80q0 -25 17 -42.5t51 -17.5q41 0 84.5 51t69 112.5t25.5 98.5q0 23 -10 41t-32 18q-41 0 -83 -59l-48.5 -68l-36.5 -54.5t-28.5 -49t-8.5 -30.5 z" />
<glyph unicode="ffh" horiz-adv-x="1013" d="M-125 -240q0 13 17 27t32 14q12 0 37.5 -12t43.5 -12q9 0 17.5 6.5t14 19t10 25t8.5 31.5t6 31.5t4.5 31t3.5 24.5l23.5 161.5t21.5 160t8 68.5q0 11 -4 11h-76q-7 0 -7 6q0 5 2 13q1 6 7 6h73q7 0 8 1.5t2 10.5q6 51 24 102q26 71 86.5 128t140.5 57q39 0 75 -21 q21 -12 25 -25l1 -9l1 1q2 1 5 3.5t5 4.5q62 53 128 53q29 0 50 -16q9 -6 9.5 -6t9.5 4l16.5 8.5t17.5 9.5t9 4q12 0 12 -10q0 -33 -9 -93q-23 -158 -84 -456q47 110 115 192q56 68 124 68q26 0 42.5 -12t16.5 -36q0 -37 -33.5 -147.5t-33.5 -120.5q0 -22 21 -22 q11 0 34 21.5t41.5 43.5t19.5 22q2 0 7 -4t5 -6q0 -5 -22 -33.5t-60.5 -58.5t-72.5 -30q-18 0 -29.5 10.5t-11.5 27.5q0 14 36.5 127.5t36.5 141.5q0 17 -9 28t-25 11q-33 0 -66.5 -40t-74.5 -107q-46 -77 -54 -108l-20 -82q-2 -11 -58 -11q-8 0 -8 8q0 1 7 33t18.5 90 t24 130t26 171t23.5 196q-14 -4 -18 -6q-8 -4 -21 -4q-12 0 -42 16q-18 9 -24 9q-14 0 -37 -16q-74 -53 -91 -248q0 -5 8 -5h82q5 0 5 -2q0 -8 -2 -14q-1 -9 -7 -9h-80q-6 0 -7 -1t-2 -7q-1 -2 -1 -3l-48 -320q-9 -56 -34.5 -116.5t-64.5 -95.5q-48 -43 -91 -43 q-23 0 -44 9.5t-21 19.5q0 13 16.5 26t30.5 13q12 0 36.5 -7.5t41.5 -7.5q11 0 20.5 7t16.5 22.5t12 28.5t9.5 37l6.5 35t5 34.5t3 25.5q42 290 42 332q0 11 -4 11h-170q-7 0 -7.5 -1t-2.5 -10q-2 -13 -13 -91.5l-23.5 -163.5t-20.5 -135q-3 -17 -11 -44.5t-31 -70.5 t-52 -65q-2 -1 -8.5 -6t-9.5 -7.5t-10 -7t-11.5 -6.5t-11.5 -5.5t-13 -5t-13 -3t-14 -1.5q-24 0 -46 12.5t-22 23.5zM189 377q0 -5 8 -5h167q7 0 8 1.5t2 10.5q2 19 11 64q21 92 73 147q5 5 4.5 5.5t-8.5 -2.5q-6 -3 -12 -3q-20 0 -43 19q-39 30 -60 30q-43 0 -77 -37 t-48 -88q-25 -93 -25 -142z" />
<glyph unicode="ffk" horiz-adv-x="978" d="M-125 -240q0 13 17 27t32 14q12 0 37.5 -12t43.5 -12q9 0 17.5 6.5t14 19t10 25t8.5 31.5t6 31.5t4.5 31t3.5 24.5l23.5 161.5t21.5 160t8 68.5q0 11 -4 11h-76q-7 0 -7 6q0 5 2 13q1 6 7 6h73q7 0 8 1.5t2 10.5q6 51 24 102q26 71 86.5 128t140.5 57q39 0 75 -21 q21 -12 25 -25l1 -9l1 1q2 1 5 3.5t5 4.5q62 53 128 53q29 0 50 -16q9 -6 9.5 -6t9.5 4l16.5 8.5t17.5 9.5t9 4q12 0 12 -14q0 -16 -97 -489q36 69 72 117q33 43 66.5 64t82.5 21q59 0 59 -37q0 -42 -32.5 -78t-67.5 -53t-65 -24q-21 -3 -21 -4l4 -2q4 -2 10.5 -6.5 t12.5 -9.5q47 -45 73 -77q16 -20 24 -28.5t22.5 -16.5t31.5 -8q34 0 34 27q0 4 -1 10.5t-1 9.5q0 12 8 12t14.5 -10.5t6.5 -32.5t-38.5 -38.5t-72.5 -16.5q-22 0 -43 20q-11 10 -23.5 25t-29 37.5t-24.5 32.5q-10 13 -23.5 28.5t-20 24t-6.5 9.5q0 5 17 22q2 2 10 2 q16 0 28 5q37 17 71 53.5t34 70.5q0 20 -31 20q-29 0 -63 -32q-9 -9 -18.5 -20t-20.5 -26.5l-18.5 -26.5l-21.5 -33t-21 -32q-17 -27 -24 -58q-15 -64 -21 -98q-3 -22 -10 -22q-1 0 -11 -1.5t-22 -3t-17 -1.5q-4 0 -4.5 1t-0.5 6q0 3 21 102.5t48.5 251t38.5 268.5 q-6 -1 -10 -3q-8 -4 -21 -4q-12 0 -42 16q-18 9 -24 9q-14 0 -37 -16q-74 -53 -91 -248q0 -5 8 -5h82q5 0 5 -2q0 -8 -2 -14q-1 -9 -7 -9h-80q-6 0 -7 -1t-2 -7q-1 -2 -1 -3l-48 -320q-9 -56 -34.5 -116.5t-64.5 -95.5q-48 -43 -91 -43q-23 0 -44 9.5t-21 19.5q0 13 16.5 26 t30.5 13q12 0 36.5 -7.5t41.5 -7.5q11 0 20.5 7t16.5 22.5t12 28.5t9.5 37l6.5 35t5 34.5t3 25.5q42 290 42 332q0 11 -4 11h-170q-7 0 -7.5 -1t-2.5 -10q-2 -13 -13 -91.5l-23.5 -163.5t-20.5 -135q-3 -17 -11 -44.5t-31 -70.5t-52 -65q-2 -1 -8.5 -6t-9.5 -7.5t-10 -7 t-11.5 -6.5t-11.5 -5.5t-13 -5t-13 -3t-14 -1.5q-24 0 -46 12.5t-22 23.5zM189 377q0 -5 8 -5h167q7 0 8 1.5t2 10.5q2 19 11 64q21 92 73 147q5 5 4.5 5.5t-8.5 -2.5q-6 -3 -12 -3q-20 0 -43 19q-39 30 -60 30q-43 0 -77 -37t-48 -88q-25 -93 -25 -142z" />
<glyph unicode="f&#x125;" horiz-adv-x="766" d="M451 731q0 1 4 5l91 92q11 11 20 11h20q7 0 9 -1.5t7 -9.5l53 -92q2 -3 2 -5t-5 -2h-12q-1 0 -7 6l-63 52q-3 3 -8 0l-85 -52q-2 -1 -4 -2.5t-3 -2.5l-2 -1h-12q-5 0 -5 2zM-125 -240q0 13 17 27t32 14q12 0 37.5 -12t43.5 -12q9 0 17.5 6.5t14 19t10 25t8.5 31.5t6 31.5 t4.5 31t3.5 24.5l23.5 161.5t21.5 160t8 68.5q0 11 -4 11h-76q-7 0 -7 6q0 5 2 13q1 6 7 6h73q7 0 8 1.5t2 10.5q2 19 11 64q14 62 38 101.5t67 75.5q62 53 128 53q29 0 50 -16q9 -6 9.5 -6t9.5 4l16.5 8.5t17.5 9.5t9 4q12 0 12 -10q0 -33 -9 -93q-23 -158 -84 -456 q47 110 115 192q56 68 124 68q26 0 42.5 -12t16.5 -36q0 -37 -33.5 -147.5t-33.5 -120.5q0 -22 21 -22q11 0 34 21.5t41.5 43.5t19.5 22q2 0 7 -4t5 -6q0 -5 -22 -33.5t-60.5 -58.5t-72.5 -30q-18 0 -29.5 10.5t-11.5 27.5q0 14 36.5 127.5t36.5 141.5q0 17 -9 28t-25 11 q-33 0 -66.5 -40t-74.5 -107q-46 -77 -54 -108l-20 -82q-2 -11 -58 -11q-8 0 -8 8q0 1 7 33t18.5 90t24 130t26 171t23.5 196q-14 -4 -18 -6q-8 -4 -21 -4q-12 0 -42 16q-18 9 -24 9q-14 0 -37 -16q-74 -53 -91 -248q0 -5 8 -5h82q5 0 5 -2q0 -8 -2 -14q-2 -9 -7 -9h-80 q-7 0 -7.5 -1t-2.5 -10q-2 -13 -13 -91.5l-23.5 -163.5t-20.5 -135q-3 -17 -11 -44.5t-31 -70.5t-52 -65q-2 -1 -8.5 -6t-9.5 -7.5t-10 -7t-11.5 -6.5t-11.5 -5.5t-13 -5t-13 -3t-14 -1.5q-24 0 -46 12.5t-22 23.5z" />
<glyph unicode="ff&#x125;" horiz-adv-x="1013" d="M698 731q0 1 4 5l91 92q11 11 20 11h20q7 0 9 -1.5t7 -9.5l53 -92q2 -3 2 -5t-5 -2h-12q-1 0 -7 6l-63 52q-3 3 -8 0l-85 -52q-2 -1 -4 -2.5t-4 -2.5l-1 -1h-12q-5 0 -5 2zM-125 -240q0 13 17 27t32 14q12 0 37.5 -12t43.5 -12q9 0 17.5 6.5t14 19t10 25t8.5 31.5t6 31.5 t4.5 31t3.5 24.5l23.5 161.5t21.5 160t8 68.5q0 11 -4 11h-76q-7 0 -7 6q0 5 2 13q1 6 7 6h73q7 0 8 1.5t2 10.5q6 51 24 102q26 71 86.5 128t140.5 57q39 0 75 -21q21 -12 25 -25l1 -9l1 1q2 1 5 3.5t5 4.5q62 53 128 53q29 0 50 -16q9 -6 9.5 -6t9.5 4l16.5 8.5t17.5 9.5 t9 4q12 0 12 -10q0 -33 -9 -93q-23 -158 -84 -456q47 110 115 192q56 68 124 68q26 0 42.5 -12t16.5 -36q0 -37 -33.5 -147.5t-33.5 -120.5q0 -22 21 -22q11 0 34 21.5t41.5 43.5t19.5 22q2 0 7 -4t5 -6q0 -5 -22 -33.5t-60.5 -58.5t-72.5 -30q-18 0 -29.5 10.5t-11.5 27.5 q0 14 36.5 127.5t36.5 141.5q0 17 -9 28t-25 11q-33 0 -66.5 -40t-74.5 -107q-46 -77 -54 -108l-20 -82q-2 -11 -58 -11q-8 0 -8 8q0 1 7 33t18.5 90t24 130t26 171t23.5 196q-14 -4 -18 -6q-8 -4 -21 -4q-12 0 -42 16q-18 9 -24 9q-14 0 -37 -16q-74 -53 -91 -248 q0 -5 8 -5h82q5 0 5 -2q0 -8 -2 -14q-1 -9 -7 -9h-80q-6 0 -7 -1t-2 -7q-1 -2 -1 -3l-48 -320q-9 -56 -34.5 -116.5t-64.5 -95.5q-48 -43 -91 -43q-23 0 -44 9.5t-21 19.5q0 13 16.5 26t30.5 13q12 0 36.5 -7.5t41.5 -7.5q11 0 20.5 7t16.5 22.5t12 28.5t9.5 37l6.5 35 t5 34.5t3 25.5q42 290 42 332q0 11 -4 11h-170q-7 0 -7.5 -1t-2.5 -10q-2 -13 -13 -91.5l-23.5 -163.5t-20.5 -135q-3 -17 -11 -44.5t-31 -70.5t-52 -65q-2 -1 -8.5 -6t-9.5 -7.5t-10 -7t-11.5 -6.5t-11.5 -5.5t-13 -5t-13 -3t-14 -1.5q-24 0 -46 12.5t-22 23.5zM189 377 q0 -5 8 -5h167q7 0 8 1.5t2 10.5q2 19 11 64q21 92 73 147q5 5 4.5 5.5t-8.5 -2.5q-6 -3 -12 -3q-20 0 -43 19q-39 30 -60 30q-43 0 -77 -37t-48 -88q-25 -93 -25 -142z" />
<glyph unicode="f&#xfe;" horiz-adv-x="701" d="M-125 -240q0 13 17 27t32 14q12 0 37.5 -12t43.5 -12q9 0 17.5 6.5t14 19t10 25t8.5 31.5t6 31.5t4.5 31t3.5 24.5l23.5 161.5t21.5 160t8 68.5q0 11 -4 11h-76q-7 0 -7 6q0 5 2 13q1 6 7 6h73q7 0 8 1.5t2 10.5q2 19 11 64q14 62 38 101.5t67 75.5q62 53 128 53 q29 0 50 -16q9 -6 9.5 -6t9.5 4l16.5 8.5t17.5 9.5t9 4q12 0 12 -10q0 -27 -8 -74q-36 -225 -86 -467q43 107 100 194q37 57 99 57q44 0 60 -23.5t16 -67.5q0 -110 -74 -204t-151 -94q-11 0 -32 3.5t-24 3.5q-12 0 -13 -8l-32 -209q-4 -23 9 -24q16 -2 40 -4 q14 -1 19.5 -1.5t11 -2t7 -4t1.5 -6.5q0 -14 -4.5 -17.5t-15.5 -3.5q-1 0 -27 3.5t-67.5 7t-79.5 3.5q-17 0 -17 10q0 14 3.5 18t15.5 4h16q12 0 16 3.5t6 17.5q26 137 43 243l35 208q49 279 60 388q-14 -4 -18 -6q-8 -4 -21 -4q-12 0 -42 16q-18 9 -24 9q-14 0 -37 -16 q-74 -53 -91 -248q0 -5 8 -5h82q5 0 5 -2q0 -8 -2 -14q-2 -9 -7 -9h-80q-7 0 -7.5 -1t-2.5 -10q-2 -13 -13 -91.5l-23.5 -163.5t-20.5 -135q-3 -17 -11 -44.5t-31 -70.5t-52 -65q-2 -1 -8.5 -6t-9.5 -7.5t-10 -7t-11.5 -6.5t-11.5 -5.5t-13 -5t-13 -3t-14 -1.5 q-24 0 -46 12.5t-22 23.5zM396 51q0 -32 64 -32q33 0 69.5 42.5t60.5 103.5t24 113q0 64 -44 64q-15 0 -29.5 -9.5t-29 -30t-22.5 -34t-22 -41.5l-16 -32q-55 -105 -55 -144z" />
<glyph unicode="ff&#xfe;" horiz-adv-x="948" d="M-125 -240q0 13 17 27t32 14q12 0 37.5 -12t43.5 -12q9 0 17.5 6.5t14 19t10 25t8.5 31.5t6 31.5t4.5 31t3.5 24.5l23.5 161.5t21.5 160t8 68.5q0 11 -4 11h-76q-7 0 -7 6q0 5 2 13q1 6 7 6h73q7 0 8 1.5t2 10.5q6 51 24 102q26 71 86.5 128t140.5 57q39 0 75 -21 q21 -12 25 -25l1 -9l1 1q2 1 5 3.5t5 4.5q62 53 128 53q29 0 50 -16q9 -6 9.5 -6t9.5 4l16.5 8.5t17.5 9.5t9 4q12 0 12 -10q0 -27 -8 -74q-36 -225 -86 -467q43 107 100 194q37 57 99 57q44 0 60 -23.5t16 -67.5q0 -110 -74 -204t-151 -94q-11 0 -32 3.5t-24 3.5 q-12 0 -13 -8l-32 -209q-5 -23 9 -24q16 -2 40 -4q14 -1 19.5 -1.5t11 -2t7 -4t1.5 -6.5q0 -14 -4.5 -17.5t-15.5 -3.5q-1 0 -27 3.5t-67.5 7t-79.5 3.5q-17 0 -17 10q0 14 3.5 18t15.5 4h16q12 0 16 3.5t6 17.5q26 137 43 243l35 208q49 279 60 388q-14 -4 -18 -6 q-8 -4 -21 -4q-12 0 -42 16q-18 9 -24 9q-14 0 -37 -16q-74 -53 -91 -248q0 -5 8 -5h82q5 0 5 -2q0 -8 -2 -14q-1 -9 -7 -9h-80q-6 0 -7 -1t-2 -7q-1 -2 -1 -3l-48 -320q-9 -56 -34.5 -116.5t-64.5 -95.5q-48 -43 -91 -43q-23 0 -44 9.5t-21 19.5q0 13 16.5 26t30.5 13 q12 0 36.5 -7.5t41.5 -7.5q11 0 20.5 7t16.5 22.5t12 28.5t9.5 37l6.5 35t5 34.5t3 25.5q42 290 42 332q0 11 -4 11h-170q-7 0 -7.5 -1t-2.5 -10q-2 -13 -13 -91.5l-23.5 -163.5t-20.5 -135q-3 -17 -11 -44.5t-31 -70.5t-52 -65q-2 -1 -8.5 -6t-9.5 -7.5t-10 -7t-11.5 -6.5 t-11.5 -5.5t-13 -5t-13 -3t-14 -1.5q-24 0 -46 12.5t-22 23.5zM189 377q0 -5 8 -5h167q7 0 8 1.5t2 10.5q2 19 11 64q21 92 73 147q5 5 4.5 5.5t-8.5 -2.5q-6 -3 -12 -3q-20 0 -43 19q-39 30 -60 30q-43 0 -77 -37t-48 -88q-25 -93 -25 -142zM643 51q0 -32 64 -32 q33 0 69.5 42.5t60.5 103.5t24 113q0 64 -44 64q-15 0 -29.5 -9.5t-29 -30t-22.5 -34t-22 -41.5l-16 -32q-55 -105 -55 -144z" />
<glyph unicode=" "  horiz-adv-x="200" />
<glyph unicode="&#x09;" horiz-adv-x="200" />
<glyph unicode="&#xa0;" horiz-adv-x="200" />
<glyph unicode="!" horiz-adv-x="220" d="M65 38q0 19 15.5 35.5t30.5 16.5q14 0 29 -16t15 -31q0 -23 -14.5 -37t-25.5 -14q-19 0 -34.5 16.5t-15.5 29.5zM102 150q0 23 20 183q27 211 34 302q1 22 29 22h5q25 0 25 -17q0 -2 -2 -12q-33 -148 -86 -477q-1 -5 -12 -5q-13 0 -13 4z" />
<glyph unicode="&#x22;" horiz-adv-x="261" d="M30 511q0 1 2 32.5l4.5 68.5t3.5 47q4 29 32 29q29 0 29 -25q0 -4 -2 -14l-12.5 -43l-17.5 -57.5t-10 -32.5q-1 -3 -2 -7t-1.5 -5l-1.5 -3t-2.5 -2.5t-3.5 -1t-6 -0.5q-12 0 -12 14zM160 511q0 1 2 32.5l4.5 68.5t3.5 47q4 29 32 29q29 0 29 -25q0 -4 -2 -14l-12.5 -43 l-17.5 -57.5t-10 -32.5q-1 -3 -2 -7t-1.5 -5l-1.5 -3t-2.5 -2.5t-3.5 -1t-6 -0.5q-12 0 -12 14z" />
<glyph unicode="#" horiz-adv-x="442" d="M30 169v4q0 8 2 10.5t9 2.5h73q5 0 5.5 1t1.5 6q16 115 16 126q0 4 -5 4h-95q-7 0 -7 13v6q0 11 7 11h100q9 0 9 6l21 148q2 16 3 18q4 6 6.5 6.5t14.5 0.5q19 0 19 -11q0 -3 -12.5 -81t-12.5 -82q0 -5 6 -5h90q7 0 8 7q25 161 26 165q3 7 14 7q24 0 24 -10 q0 -5 -12 -82.5t-12 -81.5q0 -5 4 -5h64q10 0 12.5 -2.5t2.5 -13.5q0 -10 -3 -12t-10 -2h-72q-6 0 -6 -5q-19 -120 -19 -126t7 -6h92q7 0 9 -3t2 -14q0 -10 -2.5 -12t-11.5 -2h-86q-15 -2 -15 -5q-21 -150 -22 -152q0 -1 -1 -3q-1 -5 -21 -5h-10.5t-5 1.5l-2 2t0 4t0.5 5.5 q0 4 11 74.5t11 73.5q0 4 -7 4h-86q-11 -2 -12 -5q-21 -150 -22 -152q-4 -7 -9 -8h-13q-11 0 -14.5 2.5t-3.5 10.5q0 4 11 74.5t11 73.5q0 4 -3 4h-68q-8 0 -10 3t-2 11zM158 193q0 -5 9 -5h90q7 0 7 6l9.5 67t7 44t2.5 16q0 4 -7 4h-90q-6 0 -8 -5v-1q-2 -16 -7.5 -47.5 t-9 -53.5t-3.5 -25z" />
<glyph unicode="$" horiz-adv-x="500" d="M50 128q0 8 12.5 17t20.5 9q2 0 6 -8.5l11.5 -25.5t14.5 -29q25 -44 52 -58q16 -8 29 -8q6 0 7 11l32 234q2 11 1 15.5t-8 8.5q-35 21 -52.5 33.5t-41.5 35t-35 49t-11 58.5q0 73 54 115t126 42q12 0 13 10l5 36q1 9 8 9h9q7 0 6 -9l-5 -36q-1 -11 3 -12q1 -1 3 -1 q60 -10 94 -53t34 -75q0 -25 -18 -25q-9 0 -18.5 9t-11.5 20q-1 6 -4 22t-5.5 26t-6.5 16q-26 35 -63 41q-11 2 -12 -3l-32 -247q-2 -16 4 -20q73 -47 95 -70q50 -50 50 -120q0 -66 -52 -105t-133 -39q-9 0 -10 -4q-1 -1 -2 -11l-14 -122q-1 -6 -6 -6h-17q-5 0 -4 7l18 121 q1 4 1 10t-2 7.5t-11 3.5q-2 1 -3 1q-58 12 -94.5 51t-36.5 69zM141 485q0 -36 26.5 -72t62.5 -55q6 -4 8 -4q6 0 7 14l31 234q1 6 -4 6q-49 0 -90 -35t-41 -88zM227 25q0 -6 18 -6q50 2 82.5 35.5t32.5 90.5q0 38 -27 73t-67 54l-6 3q-1 0 -3 -9l-29 -228q-1 -6 -1 -13z " />
<glyph unicode="%" horiz-adv-x="657" d="M50 362q0 62 52.5 131.5t124.5 69.5q40 0 71 -31q24 -24 58 -24q46 0 93 28q17 10 31.5 22t35.5 33.5l22 22.5t4.5 5t7.5 8l3 4q6 0 12 -4t6 -8q0 -3 -5 -11q-360 -527 -434 -643q-4 -6 -19 -6q-16 0 -16 10q0 2 2 6l80 114l169.5 245.5t112.5 170.5q9 15 8 16 q-2 1 -8 -2q-47 -28 -105 -28q-16 0 -35 3v-16v-14q0 -17 -1 -25q-6 -72 -57.5 -130.5t-112.5 -58.5q-47 0 -73.5 32t-26.5 80zM99 336q0 -29 13.5 -50t40.5 -21q51 0 95 58.5t44 137.5q0 70 -52 70q-46 0 -93.5 -64t-47.5 -131zM336 103q0 71 56 137t125 66q42 0 66 -29.5 t24 -79.5q0 -79 -53 -142.5t-118 -63.5q-47 0 -73.5 31.5t-26.5 80.5zM385 78q0 -30 13 -50.5t41 -20.5q51 0 95 58.5t44 136.5q0 71 -53 71q-45 0 -92.5 -64t-47.5 -131z" />
<glyph unicode="&#x26;" horiz-adv-x="693" d="M35 201q0 32 9.5 60t23.5 46t27.5 31t23 20.5t9.5 9.5q0 1 -11 13t-22.5 36.5t-11.5 58.5q0 69 44 118t119 49q40 0 78 -16q37 -16 37 -41q0 -31 -21 -52q-3 -3 -5 -3.5t-4.5 1t-4 2.5t-4.5 4.5t-3 4.5q-40 43 -97 43q-43 0 -75.5 -34t-32.5 -78q0 -36 17.5 -63t41.5 -27 q13 0 30 2.5t25 2.5q19 0 19 -12q0 -16 -23 -29.5t-38 -13.5q-10 0 -25 7l-15 7q-5 0 -17 -8t-26 -34t-14 -64q0 -86 59 -137.5t146 -51.5q34 0 68 10.5t66.5 33.5t52.5 66.5t20 101.5q0 59 -12 64q-76 28 -114 28q-29 0 -47 -15t-18 -42q0 -7 1.5 -13t3 -10.5t5.5 -9 t6.5 -7t8.5 -5t8.5 -4t10 -3.5l9.5 -2.5t10.5 -2t9.5 -1.5q16 -3 16 -9q0 -8 -10.5 -15.5t-20.5 -7.5q-11 0 -25 4q-28 9 -41.5 30.5t-13.5 38.5q0 58 39.5 90.5t94.5 32.5q21 0 88 -23.5t107 -23.5q25 0 40.5 15.5t15.5 40.5q0 63 -84 63q-11 0 -11 7q0 15 12 25t25 10 q39 0 58.5 -28.5t19.5 -60.5q0 -38 -17 -65q-15 -24 -44 -39t-52 -15q-25 0 -37 3q-5 2 -9 1t-4 -8q0 -3 0.5 -14.5t0.5 -16.5q0 -32 -9 -68.5t-30 -75.5t-51.5 -70t-78.5 -51t-106 -20q-103 0 -162 59t-59 150z" />
<glyph unicode="'" horiz-adv-x="131" d="M30 511q0 1 2 32.5l4.5 68.5t3.5 47q4 29 32 29q29 0 29 -25q0 -4 -2 -14l-12.5 -43l-17.5 -57.5t-10 -32.5q-1 -3 -2 -7t-1.5 -5l-1.5 -3t-2.5 -2.5t-3.5 -1t-6 -0.5q-12 0 -12 14z" />
<glyph unicode="(" horiz-adv-x="319" d="M60 285q0 73 19 142t45 114.5t53.5 80.5t45.5 51t20 16q6 0 11 -4t5 -9l-8 -8q-8 -9 -20.5 -25.5t-27.5 -39t-30 -54.5t-27.5 -68.5t-20.5 -84.5t-8 -99q0 -79 14 -150t34.5 -117.5t41 -80.5t34.5 -53t14 -22q0 -14 -16 -14q-4 0 -22.5 21.5t-45 62.5t-51.5 91.5 t-42.5 117.5t-17.5 132z" />
<glyph unicode=")" horiz-adv-x="319" d="M60 -127l8 9q8 8 20.5 24.5t27.5 39t30 54.5t27.5 68.5t20.5 84.5t8 99q0 79 -14 150t-34.5 117.5t-41 80.5t-34.5 53t-14 22q0 14 16 14q4 0 22.5 -21.5t45 -62.5t51.5 -91.5t42.5 -117.5t17.5 -132q0 -73 -19 -142t-45 -114.5t-53.5 -80.5t-45.5 -51t-20 -16 q-6 0 -11 4t-5 9z" />
<glyph unicode="*" horiz-adv-x="391" d="M30 447q0 21 23 31q10 4 48.5 17.5t52.5 19.5q19 7 19 13q0 4 -15 15q-6 5 -42.5 28t-45.5 32q-13 15 -13 29q0 11 7.5 19t20.5 8q18 0 31 -15q7 -8 18 -25l24 -39l18 -30q8 -13 11 -13q2 0 8 13q4 9 12.5 34t16 45t12.5 27q13 19 32 19q11 0 19 -9t8 -19q0 -13 -9 -26 q-8 -12 -39 -39.5t-39 -35.5q-10 -12 -10 -15q0 -6 18 -7q8 -1 56 -2t60 -5q29 -10 29 -31q0 -14 -9.5 -21.5t-22.5 -7.5q-7 0 -15 3t-46.5 22.5t-51.5 25.5q-12 6 -16 6q-5 0 -5 -4t3 -14q2 -10 15.5 -52.5t13.5 -56.5q0 -15 -7.5 -27t-22.5 -12q-16 0 -24.5 12t-8.5 26 q0 11 8 52.5t10 53.5q1 4 1 10q0 11 -4 11q-6 0 -17 -11l-36 -37.5t-41 -37.5q-12 -7 -25 -7t-21.5 7.5t-8.5 19.5z" />
<glyph unicode="+" horiz-adv-x="527" d="M31 212q0 8 0.5 11.5t4.5 6t13 2.5h170q22 0 22 19v176q0 7 2.5 10.5t6 4t12.5 0.5t13 -0.5t7.5 -5.5t3.5 -14v-163q0 -27 17 -27h177q8 0 11.5 -2.5t4 -6t0.5 -12.5q0 -14 -3 -18.5t-18 -4.5h-172q-12 0 -14.5 -4t-2.5 -14v-175q0 -11 -5 -14t-15 -3q-16 0 -20.5 2.5 t-4.5 15.5v174q0 12 -4.5 15t-19.5 3h-169q-12 0 -14.5 5t-2.5 19z" />
<glyph unicode="," horiz-adv-x="195" d="M7 -127q0 1 6 5.5t17 13.5t20 18q48 48 48 79q0 15 -15 35q-6 8 -16.5 18.5t-16 16.5t-5.5 9q0 6 20.5 17t32.5 11q13 0 35 -24t22 -56q0 -28 -32 -69t-63.5 -68t-35.5 -27t-10.5 8t-6.5 13z" />
<glyph unicode="-" horiz-adv-x="268" d="M30 201q0 12 6 25.5t12 14.5t91.5 4t91.5 3q2 0 2 -9q0 -33 -8 -33q-104 -8 -191 -8q-4 0 -4 3z" />
<glyph unicode="." horiz-adv-x="210" d="M60 38q0 19 15.5 35.5t30.5 16.5q14 0 29 -16t15 -31q0 -23 -14.5 -37t-25.5 -14q-19 0 -34.5 16.5t-15.5 29.5z" />
<glyph unicode="/" horiz-adv-x="406" d="M10 -220q0 2 19 57q315 843 317 850q4 11 9.5 14.5t19.5 3.5q21 0 21 -12q0 -8 -14 -44l-314 -851q-8 -22 -13.5 -26.5t-18.5 -4.5q-26 0 -26 13z" />
<glyph unicode="0" horiz-adv-x="500" d="M62 164q0 86 57.5 144t144.5 58q79 0 127 -48.5t48 -119.5q0 -85 -58 -144t-141 -59q-76 0 -127 46.5t-51 122.5zM107 156q0 -62 34.5 -95.5t89.5 -33.5q62 0 111 51.5t49 128.5q0 59 -36 94t-91 35q-63 0 -110 -57.5t-47 -122.5z" />
<glyph unicode="1" horiz-adv-x="500" d="M130 12q0 7 2.5 10t11.5 3h40h5t3 1.5t1.5 2t1 3.5t0.5 5q9 47 21.5 122t20.5 129t8 58q0 11 -3 11q-1 1 -5 1h-53q-11 0 -11 13q0 8 1.5 11t9.5 3q9 0 44.5 -1t48.5 -1t47 1t43 1q8 0 9.5 -2.5t1.5 -11.5q0 -7 -2.5 -10t-11.5 -3h-39q-8 0 -9.5 -2t-3.5 -10 q-30 -197 -45 -309q-1 -7 2 -9.5t11 -2.5h50q11 0 11 -13q0 -8 -1.5 -11t-9.5 -3q-9 0 -46 1t-50 1t-48.5 -1t-44.5 -1q-8 0 -9.5 2.5t-1.5 11.5z" />
<glyph unicode="2" horiz-adv-x="500" d="M54 11q0 7 12 17q13 12 69.5 50.5t86.5 65.5q73 65 73 122q0 40 -22.5 66.5t-61.5 26.5q-29 0 -58 -20.5t-46 -40.5l-17 -20q-5 0 -11.5 5.5t-6.5 10.5q0 7 22.5 30t64 46.5t80.5 23.5q61 0 93 -30t32 -84q0 -86 -197 -201q-28 -16 -28 -20q0 -1 7 -1h248q6 0 20 24 t15 24q4 0 11 -3t7 -5q0 -3 -7 -17l-18 -36.5t-18 -38.5q-2 -6 -11 -6h-324q-15 0 -15 11z" />
<glyph unicode="3" horiz-adv-x="500" d="M56 -146q0 12 35 12q24 0 34 -11q37 -44 80 -44q55 0 99.5 47.5t44.5 106.5q0 56 -37.5 83.5t-103.5 27.5q-12 0 -33 -1.5t-22 -1.5q-17 0 -17 11t3 14t16 7q172 49 172 167q0 39 -22.5 63t-60.5 24q-29 0 -55 -8.5t-40.5 -17.5t-15.5 -9q-4 0 -7.5 6t-3.5 11q0 4 21 15 t55.5 21t64.5 10q55 0 88.5 -27.5t33.5 -78.5q0 -27 -12.5 -52t-30.5 -42t-36.5 -29.5t-31 -19.5t-12.5 -8t16 -4t38 -11t44.5 -22.5t38.5 -44t16 -69.5q0 -78 -68 -135.5t-152 -57.5q-34 0 -62.5 8t-44 20t-24 22.5t-8.5 17.5z" />
<glyph unicode="4" horiz-adv-x="500" d="M46 8q0 21 44 78l18 20t16 18q34 41 163 174q15 17 55 55.5t48 38.5q14 0 10 -24l-50 -296q-2 -13 1 -15.5t14 -2.5h83q7 0 7 -10v-34q0 -8 -1.5 -9t-10.5 -1h-97q-9 0 -10 -1t-2 -7q-1 -4 -1 -6q-3 -27 -9 -71l-10 -75t-4 -33q0 -5 -2.5 -7t-12.5 -4l-42 -8q-6 -1 -11 4 t-3 17l34 180q2 4 1 6t-1.5 3.5t-3 2t-4 0t-5.5 -0.5h-7h-189q-18 0 -18 8zM102 60q0 -6 25 -6h147q13 0 15 2.5t4 17.5l35 216q1 8 -3 9.5t-9 -4.5l-197 -210q-17 -17 -17 -25z" />
<glyph unicode="5" horiz-adv-x="500" d="M58 -199q0 10 7 10q42 3 79.5 14t72.5 31.5t55.5 56t20.5 82.5q0 38 -26.5 71.5t-58.5 52.5l-58.5 36t-26.5 25q0 6 11 36l28.5 76.5t27.5 79.5q2 6 15 6q4 0 83 -7.5t85 -7.5q20 0 24 4l2 4l12 24q6 0 13 -2.5t7 -5.5q0 -1 -25 -68q-6 -16 -11 -18q-3 -1 -9 -1t-28 3 t-62 9t-72 10q-23 2 -28 -7q-12 -24 -23 -55.5t-11 -37.5q0 -4 20 -14.5t48 -27.5t56.5 -39.5t48.5 -57.5t20 -74q0 -65 -48 -117.5t-113.5 -78t-127.5 -25.5q-8 0 -8 13z" />
<glyph unicode="6" horiz-adv-x="500" d="M55 187q0 107 56 204.5t138 169.5q54 47 112 76.5t75 29.5q10 0 10 -19q0 -3 -8 -6q-81 -32 -130 -80q-94 -91 -135 -173q-14 -30 -14 -36q0 -1 6.5 0t20.5 4q37 7 65 7q79 0 125.5 -45t46.5 -128q0 -89 -58.5 -142.5t-142.5 -53.5q-32 0 -59.5 8.5t-53 29t-40 60 t-14.5 94.5zM116 173q0 -31 8.5 -62t37 -59t71.5 -28q54 0 87.5 51.5t33.5 121.5q0 146 -120 146q-19 0 -48 -6.5t-35 -14.5q-35 -47 -35 -149z" />
<glyph unicode="7" horiz-adv-x="500" d="M65 286q0 4 6 20t14 43.5t13 54.5q3 20 12 20q17 0 17 -9q0 -3 -1 -9.5t-1 -10.5q0 -2 51 -2h268q13 0 13 -9q0 -6 -41.5 -76.5l-100 -166l-73.5 -121.5q-80 -137 -109 -215q-5 -15 -12 -15q-11 0 -21 6t-10 14q0 28 56 122.5t143.5 226t102.5 155.5q5 8 5 13q0 8 -14 8 h-193q-82 0 -85 -9l-13 -40q-6 -8 -10 -9q-17 0 -17 9z" />
<glyph unicode="8" horiz-adv-x="500" d="M70 130q0 34 14.5 66t35 54.5t41.5 39.5t35.5 27t14.5 12q0 1 -10.5 10.5t-25 25t-29 35.5t-25 47t-10.5 53q0 71 48 116t124 45q62 0 99.5 -35.5t37.5 -98.5q0 -29 -13.5 -58t-33 -49.5t-38.5 -37t-32.5 -26.5t-13.5 -12q0 -1 11.5 -11.5t27.5 -28.5t32.5 -40t28 -53 t11.5 -61q0 -67 -52.5 -110t-129.5 -43q-68 0 -108 33.5t-40 99.5zM124 145q0 -55 30.5 -89t72.5 -34q48 0 81 35.5t33 82.5q0 22 -11.5 48.5t-27.5 48t-33.5 39.5t-29.5 28.5t-14 10.5q-7 0 -30 -20.5t-47 -62.5t-24 -87zM164 534q0 -36 25.5 -79.5t51 -69.5t30.5 -26 q7 0 30.5 21.5t46.5 62.5t23 82q0 48 -28 80.5t-74 32.5q-48 0 -76.5 -32t-28.5 -72z" />
<glyph unicode="9" horiz-adv-x="500" d="M42 -185q0 2 32 13q114 40 235 186q20 23 20 32q-2 1 -5 0.5t-12 -4t-12 -4.5q-41 -13 -74 -13q-62 0 -100 45.5t-38 121.5q0 89 62 145.5t146 56.5q70 0 109.5 -52.5t39.5 -138.5q0 -77 -39 -150.5t-101 -125.5q-49 -41 -111.5 -74t-99 -45.5t-43.5 -12.5q-9 0 -9 20z M147 173q0 -55 26.5 -88t79.5 -33q44 0 74 13q25 11 42.5 64t17.5 111q0 61 -25.5 94.5t-66.5 33.5q-66 0 -107 -60.5t-41 -134.5z" />
<glyph unicode=":" horiz-adv-x="209" d="M60 38q0 19 15.5 35.5t30.5 16.5q14 0 29 -16t15 -31q0 -23 -14.5 -37t-25.5 -14q-19 0 -34.5 16.5t-15.5 29.5zM89 313q0 19 15.5 35.5t30.5 16.5q14 0 29 -16t15 -31q0 -23 -14.5 -37t-25.5 -14q-19 0 -34.5 16.5t-15.5 29.5z" />
<glyph unicode=";" horiz-adv-x="195" d="M7 -127q0 1 6 5.5t17 13.5t20 18q48 48 48 79q0 15 -15 35q-6 8 -16.5 18.5t-16 16.5t-5.5 9q0 6 20.5 17t32.5 11q13 0 35 -24t22 -56q0 -28 -32 -69t-63.5 -68t-35.5 -27t-10.5 8t-6.5 13zM80 313q0 19 15.5 35.5t30.5 16.5q14 0 29 -16t15 -31q0 -23 -14.5 -37 t-25.5 -14q-19 0 -34.5 16.5t-15.5 29.5z" />
<glyph unicode="&#x3c;" horiz-adv-x="527" d="M41 211q0 6 0.5 8.5t4 5.5t10.5 6l361 132q48 18 51 18q19 0 19 -25q0 -10 -16 -16l-315 -111q-42 -15 -42 -21q0 -3 42 -18l320 -112q11 -4 11 -13q0 -8 -6 -16t-18 -8q-3 0 -408 147q-10 4 -12 8t-2 15z" />
<glyph unicode="=" horiz-adv-x="527" d="M31 134q0 8 0.5 11.5t4.5 6.5t13 3h431q8 0 11.5 -2.5t4 -6t0.5 -12.5q0 -14 -3 -19t-18 -5h-427q-9 0 -12.5 3t-4 6.5t-0.5 14.5zM31 290q0 8 0.5 11.5t4.5 6t13 2.5h431q8 0 11.5 -2.5t4 -6t0.5 -12.5q0 -14 -3 -18.5t-18 -4.5h-427q-9 0 -12.5 3t-4 6.5t-0.5 14.5z " />
<glyph unicode="&#x3e;" horiz-adv-x="527" d="M41 65q0 10 10 13l321 112q42 15 42 18q0 6 -42 21l-316 111q-15 6 -15 16q0 25 18 25q3 0 51 -18l361 -132q16 -6 16 -20q0 -11 -2.5 -15t-12.5 -8q-405 -147 -408 -147q-12 0 -17.5 8t-5.5 16z" />
<glyph unicode="?" horiz-adv-x="374" d="M80 38q0 19 15.5 35.5t30.5 16.5q14 0 29 -16t15 -31q0 -23 -14.5 -37t-25.5 -14q-19 0 -34.5 16.5t-15.5 29.5zM84 206q0 44 65 109l42.5 41l45.5 44t37 39.5t29.5 41t9.5 34.5q0 21 -11 41.5t-26 29.5q-22 14 -89 14q-13 0 -45 -1.5t-35 -1.5t-5 1t-3 3.5l-2 5t-1 6.5 t-0.5 7t-0.5 8v8q-1 9 3 11.5t15 4.5q30 5 64 5q60 0 90 -19q33 -21 52.5 -59.5t19.5 -77.5q0 -31 -7.5 -53.5t-13.5 -30.5t-28 -32q-16 -18 -105 -107q-1 -1 -17.5 -16.5t-24 -24t-16.5 -22t-9 -23.5q0 -11 7 -23.5t14 -20.5t7 -9q0 -3 -5 -8t-9 -5q-3 0 -14.5 11t-22.5 31 t-11 38z" />
<glyph unicode="@" horiz-adv-x="795" d="M50 187q0 110 61 203.5t157 145.5t200 52q56 0 103.5 -13t87.5 -41t63 -76.5t23 -113.5q0 -69 -31.5 -126t-81.5 -91.5t-108 -53.5t-115 -19q-35 0 -35 22l6 47q-7 -8 -18.5 -19t-43 -29.5t-56.5 -18.5q-28 0 -43 24t-15 59q0 36 31.5 95t92 110t126.5 51q8 0 20 -3 l11 -3q1 0 14 15q13 16 28 16q25 0 25 -13q0 -8 -3 -14q-110 -237 -110 -278q0 -11 0.5 -16t5.5 -10t14 -5q42 0 93 25t95 69q68 68 68 159q0 112 -66.5 167.5t-177.5 55.5q-157 0 -272 -108.5t-115 -270.5q0 -119 80.5 -192t191.5 -73q97 0 169.5 32.5t140.5 95.5q8 8 13 8 q6 0 10 -5.5t4 -8.5q0 -7 -4 -11q-62 -67 -150 -103.5t-186 -36.5q-125 0 -214 80t-89 220zM271 147q0 -18 11.5 -32t30.5 -14q31 0 67.5 57.5t58 116t21.5 75.5q0 11 -10 17.5t-22 6.5q-42 0 -99.5 -75.5t-57.5 -151.5z" />
<glyph unicode="A" horiz-adv-x="688" d="M20 15q0 9 3 10.5t15 1.5h33q3 0 72 118l155.5 266t121.5 199q4 5 22.5 24.5t28.5 38.5q7 14 15 14q3 0 5 -1l3 -1.5t2 -3t1 -3.5t1 -5t1 -5q104 -641 116 -641h42q8 0 9.5 -2t1.5 -11q0 -11 -2 -14t-9 -3q-6 0 -39.5 1.5t-50.5 1.5q-16 0 -58 -1.5t-53 -1.5 q-10 0 -12 2.5t-2 15.5q0 9 3 10.5t15 1.5h57q2 0 2 11q0 24 -13.5 121t-14.5 103q-1 14 -4 16.5t-14 2.5h-189q-15 0 -23 -15q-121 -227 -121 -238l1 -1h68q8 0 9.5 -2t1.5 -11q0 -11 -2 -14t-9 -3q-11 0 -48.5 1.5t-53.5 1.5t-39 -1.5t-34 -1.5q-10 0 -12 2.5t-2 15.5z M284 311q0 -6 18 -6h167q13 0 13 5q0 7 -11 74l-22 131t-12 64q-3 0 -13 -19l-133 -234q-7 -12 -7 -15z" />
<glyph unicode="B" horiz-adv-x="571" d="M20 15q0 9 3 10.5t15 1.5h43q78 514 82 595q1 9 -1 11.5t-9 2.5h-55q-7 0 -10.5 0.5t-6 4t-2.5 10.5q0 14 12 14l51 -1q50 -2 71 -2q16 0 60.5 1.5t49.5 1.5q198 0 198 -149q0 -29 -10.5 -54.5t-27.5 -43t-38 -32t-41.5 -23t-37.5 -14.5t-28 -9l-10 -3l20 -3 q21 -2 50 -11.5t58 -26t49.5 -51t20.5 -80.5q0 -168 -289 -168q-11 0 -47.5 1.5t-52.5 1.5t-54 -1.5t-49 -1.5q-10 0 -12 2.5t-2 15.5zM166 48q0 -10 6 -13t25 -4h3q14 -1 45 -1q92 0 145.5 37.5t53.5 113.5q0 71 -50.5 106.5t-131.5 35.5h-31q-19 0 -23 -2t-6 -10 q-8 -36 -35 -251q-1 -5 -1 -12zM208 364q-2 -17 2 -19q3 -1 10 -1h16h21t20.5 -0.5t9.5 -0.5q21 0 55 17q100 51 100 141q0 62 -41 99t-110 37h-16q-16 0 -22 -5.5t-10 -25.5q-9 -56 -35 -242z" />
<glyph unicode="C" horiz-adv-x="686" d="M35 291q0 160 108 270t255 110q62 0 120 -24.5t92 -62.5l12 41q8 0 18.5 -3.5t10.5 -7.5q0 -3 -7.5 -41l-17 -84t-10.5 -54q-1 -5 -13 -5q-9 0 -16 4t-7 7q0 1 11.5 46.5t11.5 50.5t-28 29.5t-79 50t-99 25.5q-75 0 -139 -56t-98.5 -137t-34.5 -162q0 -123 69.5 -195.5 t172.5 -72.5q47 0 91 16.5t67 33.5t26 26q10 29 25 84q3 9 8 10.5t15 -1.5q17 -4 17 -11q0 -6 -33 -116q-5 -18 -81.5 -47t-141.5 -29q-64 0 -119.5 16.5t-103 50.5t-75 95t-27.5 143z" />
<glyph unicode="D" horiz-adv-x="742" d="M19 10q0 11 3 13t14 2h43q5 0 42.5 261.5t45.5 338.5q2 11 -4 11l-70 -2q-5 0 -7.5 0.5t-4 3t-1.5 8.5v6t0.5 4.5t2 3.5t4 1.5t6.5 0.5h24t51.5 -0.5t43.5 -0.5q33 0 75.5 1t56.5 1q165 0 261.5 -80t96.5 -248q0 -158 -102 -247.5t-248 -91.5q-32 0 -112 2t-113 2 q-16 0 -55 -2t-42 -2q-8 0 -9.5 2t-1.5 12zM171 46q0 -13 6 -17t59 -4q97 0 170 27t111 64t61.5 88t29.5 87.5t6 73.5q0 123 -74.5 196.5t-223.5 73.5q-49 0 -63 -4l-9 -56l-20 -137.5l-24 -165t-20.5 -148.5t-8.5 -78z" />
<glyph unicode="E" horiz-adv-x="579" d="M20 15q0 9 3 10.5t15 1.5h43q83 519 83 599q0 10 -3 10h-55q-7 0 -10.5 0.5t-6 4t-2.5 10.5q0 14 12 14l47 -1q46 -2 67 -2q28 0 108.5 1.5t100.5 1.5q55 0 74.5 2.5t20.5 10.5q1 12 13 12q11 0 14 -2t3 -9q0 -4 -4 -41t-5 -84q0 -6 -3 -8t-13 -2q-15 0 -15 14q0 2 3 36 t3 37q0 7 -263 7q-5 0 -41 -269q-2 -11 -0.5 -14t14.5 -3h164q45 0 47 13l11 53q1 7 16 7q13 0 13 -6q0 -4 -2.5 -17t-7 -34l-7.5 -36q-7 -39 -15 -89q-1 -7 -13 -7q-17 0 -17 8q1 7 4 23.5t5.5 29t2.5 14.5q0 8 -10 11t-40 3h-151q-9 0 -12 -0.5t-5 -2.5t-3 -7 q-3 -13 -19.5 -129t-19.5 -147q0 -9 7 -9l319 7q4 0 10 16.5t14.5 43t13.5 37.5q4 9 14 9q17 0 17 -11q0 -5 -5.5 -21l-17 -47.5t-19.5 -55.5q-4 -11 -17 -11q-11 0 -179 1.5t-184 1.5t-54 -1.5t-49 -1.5q-10 0 -12 2.5t-2 15.5z" />
<glyph unicode="F" horiz-adv-x="541" d="M20 15q0 9 3 10.5t15 1.5h43q83 519 83 599q0 10 -3 10h-55q-7 0 -10.5 0.5t-6 4t-2.5 10.5q0 14 12 14l47 -1q46 -2 67 -2q28 0 108.5 1.5t100.5 1.5q49 0 58 2t11 11q1 12 13 12q11 0 14 -2t3 -9q0 -4 -4 -41t-5 -84q0 -6 -3 -8t-13 -2q-15 0 -15 14q0 2 3 36t3 37 q0 7 -237 7q-5 0 -41 -270q-2 -8 -0.5 -11.5t3.5 -4t11 -0.5h156q45 0 47 13l8 43q1 7 16 7q13 0 13 -6q0 -1 -14 -77q-3 -14 -5.5 -30.5t-4.5 -31t-2 -17.5q-1 -7 -13 -7q-17 0 -17 8q9 54 9 57q0 8 -10 11t-40 3h-143q-9 0 -12 -0.5t-5 -2.5t-3 -7q-2 -13 -18.5 -130.5 t-20.5 -148.5q-2 -9 8 -9h65q8 0 9.5 -2t1.5 -11q0 -11 -2 -14t-9 -3q-11 0 -47.5 1.5t-52.5 1.5t-54 -1.5t-49 -1.5q-10 0 -12 2.5t-2 15.5z" />
<glyph unicode="G" horiz-adv-x="721" d="M35 266q0 108 51.5 203t138.5 150.5t186 55.5q26 0 51.5 -3.5t46.5 -8.5t39.5 -12t33 -13.5t24.5 -11.5l16 -8l6 -4q1 0 6 27q3 11 11 11q9 0 15.5 -2t5.5 -7q-13 -84 -23 -175l-1.5 -7.5t-4 -4.5t-9.5 -2q-22 0 -18 16q1 5 8.5 49.5t7.5 50.5q0 5 -35.5 24t-87.5 37.5 t-88 18.5q-78 0 -145.5 -57.5t-103.5 -143.5t-36 -173q0 -122 67 -195t165 -73q65 0 111.5 21.5t51.5 40.5q15 55 18 136q1 14 -9 14h-85q-8 0 -8 12q0 18 9 18q16 0 64 -1.5t66 -1.5q17 0 49.5 1.5t53.5 1.5q8 0 8 -14q0 -16 -8 -16h-57q-2 0 -19 -146q-1 -10 -44.5 -33.5 t-116.5 -45t-138 -21.5q-28 0 -59 6t-70.5 26t-70 50.5t-52 85t-21.5 124.5z" />
<glyph unicode="H" horiz-adv-x="795" d="M20 13q0 9 3 11.5t15 2.5h53q7 0 48 282t41 314q0 16 -9 16h-61q-12 0 -12 15q0 7 2.5 10.5t5.5 4t11 0.5q6 0 47.5 -1.5t58.5 -1.5q16 0 53 1.5t48 1.5q10 0 12 -2.5t2 -15.5q0 -9 -3 -10.5t-15 -1.5h-50q-8 0 -47 -270q-2 -11 -0.5 -15t12.5 -4h332q8 0 11 0.5t5.5 3 t3.5 8.5q30 232 30 261q0 16 -9 16h-61q-12 0 -12 15q0 7 2.5 10.5t5.5 4t11 0.5q6 0 48 -1.5t59 -1.5q16 0 52.5 1.5t47.5 1.5q10 0 12 -2.5t2 -15.5q0 -9 -2.5 -10.5t-15.5 -1.5h-50q-10 0 -47 -288.5t-37 -310.5q0 -13 8 -13h57q8 0 9.5 -2t1.5 -11q0 -11 -2 -14t-9 -3 q-11 0 -54.5 1.5t-59.5 1.5t-50 -1.5t-45 -1.5q-10 0 -12 2.5t-2 15.5q0 9 2.5 10.5t15.5 1.5h53q5 0 44 287q1 8 -1.5 10t-13.5 2h-334q-9 0 -12.5 -3t-4.5 -13q-32 -235 -32 -270q0 -13 8 -13h59q8 0 9.5 -2t1.5 -11q0 -11 -2 -14t-9 -3q-11 0 -54 1.5t-59 1.5t-53.5 -1.5 t-48.5 -1.5q-9 0 -11.5 3t-2.5 13z" />
<glyph unicode="I" horiz-adv-x="377" d="M20 15q0 9 3 10.5t15 1.5h60q5 0 47 279t42 317q0 16 -9 16h-66q-12 0 -12 15q0 7 2.5 10.5t5.5 4t11 0.5q6 0 52 -1.5t63 -1.5q16 0 57 1.5t52 1.5q10 0 12 -2.5t2 -15.5q0 -9 -2.5 -10.5t-15.5 -1.5h-57q-9 0 -48.5 -275.5t-39.5 -323.5q0 -13 8 -13h66q8 0 9.5 -2 t1.5 -11q0 -11 -2 -14t-9 -3q-11 0 -58 1.5t-63 1.5t-59 -1.5t-54 -1.5q-10 0 -12 2.5t-2 15.5z" />
<glyph unicode="J" horiz-adv-x="365" d="M-58 -188q0 23 28.5 43.5t38.5 20.5q7 0 24 -10.5t28 -10.5q6 0 11.5 2.5t9.5 8.5t7 12t5.5 16.5t4.5 18t3.5 21t2.5 20.5t2 21.5t2 19.5q11 106 30.5 260l33.5 257t14 109q0 18 -10 18h-68q-8 0 -11 0.5t-6 4t-3 10.5t2.5 10.5t6 4t11.5 0.5q6 0 56 -1.5t67 -1.5 q16 0 52 1.5t47 1.5q10 0 12 -2.5t2 -15.5q0 -9 -2.5 -10.5t-15.5 -1.5h-50q-5 0 -20 -101t-34.5 -253.5t-19.5 -154.5q-16 -121 -35 -173q-23 -62 -64 -105q-60 -64 -109 -64q-19 0 -36 7t-17 17z" />
<glyph unicode="K" horiz-adv-x="656" d="M20 13q0 9 3 11.5t15 2.5h33q7 0 50.5 282t43.5 314q0 16 -9 16h-57q-12 0 -12 15q0 7 2.5 10.5t5.5 4t11 0.5q6 0 45.5 -1.5t56.5 -1.5q16 0 48 1.5t43 1.5q10 0 12 -2.5t2 -15.5q0 -9 -2.5 -10.5t-15.5 -1.5h-35q-10 0 -33 -127t-25 -154q-2 -20 13 -20h50 q8 0 93 108.5t130 171.5q10 15 10 16q0 5 -15 5h-21q-7 0 -10.5 0.5t-6 4t-2.5 10.5t2.5 10.5t5.5 4t11 0.5q6 0 29 -1.5t40 -1.5q16 0 42.5 1.5t37.5 1.5q10 0 12 -2.5t2 -15.5q0 -9 -2.5 -10.5t-15.5 -1.5h-58q-82 -110 -218 -261q-3 -3 -6 -6.5t-5.5 -5.5t-4 -4t-1.5 -3 q0 -3 9 -12q24 -22 56 -60.5t56 -70l66 -89.5l61 -83q12 -17 35 -17h28q8 0 9.5 -2t1.5 -11q0 -11 -2 -14t-9 -3q-11 0 -54.5 1.5t-59.5 1.5t-41.5 -1.5t-36.5 -1.5q-10 0 -12 2.5t-2 15.5q0 9 2.5 10.5t15.5 1.5h8q20 0 20 7q0 4 -12 20q-187 266 -196 266h-46h-8 t-4.5 -2.5t-3.5 -7.5q-4 -33 -14.5 -101t-16.5 -112.5t-6 -58.5q0 -11 2 -11h69q8 0 9.5 -2t1.5 -11q0 -11 -2 -14t-9 -3q-11 0 -54 1.5t-59 1.5t-43.5 -1.5t-38.5 -1.5q-9 0 -11.5 3t-2.5 13z" />
<glyph unicode="L" horiz-adv-x="586" d="M20 15q0 9 2.5 10.5t14.5 1.5h52q1 0 20 142.5l38 292t19 164.5q0 13 -2 13h-58q-10 0 -13 2.5t-3 12.5t3.5 12.5t16.5 2.5q6 0 43.5 -1.5t54.5 -1.5q16 0 57.5 1.5t52.5 1.5q12 0 14.5 -2t2.5 -13q0 -9 -3 -12t-15 -3h-62l-19 -144l-39 -290t-19 -152q0 -22 17 -22 q231 0 291 6q12 1 15 4t8 19l25 77q3 8 11 8q21 0 21 -10q0 -3 -5 -19l-14.5 -47t-17.5 -61q-2 -11 -20 -11q-11 0 -185.5 1.5t-190.5 1.5t-52.5 -1.5t-47.5 -1.5q-10 0 -11.5 2.5t-1.5 15.5z" />
<glyph unicode="M" horiz-adv-x="883" d="M20 15q0 9 3 10.5t15 1.5h48l46 207.5l61 273t26 123.5q0 8 -25 8h-46q-8 0 -9.5 2t-1.5 11q0 11 2 14t9 3q6 0 50 -1.5t55 -1.5q13 0 29.5 1.5t17.5 1.5q17 0 20 -13l101 -509q5 -24 10 -24t16 24q168 351 252 505q8 14 21 14h44q16 0 45 1.5t40 1.5q10 0 12 -2.5 t2 -15.5q0 -9 -2.5 -10.5t-15.5 -1.5h-46l-7 -59l-15.5 -143l-19 -172.5t-16 -155.5t-6.5 -82h77q8 0 10.5 -2t2.5 -11q0 -11 -2 -14t-9 -3q-11 0 -58.5 1.5t-63.5 1.5q-18 0 -56 -1.5t-40 -1.5q-10 0 -12 2.5t-2 15.5q0 9 3 10.5t15 1.5h39q21 3 80 594 q-188 -358 -253 -497q-9 -20 -19.5 -33t-26.5 -30t-29 -34q-10 -12 -16 -12q-13 0 -16 21q-12 72 -39.5 217l-49.5 255l-22 109q-32 -121 -56 -240q-63 -303 -63 -350h65q8 0 9.5 -2t1.5 -11q0 -11 -2 -14t-9 -3q-2 0 -36 1.5t-52 1.5q-17 0 -42 -1.5t-30 -1.5 q-10 0 -12 2.5t-2 15.5z" />
<glyph unicode="N" horiz-adv-x="824" d="M20 15q0 9 3 10.5t15 1.5h50q40 245 89 514q1 6 4 22.5t5 29.5t2 21q0 3 -5 12t-10 11t-22 2h-50q-8 0 -9.5 2t-1.5 11q0 11 2 14t9 3q6 0 53.5 -1.5t58.5 -1.5q13 0 28.5 1.5t16.5 1.5q12 0 20 -13l329 -499q8 -12 16 -12q7 0 39.5 218.5t32.5 263.5q0 12 -2 12h-76 q-8 0 -9.5 2t-1.5 11q0 11 2 14t9 3q11 0 42 -1.5t47 -1.5t44.5 1.5t39.5 1.5q10 0 12 -2.5t2 -15.5q0 -9 -3 -10.5t-15 -1.5h-42q-6 0 -80 -467q-10 -60 -16 -168q-1 -15 -4 -20t-12 -5t-28 32q-45 73 -118 180l-256 374q-15 21 -16 21q-4 0 -5 -20q0 -3 -17.5 -117 t-35 -241.5t-17.5 -165.5q0 -15 3 -15h85q8 0 9.5 -2t1.5 -11q0 -11 -2 -14t-9 -3q-11 0 -50.5 1.5t-55.5 1.5q-18 0 -52 -1.5t-35 -1.5q-10 0 -12 2.5t-2 15.5z" />
<glyph unicode="O" horiz-adv-x="734" d="M35 280q0 87 32.5 162t85.5 124.5t119.5 78t134.5 28.5q135 0 213.5 -89t78.5 -236q0 -151 -107 -260.5t-258 -109.5q-62 0 -114.5 17.5t-94.5 53t-66 94.5t-24 137zM127 286q0 -116 57 -200t167 -84q75 0 135.5 60t91 144t30.5 167q0 44 -11 89.5t-33.5 87.5t-62.5 68.5 t-91 26.5q-71 0 -137 -52.5t-106 -136t-40 -170.5z" />
<glyph unicode="P" horiz-adv-x="570" d="M20 15q0 9 3 10.5t15 1.5h43q83 569 83 599q0 10 -3 10h-55q-7 0 -10.5 0.5t-6 4t-2.5 10.5q0 14 12 14l44 -1q44 -2 65 -2q16 0 63 2.5t54 2.5q99 0 154.5 -47.5t55.5 -123.5q0 -44 -14.5 -78.5t-38 -55.5t-56 -35t-65.5 -19.5t-70 -5.5q-16 0 -44.5 1t-31.5 1 q-16 0 -18 -9q-9 -48 -33 -259q-2 -9 8 -9h65q8 0 9.5 -2t1.5 -11q0 -11 -2 -14t-9 -3q-11 0 -47.5 1.5t-52.5 1.5t-54 -1.5t-49 -1.5q-10 0 -12 2.5t-2 15.5zM202 335q0 -12 31 -12q59 0 107.5 15.5t83 54.5t34.5 97q0 74 -42.5 113.5t-124.5 39.5q-44 0 -45 -5 q-22 -138 -42 -284q-2 -18 -2 -19z" />
<glyph unicode="Q" horiz-adv-x="717" d="M16 -107q0 41 101 41q14 0 38 -2.5t33 -2.5q13 0 23 4q5 2 23.5 11.5l43.5 22t41 19.5q13 6 13 7l-16 2q-17 2 -43 8t-57.5 17t-63.5 34t-58 54.5t-42.5 82.5t-16.5 114q0 90 46.5 174.5t131.5 140t185 55.5q128 0 206 -85.5t78 -214.5q0 -133 -69.5 -227t-174.5 -132 q-13 -5 -27 -9t-25.5 -8.5t-28.5 -12.5q-52 -25 -91 -46q-28 -15 -28 -16t33 -9q265 -72 354 -72q30 0 53 2.5t33.5 5.5t11.5 3q5 0 5 -11q0 -1 -28 -11t-70 -20t-70 -10q-85 0 -184 22t-166 43.5t-75 21.5q-15 0 -37 -9q-35 -13 -49 -13q-33 0 -33 26zM121 290 q0 -134 73 -203.5t174 -69.5q16 0 43 17t58.5 51t59.5 78.5t47 107.5t19 129q0 114 -57.5 180t-152.5 66q-89 0 -176.5 -106.5t-87.5 -249.5z" />
<glyph unicode="R" horiz-adv-x="625" d="M20 13q0 9 3 11.5t15 2.5h41q19 106 47.5 312t35.5 282q0 15 -3 15h-61q-7 0 -10.5 0.5t-6 4t-2.5 10.5q0 14 17 14q1 0 15 -0.5t38.5 -1.5t53.5 -1q15 0 69.5 3.5t72.5 3.5q87 0 144.5 -45.5t57.5 -116.5q0 -44 -20 -78.5t-48.5 -53t-57 -30t-48.5 -16t-20 -5.5 t7.5 -3.5l24.5 -8t34 -12.5q113 -45 113 -164q0 -6 -1.5 -44t-1.5 -54q0 -11 3 -11h43q12 0 16 -2.5t4 -12.5q0 -15 -8 -15q-2 0 -29.5 0.5t-61.5 1.5t-53 1q-7 0 -5 13q16 94 16 157q0 48 -38 86.5t-97 50.5q-24 5 -71 5h-27q-25 0 -28 -24q-26 -182 -29 -252q0 -9 8 -9h53 q8 0 10.5 -2t2.5 -11q0 -11 -2 -14t-9 -3q-11 0 -42.5 1.5t-47.5 1.5t-54 -1.5t-49 -1.5q-10 0 -12 2t-2 14zM204 350q0 -14 18 -14h7q20 0 43.5 -1.5t26.5 -1.5q53 0 108 50t55 115q0 145 -171 145q-50 0 -50 -5q-3 -25 -18.5 -143t-17.5 -132q-1 -5 -1 -13z" />
<glyph unicode="S" horiz-adv-x="505" d="M40 67q0 15 17 100q1 3 2.5 11.5t3 15t2.5 7.5t5 1q23 0 23 -10q0 -2 -7.5 -45.5t-7.5 -46.5q0 -18 64.5 -51t122.5 -33q56 0 93 35t37 88q0 42 -31.5 72.5t-76.5 52l-90 45t-76.5 65t-31.5 99.5q0 86 57.5 141t147.5 55q20 0 41 -6t37.5 -14t30 -16t21.5 -14l8 -6l8 32 q2 10 9 10h3q18 -3 18 -7q0 -3 -31 -167q-2 -12 -15 -12q-16 0 -16 12l4 14q4 14 7.5 31t3.5 24q0 2 -6 11.5t-18.5 22.5t-28.5 25t-39.5 20.5t-47.5 8.5q-57 0 -90.5 -36.5t-33.5 -95.5q0 -39 22.5 -67.5t55.5 -44l72.5 -35t72.5 -39t55.5 -57t22.5 -88.5q0 -85 -66 -136.5 t-144 -51.5q-55 0 -106.5 16.5t-77.5 35t-26 28.5z" />
<glyph unicode="T" horiz-adv-x="681" d="M20 546q0 1 6 16.5t16.5 46.5l20.5 63q3 9 7 11.5t15 2.5q10 0 10 -12v-5q0 -8 106 -8h326q103 0 104 11q1 14 14 14q11 0 13.5 -2t2.5 -9q0 -8 -1.5 -23t-3.5 -44t-4 -63q0 -10 -19 -10q-8 0 -9.5 2.5t-1.5 11.5q0 2 3 38.5t3 39.5q0 6 -107 6h-106q-9 0 -13 -20 l-27 -188l-37 -262t-17 -122q0 -14 8 -14h64q8 0 9.5 -2t1.5 -11q0 -11 -2 -14t-9 -3q-11 0 -57.5 1.5t-62.5 1.5q-17 0 -61 -1.5t-50 -1.5q-10 0 -12 2.5t-2 15.5q0 9 3 10.5t15 1.5h54q10 0 94 569q3 24 3 26q0 11 -6 11h-137q-92 0 -95 -11l-24 -70q-4 -11 -6.5 -14 t-9.5 -3q-19 0 -19 11z" />
<glyph unicode="U" horiz-adv-x="759" d="M60 649q0 7 2 10.5t5 4t11 0.5q6 0 40.5 -1.5t51.5 -1.5q16 0 52.5 1.5t47.5 1.5q10 0 12 -2.5t2 -15.5q0 -9 -3 -10.5t-15 -1.5h-32q-5 0 -23.5 -98.5t-35 -211.5t-16.5 -148q0 -37 15 -64.5t34.5 -40.5t46 -21t40.5 -9t27 -1q42 0 88.5 16t76.5 35q28 19 39 60 q12 47 32 163q41 241 48 320h-67q-8 0 -11 0.5t-6 4t-3 10.5t2.5 10.5t6 4t11.5 0.5q6 0 46.5 -1.5t57.5 -1.5t48 1.5t34 1.5q10 0 12 -2.5t2 -15.5q0 -9 -2.5 -10.5t-15.5 -1.5h-32q-8 -38 -22 -118q-62 -378 -95 -490q-7 -25 -19 -25h-5q-9 0 -11 11q-1 10 -2.5 23 t-2 19.5t-1.5 13t-2.5 9t-4.5 2.5t-45 -24q-113 -62 -211 -62q-82 0 -137 42.5t-55 115.5q0 46 33 248.5t33 229.5q0 5 -1 5h-63q-6 0 -8 0.5t-5 1.5t-4 4t-1 9z" />
<glyph unicode="V" horiz-adv-x="666" d="M20 649q0 7 2 10.5t5 4t11 0.5q6 0 40.5 -1.5t51.5 -1.5q16 0 55 1.5t50 1.5q10 0 12 -2.5t2 -15.5q0 -9 -2.5 -10.5t-15.5 -1.5h-55q-4 0 -4 -5q0 -26 37.5 -287t42.5 -261q3 0 30 46l69 121l79 145l118 225q4 12 3 14t-9 2h-67h-5.5t-4 0.5t-4 1.5t-2.5 2.5t-1.5 4 t-0.5 6.5q0 11 3 13t14 2q1 0 34 -1.5t65 -1.5q8 0 31 1.5t27 1.5q10 0 12.5 -3t2.5 -15q0 -9 -3 -10.5t-16 -1.5q-15 0 -18 -1t-6 -6l-314 -539q-3 -6 -21 -27.5t-33 -44.5q-22 -33 -37 -33q-8 0 -11.5 10.5t-8.5 50.5q-20 146 -56.5 368t-43.5 222h-40q-6 0 -8 0.5t-5 1.5 t-4 4t-1 9z" />
<glyph unicode="W" horiz-adv-x="1010" d="M20 649q0 7 2 10.5t5 4t11 0.5q6 0 40.5 -1.5t51.5 -1.5q16 0 52 1.5t47 1.5q10 0 12 -2.5t2 -15.5q0 -9 -2.5 -10.5t-15.5 -1.5h-53q-4 0 -4 -5q0 -26 35.5 -285.5t40.5 -259.5t88 149l139 255q-18 146 -21 146h-43h-5.5t-4 0.5t-4 1.5t-2.5 2.5t-1.5 4t-0.5 6.5 q0 7 2 10.5t5 4t11 0.5q6 0 37 -1.5t48 -1.5q16 0 67.5 1.5t59.5 1.5q10 0 12.5 -3t2.5 -15q0 -9 -3 -10.5t-16 -1.5h-73q-3 0 -3 -19q0 -14 32 -278.5t36 -264.5q3 0 30 49.5l66.5 127l76 149.5l71 141.5t39.5 78.5q4 12 3 14t-9 2h-64q-6 0 -8 0.5t-5 1.5t-4 4t-1 9 q0 11 3 13t14 2q1 0 32.5 -1.5t63.5 -1.5q8 0 32 1.5t28 1.5q10 0 12.5 -3t2.5 -15q0 -9 -3 -10.5t-16 -1.5h-11.5t-8 -0.5t-5.5 -1t-3.5 -2.5t-3 -3.5t-3 -6t-3.5 -7.5q-147 -285 -194 -369l-88 -156q-3 -6 -21.5 -28t-32.5 -44q-22 -33 -37 -33q-8 0 -11.5 10.5t-8.5 50.5 q-22 154 -62 394l-195 -350q-3 -6 -21.5 -28t-32.5 -44q-22 -33 -35 -33q-8 0 -11.5 10.5t-8.5 50.5q-20 147 -55.5 368.5t-40.5 221.5h-40q-6 0 -8 0.5t-5 1.5t-4 4t-1 9z" />
<glyph unicode="X" horiz-adv-x="661" d="M20 12q0 6 0.5 9t3 4.5t4.5 1.5h8h26q5 0 39.5 43.5l95.5 123l104 131.5q8 9 8 10t-4 11l-125 254q-17 34 -22 34h-43h-5.5t-4 0.5t-4 1.5t-2.5 2.5t-1.5 4t-0.5 6.5q0 7 2 10.5t5 4t11 0.5q6 0 42 -1.5t53 -1.5q16 0 53.5 1.5t48.5 1.5q10 0 12 -2.5t2 -15.5 q0 -9 -3 -10.5t-15 -1.5h-41q-11 0 -11.5 -2t3.5 -13q13 -43 85 -193q19 -39 20 -39q2 0 30 39q140 195 140 204q0 4 -3 4h-46q-13 0 -15.5 1.5t-2.5 10.5q0 13 2 15.5t12 2.5q11 0 31.5 -1.5t36.5 -1.5q17 0 43.5 1.5t32.5 1.5q11 0 13.5 -2t2.5 -13t-3 -13t-13 -2h-29 q-4 0 -57.5 -66.5l-104.5 -133.5l-52 -67q-6 -8 -1 -16l58.5 -110.5l82 -152t39.5 -61.5h47q6 0 8 -0.5t5 -1.5t4 -4t1 -9q0 -7 -2 -10.5t-5 -4t-11 -0.5q-6 0 -44.5 1.5t-55.5 1.5q-16 0 -60.5 -1.5t-55.5 -1.5q-10 0 -12 2.5t-2 15.5q0 9 3 10.5t15 1.5h47q11 0 12.5 2.5 t-3.5 12.5q-14 34 -66.5 142l-58.5 120q-5 6 -6 5.5t-9 -10.5l-114 -154t-72 -114q0 -4 13 -4h41q12 0 15 -1.5t3 -10.5q0 -13 -2 -15.5t-12 -2.5q-4 0 -36 1.5t-49 1.5t-38.5 -1.5t-24.5 -1.5q-10 0 -13 2t-3 13z" />
<glyph unicode="Y" horiz-adv-x="613" d="M20 654q0 7 2 10.5t5 4t11 0.5q6 0 45 -1.5t56 -1.5q16 0 46.5 1.5t41.5 1.5q10 0 12 -2.5t2 -15.5q0 -9 -2.5 -10.5t-15.5 -1.5h-31q-10 0 -11 -2t3 -13q13 -44 103 -265q6 -12 8 -12q5 0 16 18l35 52l46 68l43 65t34.5 56.5t12.5 29.5v3h-53q-13 0 -15.5 1.5t-2.5 10.5 q0 13 2 15.5t12 2.5q11 0 36.5 -1.5t41.5 -1.5q17 0 42.5 1.5t31.5 1.5q11 0 13.5 -2t2.5 -13q0 -6 -0.5 -9t-3 -4.5t-5 -1.5h-7.5h-36q-2 0 -45.5 -58l-97 -133t-80.5 -116q-5 -9 -8 -22q-44 -260 -44 -270q0 -13 5 -13h63q8 0 9.5 -2t1.5 -11q0 -11 -2 -14t-9 -3 q-11 0 -50 1.5t-55 1.5t-49.5 -1.5t-44.5 -1.5q-9 0 -11.5 3t-2.5 13q0 9 3 11.5t15 2.5h42q6 0 30 143l15 90q5 27 5 41l-146 338h-47q-6 0 -8 0.5t-5 1.5t-4 4t-1 9z" />
<glyph unicode="Z" horiz-adv-x="599" d="M35 15q0 7 215 308t215 303q0 3 -24 3h-256q-42 0 -44 -10l-5.5 -28l-6 -32t-2.5 -15q-3 -10 -8 -11h-5q-21 0 -21 7q0 2 4.5 24.5t10.5 56t9 59.5q0 6 16 6q14 0 14 -5v-9q0 -11 57 -11h348q10 0 13.5 -3t3.5 -12q0 -6 -187 -275q-224 -322 -224 -329q0 -10 11 -10 l304 3q15 0 21 15q8 23 23 89q2 8 14 8q20 0 20 -12q0 -2 -6.5 -27l-15 -56.5t-11.5 -43.5q-2 -11 -22 -11q-57 0 -229.5 1.5t-223.5 1.5q-5 0 -6.5 2.5t-1.5 12.5z" />
<glyph unicode="[" horiz-adv-x="296" d="M80 -126v801q0 9 2 12t10 3h151q9 0 11 -1.5t2 -7.5v-14q0 -9 -2 -11t-11 -2h-105q-9 0 -11 -2t-2 -10v-735q0 -12 13 -12h105q6 0 8.5 -0.5t3.5 -3t1 -9.5v-12q0 -6 -2 -8.5t-11 -2.5h-150q-9 0 -11 2.5t-2 12.5z" />
<glyph unicode="\" horiz-adv-x="406" d="M10 693q0 12 21 12q14 0 19.5 -3.5t9.5 -14.5l317 -850q19 -55 19 -57q0 -13 -26 -13q-13 0 -18.5 4.5t-13.5 26.5l-314 851q-14 36 -14 44z" />
<glyph unicode="]" horiz-adv-x="296" d="M40 -118q0 9 2 11t11 2h105q9 0 11 2t2 10v735v6t-1.5 3.5t-4 2t-7.5 0.5h-105q-6 0 -8.5 0.5t-3.5 3t-1 9.5v12q0 7 2 9t11 2h150q9 0 11 -2.5t2 -12.5v-801q0 -9 -2 -12t-10 -3h-151q-9 0 -11 1.5t-2 7.5v14z" />
<glyph unicode="^" horiz-adv-x="402" d="M51 311l146 320q2 1 6 1t6 -1l146 -320q-15 -3 -26 -3q-9 0 -26 3l-102 232l-98 -232q-18 -3 -28 -3q-11 0 -24 3z" />
<glyph unicode="_" horiz-adv-x="410" d="M25 -43q0 18 16 18h331q13 0 13 -17v-5q0 -23 -13 -23h-334q-13 0 -13 19v8z" />
<glyph unicode="`" horiz-adv-x="400" d="M128 575q0 31 34 31q21 0 26 -24l26 -125v-3l1 -3q0 -2 -4 -2h-15q-4 0 -7 6l-57 107q-4 7 -4 13z" />
<glyph unicode="a" horiz-adv-x="433" d="M25 59q0 46 15 100.5t42 106.5t72 86.5t98 34.5q35 0 56 -30l7.5 -12.5t7.5 -11.5t5 -4t8.5 21t6.5 23q2 6 36 11q21 2 21 -5q0 -3 -40.5 -146.5t-40.5 -169.5q0 -20 14 -20q9 0 37 28l27 28q3 0 7 -4t4 -10q0 -3 -22 -26t-54 -46.5t-51 -23.5q-27 0 -27 24q0 19 14 72 t28 97l15 44q-55 -101 -125 -174q-23 -24 -33.5 -33.5t-28 -19t-34.5 -9.5q-31 0 -48 19.5t-17 49.5zM94 96q0 -53 26 -53q25 0 81.5 62.5t97.5 129.5q15 24 15 54q0 26 -27.5 42t-54.5 16q-32 0 -65 -46t-53 -105t-20 -100z" />
<glyph unicode="b" horiz-adv-x="453" d="M25 12q0 4 13 23q5 7 8 19q30 158 58.5 349t28.5 220q0 7 -7 7q-4 0 -41 -11t-41 -11q-9 0 -9 25q0 10 5 11q155 38 164 38q12 0 12 -10q0 -6 -17.5 -117.5t-22.5 -140.5l-49 -251q51 85 87 133q38 51 64.5 71.5t71.5 20.5q41 0 64 -23q14 -14 14 -42q0 -72 -28.5 -137 t-69.5 -106t-84 -64.5t-76 -23.5q-20 0 -40 7t-32.5 14t-15.5 7q-4 0 -20 -8q-20 -8 -27 -8q-10 0 -10 8zM112 80q0 -25 17 -42.5t51 -17.5q41 0 84.5 51t69 112.5t25.5 98.5q0 23 -10 41t-32 18q-41 0 -83 -59l-48.5 -68l-36.5 -54.5t-28.5 -49t-8.5 -30.5z" />
<glyph unicode="c" horiz-adv-x="402" d="M25 128q0 114 71 188.5t150 74.5q58 0 86 -31q22 -24 22 -56q0 -21 -12 -35t-31 -14q-22 0 -22 37q0 4 0.5 12t0.5 12q0 20 -11.5 34t-35.5 14q-28 0 -57 -18.5t-49 -48.5q-47 -71 -47 -153q0 -16 2.5 -28.5t11 -32.5t32 -31.5t60.5 -11.5q38 0 76.5 19.5t61.5 39 t24 19.5q3 0 7.5 -5t4.5 -9q0 -5 -30 -31.5t-82 -54t-96 -27.5q-73 0 -105 40t-32 97z" />
<glyph unicode="d" horiz-adv-x="473" d="M25 74q0 34 14.5 83.5t40 100t68 86t92.5 35.5q17 0 33.5 -3t25 -6.5t18 -8.5t10.5 -5q9 -4 12 -2t5 12q6 31 15 91.5l15.5 107t6.5 47.5q5 17 -4 17q-2 0 -44 -10.5t-45 -10.5q-5 0 -3 21q1 8 2.5 9.5t7.5 3.5q39 8 76 17.5t55 14.5t20 5q11 0 11 -15q0 -3 -50 -288 t-50 -316q0 -15 13 -15t35.5 18.5t39.5 36.5t18 18q3 0 6.5 -3t3.5 -5q0 -5 -22 -32t-61.5 -56t-75.5 -29q-12 0 -19.5 9.5t-7.5 25.5q0 18 10.5 70.5t20.5 95.5l10 43q-38 -72 -89 -139l-30.5 -39t-29 -30.5t-37 -25t-40.5 -7.5q-10 0 -19.5 2t-24.5 9t-24 24t-9 43z M91 102q0 -56 46 -56q41 0 138 140q54 82 54 118q0 14 -29 33.5t-60 19.5q-41 0 -77 -49t-54 -107t-18 -99z" />
<glyph unicode="e" horiz-adv-x="390" d="M25 105q0 114 73 200t172 86q93 0 93 -66q0 -43 -35 -77t-88 -54q-65 -24 -141 -24q-8 0 -8 -46q0 -89 96 -89q42 0 82 21.5t63.5 43.5t24.5 22q4 0 8.5 -5t4.5 -9q0 -2 -11 -13.5t-32 -28t-47 -32.5t-61 -27.5t-68 -11.5q-55 0 -90.5 27.5t-35.5 82.5zM106 200 q0 -7 10 -7q74 0 128 36.5t54 96.5q0 19 -14 30t-36 11q-82 0 -128 -122q-14 -35 -14 -45z" />
<glyph unicode="f" horiz-adv-x="284" d="M-125 -240q0 13 17 27t32 14q12 0 37.5 -12t43.5 -12q9 0 17.5 6.5t14 19t10 25t8.5 31.5t6 31.5t4.5 31t3.5 24.5l23.5 161.5t21.5 160t8 68.5q0 11 -4 11h-76q-7 0 -7 6q0 5 2 13q1 6 7 6h73q7 0 8 1.5t2 10.5q9 98 42 157q46 80 101 112q48 28 91 28q24 0 48.5 -12.5 t24.5 -23.5q0 -13 -19 -27t-35 -14q-12 0 -37.5 18.5t-43.5 18.5q-75 0 -109 -254q-1 -6 -1 -9q-1 -3 2 -4.5t6 -1.5h82q5 0 5 -2q0 -8 -2 -14q-2 -9 -7 -9h-80q-7 0 -7.5 -1t-2.5 -10q-2 -11 -13 -91l-23.5 -164.5l-20.5 -134.5q-3 -17 -11 -44.5t-31 -70.5t-52 -65 q-2 -1 -8.5 -6t-9.5 -7.5t-10 -7t-11.5 -6.5t-11.5 -5.5t-13 -5t-13 -3t-14 -1.5q-24 0 -46 12.5t-22 23.5z" />
<glyph unicode="g" horiz-adv-x="426" d="M-6 -157q0 39 29.5 67t61.5 42q12 6 12 8q0 1 -3 2.5t-7.5 3.5t-7.5 4q-25 18 -25 33q0 7 18 35.5t27 31.5l60 22l6 3q0 2 -7 4q-14 4 -28 11.5t-31.5 22t-28 40t-10.5 57.5q0 70 51.5 119.5t125.5 49.5q18 0 35 -4.5t28 -11.5t19 -13.5t12 -11t5 -4.5q2 0 7.5 11.5 t12 26.5t8.5 19q5 9 21 9q27 0 27 -11q0 -12 -11.5 -33t-23 -38t-11.5 -18q0 -6 3 -13q7 -18 7 -40q0 -73 -53 -121q-26 -24 -51.5 -35t-74.5 -24q-93 -27 -93 -47q0 -9 10.5 -16t37 -13.5t41.5 -9t55 -8.5q17 -3 26 -4q65 -11 98 -30.5t33 -64.5q0 -75 -67 -110t-173 -35 q-44 0 -79.5 7t-63.5 29t-28 58zM36 -151q0 -21 18 -36.5t46.5 -22t53.5 -9.5t50 -3q62 0 101 22.5t39 66.5q0 32 -26 46t-78 23q-98 17 -107 17q-8 0 -32 -11q-65 -32 -65 -93zM123 229q0 -60 24.5 -87t49.5 -27q40 0 78.5 48.5t38.5 115.5q0 37 -22 67t-56 30 q-50 0 -81.5 -48.5t-31.5 -98.5z" />
<glyph unicode="h" horiz-adv-x="468" d="M25 6q0 2 7 33.5t18 88l23.5 127t26 168.5t23.5 196q2 19 -4 19q-10 0 -49 -14l-38 -13q-3 0 -3 14q0 13 7 16q30 11 83 22.5t72 11.5q6 0 6 -15q-5 -101 -93 -537q47 110 115 192q56 68 124 68q26 0 42.5 -12t16.5 -36q0 -37 -33.5 -147.5t-33.5 -120.5q0 -22 21 -22 q11 0 34 21.5t41.5 43.5t19.5 22q2 0 7 -4t5 -6q0 -5 -22 -33.5t-60.5 -58.5t-72.5 -30q-18 0 -29.5 10.5t-11.5 27.5q0 14 36.5 127.5t36.5 141.5q0 17 -9 28t-25 11q-33 0 -66.5 -40t-74.5 -107q-46 -77 -54 -108l-20 -82q-2 -11 -58 -11q-8 0 -8 8z" />
<glyph unicode="i" horiz-adv-x="270" d="M25 282q0 4 29.5 28.5t67 48.5t54.5 24q20 0 20 -22q0 -26 -32.5 -150t-32.5 -136q0 -20 13 -20q8 0 27 16t35 32t17 16q3 0 7.5 -5t4.5 -7q0 -12 -64.5 -62.5t-86.5 -50.5q-24 0 -24 18q0 24 35.5 145t35.5 153q0 18 -12 18q-11 0 -30.5 -15t-35 -29.5t-16.5 -14.5 q-4 0 -8 4.5t-4 8.5zM128 549q0 20 11 33t30 13q20 0 32 -15t12 -33q0 -20 -11.5 -33t-29.5 -13q-20 0 -32 15t-12 33z" />
<glyph unicode="j" horiz-adv-x="297" d="M-69 -221q0 15 10 25.5t25 10.5q18 0 38 -12.5t37 -12.5q10 0 17.5 7.5t14 26.5t9.5 31.5t9 42.5q19 93 43 242t24 170q0 18 -12 18q-11 0 -35 -22t-43.5 -44.5t-20.5 -22.5q-4 0 -8 3.5t-4 7.5t30 36t71.5 64.5t66.5 32.5q21 0 21 -24q0 -21 -12.5 -103t-27 -167 t-15.5 -92q-7 -45 -14 -73.5t-28.5 -72.5t-53.5 -68q-52 -38 -87 -38q-24 0 -39.5 11t-15.5 23zM157 579q0 20 11 33t30 13q20 0 32 -15t12 -33q0 -20 -11.5 -33t-29.5 -13q-20 0 -32 15t-12 33z" />
<glyph unicode="k" horiz-adv-x="450" d="M25 -3q0 8 21 107t48.5 249.5t38.5 269.5q0 9 -7 9q-8 0 -75 -19q-6 -1 -7.5 2t0.5 17q2 8 6 9l77.5 20l53.5 14t19 4q14 0 14 -11q0 -16 -97 -489q36 69 72 117q33 43 66.5 64t82.5 21q59 0 59 -37q0 -42 -32.5 -78t-67.5 -53t-65 -24q-21 -3 -21 -4l4 -2 q4 -2 10.5 -6.5t12.5 -9.5q47 -45 73 -77q16 -20 24 -28.5t22.5 -16.5t31.5 -8q34 0 34 27q0 4 -1 10.5t-1 9.5q0 12 8 12t14.5 -10.5t6.5 -32.5t-38.5 -38.5t-72.5 -16.5q-22 0 -43 20q-11 10 -23.5 25t-29 37.5t-24.5 32.5q-10 13 -23.5 28.5t-20 24t-6.5 9.5q0 5 17 22 q2 2 10 2q16 0 28 5q37 17 71 53.5t34 70.5q0 20 -31 20q-29 0 -63 -32q-9 -9 -18.5 -20t-20.5 -26.5l-18.5 -26.5l-21.5 -33t-21 -32q-17 -27 -24 -58q-15 -64 -21 -98q-3 -22 -10 -22q-1 0 -11 -1.5t-22 -3t-17 -1.5t-5 3z" />
<glyph unicode="l" horiz-adv-x="272" d="M55 28q0 6 18 106.5l42 243t35 234.5q2 10 -1 14t-13 1q-66 -18 -74 -18q-5 0 -3 20q1 8 2.5 9.5t7.5 3.5q39 9 75.5 18.5l53.5 14t19 4.5q10 0 10 -9q0 -12 -50 -305.5t-50 -296.5q0 -21 14 -21q12 0 36 21t43.5 42t20.5 21q3 0 9.5 -5.5t6.5 -7.5q0 -4 -28 -34.5 t-71.5 -62t-73.5 -31.5q-29 0 -29 38z" />
<glyph unicode="m" horiz-adv-x="739" d="M15 255q0 11 69 64.5t101 53.5q18 0 18 -19q0 -28 -5 -63.5t-16 -95.5t-14 -78q114 262 225 262q16 0 25 -14t9 -33q0 -82 -57 -251q2 4 20 37.5l29.5 53.5l32.5 55.5t39.5 57.5t41 46t45.5 36t45 12q51 0 51 -34q0 -28 -36.5 -141t-36.5 -131q0 -24 18 -24q12 0 53 41 l40 41q3 0 7.5 -5t4.5 -7q0 -4 -28.5 -33.5t-69 -59.5t-65.5 -30q-15 0 -25 8.5t-10 20.5q0 17 39 136.5t39 152.5q0 8 -5.5 15t-15.5 7q-39 0 -125 -133q-64 -98 -90 -188q-3 -10 -14 -12q-24 -3 -42 -3q-8 0 -8 7l29 110q29 110 29 179q0 37 -21 37q-18 0 -37 -25 q-63 -76 -108 -167q-17 -34 -41 -118q-5 -17 -11 -20q-36 -14 -49 -14q-7 0 -5 10q12 51 28.5 151.5t16.5 145.5q0 17 -14 17q-11 0 -33.5 -18.5t-41 -37.5t-19.5 -19q-12 0 -12 17z" />
<glyph unicode="n" horiz-adv-x="515" d="M15 287q0 2 29.5 26t72.5 48.5t70 24.5q21 0 21 -21t-6 -55t-12 -57l-19.5 -72.5t-16.5 -62.5q74 131 134.5 199.5t116.5 68.5q51 0 51 -44q0 -29 -38.5 -145t-38.5 -127q0 -20 19 -20q13 0 34.5 18.5t38 37t17.5 18.5q3 0 7.5 -4.5t4.5 -6.5q0 -5 -24 -31.5t-63.5 -53.5 t-72.5 -27q-15 0 -23.5 11.5t-8.5 29.5q0 28 40 135t40 138q0 12 -6 20.5t-16 8.5q-26 0 -79 -66.5t-100 -141.5q-22 -36 -44 -112q-7 -25 -15 -26q-40 -4 -48 -4q-7 0 -5 10q60 249 60 312q0 18 -13 18q-14 0 -54 -32l-39 -32q-3 0 -8.5 5t-5.5 12z" />
<glyph unicode="o" horiz-adv-x="419" d="M25 138q0 110 66 184.5t165 74.5q71 0 104.5 -50t33.5 -109q0 -94 -68 -170t-161 -76q-67 0 -103.5 42.5t-36.5 103.5zM87 146q0 -130 80 -130q46 0 85.5 47.5t59 107t19.5 107.5q0 36 -19 66t-67 30q-57 0 -107.5 -78.5t-50.5 -149.5z" />
<glyph unicode="p" horiz-adv-x="486" d="M10 225l11 18.5t29.5 40.5t44 51.5t51 41t55.5 18.5q17 0 17 -31q0 -21 -8 -79t-16 -106l-8 -48q43 107 100 194q37 57 99 57q44 0 60 -23.5t16 -67.5q0 -110 -74 -204t-151 -94q-11 0 -32 3.5t-24 3.5q-12 0 -13 -8l-32 -209q-5 -23 9 -24q16 -2 40 -4q14 -1 19.5 -1.5 t11 -2t7 -4t1.5 -6.5q0 -14 -4.5 -17.5t-15.5 -3.5q-1 0 -27 3.5t-67.5 7t-79.5 3.5q-17 0 -17 10q0 14 3.5 18t15.5 4h16q12 0 16 3.5t6 17.5q47 272 62.5 371t15.5 146q0 18 -12 18q-15 0 -41 -28t-46.5 -56t-21.5 -28q-4 0 -10 5.5t-6 9.5zM181 51q0 -32 64 -32 q33 0 69.5 42.5t60.5 103.5t24 113q0 64 -44 64q-15 0 -29.5 -9.5t-29 -30t-22.5 -34t-22 -41.5l-16 -32q-55 -105 -55 -144z" />
<glyph unicode="q" horiz-adv-x="455" d="M25 74q0 36 17.5 87t48 101t79.5 84.5t104 34.5q41 0 86 -20l14 -6q4 0 16 7q1 1 6.5 4t12 5.5t11.5 3.5q4 1 7 -2t3 -8q0 -3 -27 -61q-5 -13 -7 -25l-90 -515q0 -11 14 -11q33 0 52 -2q12 -1 12 -16v-7t-0.5 -5t-2.5 -4.5t-5 -1.5t-8 -1q-1 0 -13.5 1t-32.5 1.5t-39 0.5 q-14 0 -34.5 -1.5t-36 -3.5t-16.5 -2q-5 0 -7 0.5t-4 3t-2 8.5q1 13 4.5 16t16.5 5q2 0 6.5 1t6 1t4.5 0.5t3.5 1.5t2.5 1.5t2.5 2t2 3t2 4l1 5t1.5 6.5q3 14 16.5 72.5t29.5 141.5l47 252q-31 -69 -82 -139q-75 -105 -138 -105q-9 0 -20.5 2.5t-27 10t-26 25t-10.5 43.5z M89 99q0 -27 14 -43t33 -16q41 0 142 146q64 98 64 132q0 12 -19 27.5t-49 15.5q-61 0 -123 -99t-62 -163z" />
<glyph unicode="r" horiz-adv-x="341" d="M25 291q0 11 50.5 53t79.5 42q18 0 18 -20q0 -17 -27 -176l4 -1q47 121 62 149q29 55 72 55q18 0 32.5 -10t14.5 -26q0 -37 -22 -37q-11 0 -28 9t-27 9q-14 0 -25 -17q-23 -35 -57 -125q-2 -6 -11 -38q-9 -36 -19.5 -86.5l-13.5 -64.5q-1 -4 -21.5 -7.5t-30.5 -3.5t-10 4 q0 2 12 63.5t24 133t12 96.5q0 38 -13 38q-11 0 -27 -12.5t-27.5 -25.5t-12.5 -13q-9 0 -9 11z" />
<glyph unicode="s" horiz-adv-x="336" d="M20 61q0 11 8.5 18t15.5 7q5 0 8.5 -0.5t7.5 -2t6 -2.5t5.5 -4t5 -4t5.5 -5.5t5 -5.5l13 -13.5l11.5 -12t9.5 -8t12 -6t13 -1.5q30 0 50.5 20t20.5 53q0 20 -22.5 44t-49.5 42.5t-49.5 46.5t-22.5 56q0 47 39 81.5t92 34.5q31 0 52 -8t30 -20t12 -21t3 -15q0 -17 -18 -17 q-29 0 -48 35q-15 27 -32 27q-27 0 -48 -15t-21 -48q0 -26 15 -47.5t36 -37l42.5 -31.5t36.5 -40t15 -54q0 -45 -39 -78.5t-92 -33.5q-46 0 -87 21.5t-41 44.5z" />
<glyph unicode="t" horiz-adv-x="284" d="M35 346q0 1 0.5 9t0.5 10q0 7 8 7h61q9 0 11 8q10 55 16 101q2 10 4.5 13t13.5 4q5 1 21 1q28 0 28 -5q0 -1 -5.5 -25l-11.5 -51.5t-7 -35.5q-1 -7 0.5 -8.5t9.5 -1.5h73q9 0 9 -8q0 -22 -13 -22h-73h-7t-3.5 -1.5t-1.5 -2.5t-1 -6q-41 -220 -41 -247q0 -21 19 -21 q11 0 37 22.5t48.5 45t23.5 22.5q2 0 8 -4.5t6 -6.5q0 -4 -31.5 -39t-76.5 -70.5t-72 -35.5q-35 0 -35 34q0 10 26.5 153.5t26.5 145.5v4q1 5 -0.5 6t-8.5 1h-47q-16 0 -16 4z" />
<glyph unicode="u" horiz-adv-x="521" d="M15 256q0 2 12 19t32 41.5t38 43.5q31 31 71 31q22 0 38.5 -9t16.5 -27q0 -13 -32 -132.5t-32 -145.5q0 -23 28 -23q33 0 88 78q72 104 101 199q6 24 12 55q1 4 27 7q15 2 26 3q9 0 9 -9q0 -5 -27.5 -145.5t-27.5 -152.5q0 -25 19 -25q11 0 31 22.5t36 45t17 22.5 q8 0 8 -7q0 -6 -22 -40.5t-57 -70.5t-62 -36q-14 0 -23.5 7.5t-9.5 19.5q0 22 22.5 122.5t26.5 130.5q-1 -3 -10 -22t-26 -50t-33 -55q-104 -158 -173 -158q-55 0 -55 42q0 11 30.5 125.5t30.5 152.5q0 29 -20 29q-11 0 -34 -24.5t-41.5 -49t-20.5 -24.5q-4 0 -9 3t-5 7z " />
<glyph unicode="v" horiz-adv-x="443" d="M10 299q0 11 45 52t69 41q25 0 42 -10q24 -14 31.5 -21.5t7.5 -23.5q0 -38 -12.5 -130t-12.5 -107q0 -12 14 -24t20 -12q14 0 23 11q2 2 31 41q31 42 47.5 66.5t35.5 68.5t19 80q0 40 -25 40q-11 0 -25 -2.5t-23.5 -4.5t-10.5 -2q-6 0 -6 16q0 5 38.5 14t59.5 9 q19 0 29.5 -8t10.5 -32q0 -44 -27 -101t-52.5 -92.5t-77.5 -101.5q-9 -12 -14 -18q-11 -15 -23 -34t-24 -19q-15 0 -41 21q-23 18 -31 33t-8 48q0 17 10 102.5t10 119.5q0 16 -10 23q-14 8 -24 8q-15 0 -33.5 -16t-31.5 -32t-14 -16q-5 0 -11 5t-6 8z" />
<glyph unicode="w" horiz-adv-x="681" d="M10 302q0 10 50 47t74 37q15 0 45 -18q31 -21 31 -46q0 -30 -6 -85t-12.5 -98t-6.5 -44q0 -13 12.5 -27t21.5 -14q10 0 22 18l47 68t50 71q13 16 23.5 47t10.5 45q0 12 -20 32q-4 4 -8.5 8t-8 6t-6 4t-3.5 3.5t-1 2.5q0 9 14 22.5t24 13.5q16 0 43.5 -23.5t27.5 -37.5 q0 -15 -15 -117t-15 -122q0 -16 13 -29.5t25 -13.5q9 0 30 25q57 66 88 111q44 65 45 141q0 33 -21 33q-11 0 -30 -3t-33.5 -6t-15.5 -3q-6 0 -6 17q0 4 53.5 15.5t63.5 11.5q20 0 30 -7.5t10 -31.5q0 -57 -48.5 -140t-116.5 -151l-48 -50q-10 -10 -16 -10q-35 0 -58.5 23 t-23.5 54q0 4 29 153q-83 -129 -125 -183q-3 -5 -13 -19l-13 -18q-11 -15 -21 -15q-14 0 -41 22q-22 17 -28.5 28.5t-6.5 36.5q0 13 11 84.5t11 127.5q0 13 -15.5 29.5t-28.5 16.5q-15 0 -34 -14t-32 -28.5t-14 -14.5q-5 0 -9.5 5.5t-4.5 9.5z" />
<glyph unicode="x" horiz-adv-x="458" d="M15 23q0 33 26 91q3 5 8 5q3 0 8.5 -2.5t5.5 -5.5q0 -1 -2.5 -8.5t-5 -18t-2.5 -19.5q0 -22 21 -22t64 46.5t75 89.5q6 9 2 21q-53 148 -100 148q-19 0 -46.5 -28.5t-28.5 -28.5q-4 0 -7.5 4.5t-3.5 8.5t15.5 23.5t45 40t58.5 20.5t49 -17t28.5 -34t27.5 -69q5 -13 8 -20 q2 -6 4 -7.5t3.5 0.5t4.5 7q1 1 1 2l17.5 28.5t21.5 34t22 30t26 28.5t26 17t29 8q12 0 18.5 -11.5t6.5 -28.5l-8 -56q0 -2 -4.5 -2.5t-8.5 0.5t-4 2q0 6 0.5 16.5t0.5 15.5q0 25 -17 25q-32 0 -121 -133q-6 -8 -2 -20q52 -152 88 -152q12 0 26.5 16.5t24 33t10.5 16.5 q4 0 10.5 -2.5t6.5 -5.5q0 -19 -39.5 -66t-72.5 -47q-11 0 -20.5 3.5t-17.5 13.5l-14 18t-13 26.5l-11 28.5t-12 34.5t-12 35.5q-3 9 -8 2q-2 -2 -3 -4l-33.5 -43l-43.5 -54.5t-45 -41t-49 -19.5q-34 0 -34 26z" />
<glyph unicode="y" horiz-adv-x="422" d="M-13 -262q0 11 4 19t13 13.5t16.5 8t21 6.5t19.5 6q33 12 54 49q37 69 48 105.5t11 71.5q0 320 -69 320q-18 0 -37 -15.5t-31 -30.5t-13 -15t-4.5 1t-6.5 3.5t-3 5.5q0 4 16.5 26.5t47.5 46t61 23.5q56 0 75 -86q12 -52 20 -241q1 -6 1 -12l35 64.5t48 94t29 74.5t17 101 q1 17 11 17q12 0 24 -7t12 -18q0 -5 -2 -17q-12 -76 -148 -311l-29 -49l-10 -19q-82 -157 -101 -190q-11 -20 -39 -37q-58 -35 -74 -35q-8 0 -12.5 9t-4.5 18z" />
<glyph unicode="z" horiz-adv-x="414" d="M25 2q0 8 4.5 16t15 18.5l11.5 11.5l238 265q5 6 2.5 7t-7.5 -1q-2 0 -3 -0.5t-3 -0.5h-3q-23 0 -75.5 16t-67.5 16q-16 0 -31.5 -12t-25 -24t-10.5 -12q-4 0 -8.5 3t-4.5 5q0 4 13.5 24t38.5 41t49 21q23 0 84 -22t82 -22q8 0 23 18.5t27 18.5q6 0 10.5 -5t4.5 -11 q0 -11 -11 -20.5t-27 -17.5t-21 -14l-220 -244q-4 -5 -5 -6.5t2 -3.5t13 -2q42 -2 120 -8t97 -6q9 0 12 4t3 14v13q-1 14 -1 15q0 6 11 6q9 0 9 -5q1 -14 3 -35.5t3.5 -35t1.5 -15.5q0 -14 -36 -14h-7q-23 0 -125.5 8t-145.5 8q-4 0 -13 -12t-16 -12q-11 0 -11 12z" />
<glyph unicode="{" horiz-adv-x="307" d="M40 274q0 6 5.5 9t14.5 4t18.5 7.5t18.5 18t14.5 38t5.5 65.5v80q0 36 0.5 53.5t3 42.5t8 36.5t15 26t24.5 20t36.5 10t50.5 4.5q8 0 10 -2t2 -11t-2.5 -11t-11.5 -2q-43 0 -63.5 -19t-20.5 -73v-149q0 -72 -9.5 -100t-48.5 -41q-15 -6 -15 -7t15 -7q39 -13 48.5 -41 t9.5 -100v-149q0 -54 20.5 -73t63.5 -19q6 0 8.5 -0.5t4 -3.5t1.5 -9q0 -9 -2 -11t-10 -2q-29 0 -50.5 4.5t-36.5 10t-24.5 20t-15 26t-8 36.5t-3 42.5t-0.5 53.5v80q0 39 -5.5 65.5t-14.5 38t-18.5 18t-18.5 7.5t-14.5 4t-5.5 9z" />
<glyph unicode="|" horiz-adv-x="247" d="M100 -187v933q0 10 4 13t14 3h7q15 0 18.5 -2.5t3.5 -14.5v-932q0 -9 -0.5 -12.5t-3 -6.5t-8.5 -3h-21q-10 0 -12 3t-2 19z" />
<glyph unicode="}" horiz-adv-x="307" d="M40 -128q0 9 3 11t11 2q43 0 63.5 19t20.5 73v149q0 72 9.5 100t48.5 41q15 6 15 7t-15 7q-39 13 -48.5 41t-9.5 100v149q0 54 -20.5 73t-63.5 19q-6 0 -8.5 0.5t-4 3.5t-1.5 9q0 9 2 11t10 2q29 0 50.5 -4.5t36.5 -10t24.5 -20t15 -26t8 -36.5t3 -42.5t0.5 -53.5v-80 q0 -39 5.5 -65.5t14.5 -38t18.5 -18t18.5 -7.5t14.5 -4t5.5 -9t-5.5 -9t-14.5 -4t-18.5 -7.5t-18.5 -18t-14.5 -38t-5.5 -65.5v-80q0 -36 -0.5 -53.5t-3 -42.5t-8 -36.5t-15 -26t-24.5 -20t-36.5 -10t-50.5 -4.5q-8 0 -10 2t-2 11z" />
<glyph unicode="~" horiz-adv-x="793" d="M45 117q0 5 4 17q6 23 17 46t31.5 51.5t54.5 46.5t76 18q48 0 101.5 -22.5t93 -49.5t88 -49.5t86.5 -22.5q26 0 48.5 16t37 41.5t22 43t12.5 34.5q2 8 4.5 8.5t10.5 -1.5q11 -3 11 -7q0 -3 -1 -6q-7 -28 -19.5 -54.5t-33 -54.5t-54 -45t-73.5 -17q-50 0 -104.5 21.5 t-95 47.5t-89.5 47.5t-89 21.5q-27 0 -48 -14t-34 -36.5t-19.5 -40t-10.5 -35.5q-4 -14 -7 -14q-2 0 -10 2q-10 2 -10 7z" />
<glyph unicode="&#xa1;" horiz-adv-x="220" d="M5 9q0 2 2 12q33 148 86 477q1 5 12 5q13 0 13 -4q0 -23 -20 -183q-27 -211 -34 -302q-1 -22 -29 -22h-5q-25 0 -25 17zM65 606q0 23 14.5 37t25.5 14q19 0 34.5 -16.5t15.5 -29.5q0 -19 -15.5 -35.5t-30.5 -16.5q-14 0 -29 16t-15 31z" />
<glyph unicode="&#xa2;" horiz-adv-x="407" d="M42 153q0 104 57.5 169t131.5 75q4 0 6 0.5t3 3t1.5 4t1.5 6.5q2 15 5 32.5t4.5 28t2.5 15.5q0 6 2 6q19 0 19 -3l-14 -79v-6q-1 -5 6 -6q2 -1 4 -1q40 -7 68.5 -32.5t28.5 -57.5q0 -16 -11 -25q-17 -13 -29 -13q-13 0 -15 11q-2 7 -5 22.5t-5.5 23.5t-7 18t-12 16 t-18.5 9q-2 1 -4 1q-5 0 -8 -11l-51 -312q-1 -10 4 -11q12 -3 27 -3q28 0 55 7.5t43 15t17 7.5q7 0 6 -8q-1 -5 -18.5 -20t-55.5 -30.5t-79 -15.5h-4q-6 0 -8 -8q-18 -112 -20 -112q-16 0 -16 2q0 1 2 14.5t7 41.5t9 54q1 10 -6 11q-2 1 -4 1q-57 11 -88.5 53t-31.5 106z M104 182q0 -96 69 -134q6 -3 7 -3q2 0 3 7l51 308v6q0 5 -2 5q-4 0 -8 -1q-52 -12 -86 -67.5t-34 -120.5z" />
<glyph unicode="&#xa3;" horiz-adv-x="489" d="M20 -16q0 5 1.5 8.5t4.5 6.5l5.5 5.5t8 4.5t8 3.5t9.5 2.5t8.5 1.5t8.5 1.5l7 1q24 4 38 93q12 82 13 120q0 12 -2 14t-13 2h-66q-7 0 -6 13q1 7 2 9t6 2h71q12 0 12 5v4t1 20t4.5 51.5t8.5 69.5q10 73 41.5 130t83.5 83q38 18 80 18q46 0 77 -27t31 -80q0 -62 -25 -62 q-12 0 -18.5 11.5t-6.5 26.5q0 9 3.5 28t3.5 29q0 17 -22 33.5t-52 16.5q-87 0 -116 -110q-18 -69 -35 -237q-1 -9 0.5 -9.5t12.5 -0.5h107q5 0 6 -2t1 -10q0 -12 -11 -12h-107q-10 0 -11.5 -1t-2.5 -7q-1 -5 -2 -8q-19 -93 -61 -177q0 -1 -4.5 -10.5t-4.5 -10.5t1.5 -1t5 1 t5.5 1.5t6.5 2.5t5.5 2q21 9 54 9q29 0 100.5 -11.5t84.5 -11.5q57 0 57 37q0 6 -3 12.5t-6 10.5t-9.5 11t-7.5 9q-6 8 -5 11t11 7q4 2 16 2q14 0 22 -15t8 -33q0 -45 -37 -68.5t-85 -23.5q-32 0 -129.5 14t-102.5 14q-8 0 -33.5 -24t-40.5 -24q-16 0 -16 18z" />
<glyph unicode="&#xa4;" horiz-adv-x="494" d="M25 8q0 10 17 27l61 62q-35 48 -35 107q0 60 34 105l-60 62q-17 17 -17 27t7.5 17t16.5 7q12 0 28 -16l62 -62q46 35 105 35t106 -35l62 62q16 16 27 16q10 0 17.5 -7.5t7.5 -16.5q0 -10 -17 -27l-62 -63q37 -50 37 -106q0 -55 -37 -104l62 -63q17 -17 17 -27t-8 -17.5 t-17 -7.5q-10 0 -27 17l-62 62q-47 -36 -106 -36t-105 35l-62 -61q-16 -16 -28 -16q-10 0 -17 7.5t-7 16.5zM119 202q0 -53 37 -89.5t88 -36.5t88.5 37.5t37.5 89.5t-37.5 90.5t-88.5 38.5q-52 0 -88.5 -38.5t-36.5 -91.5z" />
<glyph unicode="&#xa5;" horiz-adv-x="613" d="M20 654q0 7 2 10.5t5 4t11 0.5q6 0 45 -1.5t56 -1.5q16 0 46.5 1.5t41.5 1.5q10 0 12 -2.5t2 -15.5q0 -9 -2.5 -10.5t-15.5 -1.5h-31q-10 0 -11 -2t3 -13q13 -44 103 -265q6 -12 8 -12q5 0 16 18l35 52l46 68l43 65t34.5 56.5t12.5 29.5v3h-53q-13 0 -15.5 1.5t-2.5 10.5 q0 13 2 15.5t12 2.5q11 0 36.5 -1.5t41.5 -1.5q17 0 42.5 1.5t31.5 1.5q11 0 13.5 -2t2.5 -13q0 -6 -0.5 -9t-3 -4.5t-5 -1.5h-7.5h-36q-3 0 -75 -98l-123 -172h133q3 0 3 -12t-3 -12h-149l-9 -13q-5 -9 -8 -22l-11 -63h157q3 0 3 -12t-3 -12h-161q-29 -172 -29 -183 q0 -13 5 -13h63q8 0 9.5 -2t1.5 -11q0 -11 -2 -14t-9 -3q-11 0 -50 1.5t-55 1.5t-49.5 -1.5t-44.5 -1.5q-9 0 -11.5 3t-2.5 13q0 9 3 11.5t15 2.5h42q6 0 26 120l13 76h-147q-2 0 -2.5 12t2.5 12h151l2 13q5 27 5 41q0 1 -18 44h-120q-2 0 -2.5 12t2.5 12h110l-118 270h-47 q-6 0 -8 0.5t-5 1.5t-4 4t-1 9z" />
<glyph unicode="&#xa6;" horiz-adv-x="247" d="M100 -187v376q0 14 11 14h25q11 0 11 -14v-376q0 -9 -0.5 -12.5t-3 -6.5t-8.5 -3h-21q-10 0 -12 3t-2 19zM100 379v367q0 10 4 13t14 3h7q15 0 18.5 -2.5t3.5 -14.5v-366q0 -12 -2.5 -15.5t-11.5 -3.5h-18q-10 0 -12.5 3t-2.5 16z" />
<glyph unicode="&#xa7;" horiz-adv-x="381" d="M40 310q0 67 69 118q7 5 -2 18q-44 68 -44 110q0 52 34 86.5t91 34.5q41 0 77.5 -11t36.5 -34q0 -27 -37 -27q-22 0 -54.5 15.5t-54.5 15.5q-58 0 -58 -42q0 -28 38 -84t83.5 -111.5t83.5 -130t38 -136.5q0 -43 -66 -94q-10 -9 -10 -12q0 -2 7 -14q42 -76 42 -114 q0 -56 -39 -90t-107 -34q-103 0 -103 44q0 10 8.5 16.5t19.5 6.5q7 0 43 -13q34 -12 72 -12q32 0 52 13t20 39q0 25 -37.5 80t-82.5 111t-82.5 127t-37.5 124zM78 357q0 -33 37 -102.5t69 -117t61 -85.5q7 -10 10 -10t14 10q33 31 33 50q0 21 -11 51t-25 56.5t-37.5 63 t-37.5 56l-36.5 50.5t-23.5 32t-3 4t-2.5 3.5t-2.5 0.5t-4 -1.5l-6 -4.5q-35 -27 -35 -56z" />
<glyph unicode="&#xa8;" horiz-adv-x="400" d="M89 535q0 20 11 33t30 13q20 0 32 -15t12 -33q0 -20 -11.5 -33t-29.5 -13q-20 0 -32 15t-12 33zM229 535q0 20 11 33t30 13q20 0 32 -15t12 -33q0 -20 -11.5 -33t-29.5 -13q-20 0 -32 15t-12 33z" />
<glyph unicode="&#xa9;" horiz-adv-x="843" d="M54 189q0 156 105.5 264t260.5 108t260.5 -107.5t105.5 -264.5q0 -156 -105.5 -264t-260.5 -108t-260.5 108t-105.5 264zM88 189q0 -142 96 -241t236 -99t236 99t96 241t-96 241t-236 99t-236 -99t-96 -241zM196 201q0 99 65 159.5t164 60.5q14 0 27 -1.5t23.5 -4 t21 -6.5t18 -7.5t15.5 -8t11.5 -7.5t9 -7t6.5 -4q10 -2 11 2v17q0 9 15 9q8 0 10 -1.5t2 -7.5q0 -3 -1 -53.5t-1 -69.5q0 -10 -10 -10q-18 0 -18 7q0 1 1.5 27t1.5 29q0 6 -18 23.5t-55 35.5t-75 18q-69 0 -114 -57.5t-45 -144.5q0 -81 52 -138.5t126 -57.5q27 0 51 5 t39.5 12.5t26.5 15t17 12.5t7 5t6.5 -9t5.5 -10q0 -5 -18 -18.5t-60 -28t-93 -14.5q-95 0 -160 59t-65 169z" />
<glyph unicode="&#xaa;" horiz-adv-x="379" d="M30 399q0 38 12.5 83.5t35 88.5t60.5 71.5t83 28.5q28 0 45 -25q3 -4 6.5 -10t6 -9.5t3.5 -3.5q2 2 7 17.5t5 18.5q4 10 34 10q14 0 14 -6q0 -3 -33.5 -121.5t-33.5 -139.5q0 -16 11 -16q7 0 29.5 23.5t23.5 23.5q3 0 6.5 -4t3.5 -9q0 -3 -18.5 -22t-45 -38.5 t-42.5 -19.5q-23 0 -23 21q0 26 44 167q-46 -80 -100 -135q-40 -40 -59 -48q-10 -4 -22 -4q-26 0 -39.5 16.5t-13.5 41.5zM85 430q0 -44 23 -44q21 0 68 52t81 107q12 18 12 44q0 21 -23 34t-45 13q-39 0 -77.5 -75t-38.5 -131z" />
<glyph unicode="&#xab;" horiz-adv-x="408" d="M50 193q0 4 55 55l36 34.5l31 30.5l12 11q2 0 8 -5.5t6 -6.5q0 -4 -31 -58t-31 -61t31 -61t31 -58q0 -1 -6 -6.5t-8 -5.5l-12 11l-31 30.5l-36 34.5q-55 51 -55 55zM200 193q0 4 55 55l36 34.5l31 30.5l12 11q2 0 8 -5.5t6 -6.5q0 -4 -31 -58t-31 -61t31 -61t31 -58 q0 -1 -6 -6.5t-8 -5.5l-12 11l-31 30.5l-36 34.5q-55 51 -55 55z" />
<glyph unicode="&#xac;" horiz-adv-x="527" d="M31 215q0 17 19 17h427q13 0 16.5 -3t3.5 -16v-158q0 -15 -16 -15q-12 0 -16.5 0.5t-8.5 5t-4 14.5v111q0 17 -26 17h-376q-13 0 -16 5.5t-3 21.5z" />
<glyph unicode="&#xad;" horiz-adv-x="268" d="M30 201q0 12 6 25.5t12 14.5t91.5 4t91.5 3q2 0 2 -9q0 -33 -8 -33q-104 -8 -191 -8q-4 0 -4 3z" />
<glyph unicode="&#xae;" horiz-adv-x="536" d="M25 470q0 104 70 175.5t173 71.5t173 -71.5t70 -175.5t-70 -175.5t-173 -71.5t-173 71.5t-70 175.5zM50 470q0 -94 63 -159t155 -65t155 65t63 159t-63 159t-155 65t-155 -65t-63 -159zM142 628q0 9 11 9q3 0 23.5 -0.5t27.5 -0.5t34.5 1.5t32.5 1.5q101 0 101 -80 q0 -49 -64 -78q77 -23 80 -107q1 -28 4 -28h20q8 0 8 -12q0 -6 -10 -6l-60 1q-7 0 -7 7v27q0 31 -3 50t-18 36.5t-43 20.5q-15 2 -52 2q-5 0 -5 -3q0 -99 4 -123h27q7 0 7 -7q0 -11 -7 -11q-5 0 -24 0.5t-26 0.5t-25 -0.5t-19 -0.5q-9 0 -9 11q0 7 11 7h19q2 16 2 58v60 q0 141 -5 155l-24 -1q-11 0 -11 10zM222 489q0 -2 5 -2q12 0 33.5 -0.5t29.5 -0.5q39 19 39 67q0 32 -24.5 51t-57.5 19q-4 0 -11.5 -0.5t-11.5 -0.5q-2 -8 -2 -23v-110z" />
<glyph unicode="&#xaf;" horiz-adv-x="400" d="M100 518l2 21q1 6 2 7t7 1h181q6 0 7 -1t1 -6l-2 -23q-5 -8 -8 -8h-181q-7 0 -8.5 1t-0.5 8z" />
<glyph unicode="&#xb0;" horiz-adv-x="256" d="M40 535q0 36 26 62t62 26t62 -26t26 -62t-26 -62t-62 -26t-62 26t-26 62zM71 535q0 -24 16.5 -40.5t40.5 -16.5t40.5 16.5t16.5 40.5t-16.5 40.5t-40.5 16.5t-40.5 -16.5t-16.5 -40.5z" />
<glyph unicode="&#xb1;" horiz-adv-x="527" d="M31 90q0 11 0.5 15.5t4.5 8t13 3.5h429q11 0 14.5 -4t3.5 -16q0 -13 -3.5 -18.5t-17.5 -5.5h-427q-9 0 -13 3t-4 14zM31 324q0 22 18 22h181q11 0 11 10v9v130q0 15 16 15q18 0 23 -3t5 -14v-128v-8q0 -11 12 -11h183q16 0 16 -15q0 -12 -1 -17t-5.5 -9t-14.5 -4h-178 q-12 0 -12 -17v-132q0 -14 -16 -14q-17 0 -22.5 2.5t-5.5 11.5v132q0 10 -2.5 13.5t-13.5 3.5h-177q-12 0 -14.5 5t-2.5 18z" />
<glyph unicode="&#xb2;" d="M41 357q0 6 27 43t31 40q154 139 154 206q0 30 -19 50.5t-55 20.5q-31 0 -56.5 -16.5t-38.5 -32.5t-14 -16q-3 0 -9 4.5t-6 8.5q0 7 19 29t54.5 44t70.5 22q49 0 79 -30.5t30 -77.5q0 -52 -51 -108q-21 -23 -45.5 -43.5t-49.5 -39l-29 -21.5l-38 -43h182l6 17l11 29.5 t7 13.5q18 0 18 -5q0 -2 -5.5 -19.5l-13.5 -41t-11 -36.5q-1 -5 -9 -5h-228q-11 0 -11 7z" />
<glyph unicode="&#xb3;" d="M49 377q0 6 10.5 12t19.5 6q15 0 35 -15.5t35 -15.5q39 0 63.5 26.5t24.5 67.5q0 76 -86 76q-5 0 -17.5 -1t-17.5 -1q-7 0 -7 13q0 15 4 15q36 4 53 11q70 27 70 94q0 30 -16.5 47.5t-41.5 17.5q-20 0 -38 -8.5t-29 -17t-12 -8.5q-3 0 -8 4t-4 8q1 5 14 17t38 23.5 t49 11.5q48 0 75.5 -26.5t27.5 -61.5q0 -19 -8 -35.5t-18.5 -27.5t-26 -21t-26 -14.5l-22.5 -9.5l-13 -5l13 -3q13 -3 23.5 -6t26 -10.5t26 -17t18.5 -25.5t8 -35q0 -57 -46 -89t-105 -32q-25 0 -58.5 13t-33.5 23z" />
<glyph unicode="&#xb4;" horiz-adv-x="400" d="M172 451l3 6l61 123q13 24 32 24q31 0 31 -21q0 -15 -9 -25l-91 -103q-5 -6 -8 -6h-15q-4 0 -4 2z" />
<glyph unicode="&#xb5;" horiz-adv-x="509" d="M25 -136q0 41 8.5 85t26 106t25.5 100q23 101 36 150.5t18 60t11 10.5q39 0 39 -17q0 -7 -9.5 -40.5t-22.5 -87.5t-19 -103q-3 -36 -3 -43q0 -47 29 -47q32 0 74 53.5t73 114t56 123.5q19 48 23 48q13 0 26.5 -4.5t13.5 -10.5q0 -2 -25 -133.5t-25 -158.5 q0 -11 7.5 -18.5t17.5 -7.5q16 0 28 17t20 33.5t13 16.5q8 0 8 -13q0 -32 -37 -73.5t-83 -41.5q-34 0 -34 64q0 24 8 79.5t8 57.5q0 8 -4 8l-8 -12q-7 -13 -21.5 -36l-27.5 -42q-1 -1 -13 -19.5t-16 -23.5l-16 -20.5t-20.5 -22l-21 -15.5t-25.5 -12.5t-27 -3.5 q-17 0 -28.5 17.5t-16 34.5t-5.5 17q-4 0 -12.5 -54t-8.5 -79q0 -19 12 -47.5t12 -29.5q0 -3 -2 -9t-9.5 -12t-18.5 -6q-14 0 -24 12t-10 35z" />
<glyph unicode="&#xb6;" horiz-adv-x="492" d="M40 417q0 48 16 87.5t41 64.5t56.5 42.5t61.5 25t58 7.5q8 0 10 -3t2 -11v-468q0 -8 -5 -8q-23 0 -52 8t-62.5 28.5t-61 49t-46 75t-18.5 102.5zM280 -205q0 8 10 8h58q7 0 9 1.5t2 6.5v831q0 8 2.5 10t8.5 2h70q8 0 10 -2t2 -9v-14q0 -6 -2 -7.5t-10 -1.5h-46 q-5 0 -6.5 -1.5t-1.5 -8.5v-832q0 -6 -2 -7.5t-12 -1.5h-82q-10 0 -10 8v18z" />
<glyph unicode="&#xb7;" horiz-adv-x="125" d="M25 340q0 20 11 33t30 13q20 0 32 -15t12 -33q0 -20 -11.5 -33t-29.5 -13q-20 0 -32 15t-12 33z" />
<glyph unicode="&#xb8;" horiz-adv-x="400" d="M109 -190q0 10 8 10l8 -4q8 -3 21 -6.5t27 -3.5q69 0 69 49q0 18 -11 31.5t-36 13.5q-8 0 -16 -1.5t-13.5 -3t-6.5 -1.5q-7 0 -7 4q0 1 11.5 21l25.5 45.5t19 35.5h19q-37 -66 -37 -67q0 -2 5 -2q8 2 24 2q35 0 56 -19t21 -45q0 -37 -32 -61.5t-80 -24.5q-22 0 -40.5 6 t-26.5 12t-8 9z" />
<glyph unicode="&#xb9;" d="M78 360q0 15 13 15h56q7 45 26 190.5t19 160.5q-5 -1 -32 -6t-28 -5q-7 0 -7 9v8q0 8 8 9q12 1 41 6l53 9t26 4q7 0 7 -8q0 -3 -3.5 -24l-9.5 -57.5t-9 -58.5l-35 -237h58q8 0 8 -16q0 -8 -1 -9.5t-7 -1.5q-4 0 -37.5 1t-44.5 1t-47.5 -1t-43.5 -1t-8.5 2t-1.5 10z" />
<glyph unicode="&#xba;" horiz-adv-x="377" d="M30 464q0 92 54.5 153.5t137.5 61.5q59 0 87 -42t28 -90q0 -78 -56.5 -141.5t-133.5 -63.5q-56 0 -86.5 35.5t-30.5 86.5zM83 471q0 -107 65 -107q37 0 69.5 39t49 88t16.5 89q0 29 -15.5 53.5t-54.5 24.5q-47 0 -88.5 -64.5t-41.5 -122.5z" />
<glyph unicode="&#xbb;" horiz-adv-x="408" d="M60 74q0 4 31 58t31 61t-31 61t-31 58q0 1 6 6.5t8 5.5l12 -11l31 -30.5l36 -34.5q55 -51 55 -55t-55 -55l-36 -34.5l-31 -30.5l-12 -11q-2 0 -8 5.5t-6 6.5zM210 74q0 4 31 58t31 61t-31 61t-31 58q0 1 6 6.5t8 5.5l12 -11l31 -30.5l36 -34.5q55 -51 55 -55t-55 -55 l-36 -34.5l-31 -30.5l-12 -11q-2 0 -8 5.5t-6 6.5z" />
<glyph unicode="&#xbc;" horiz-adv-x="794" d="M458 141q0 15 17 38q18 25 78.5 88.5t82.5 90.5q6 7 15 13t11 8q35 35 40 35q7 0 7 -14l-30 -216q-1 -8 0.5 -9.5t8.5 -1.5h37q6 0 6 -8v-23q0 -5 -1.5 -6t-7.5 -1h-46q-3 0 -4 -0.5t-2.5 -2.5t-1.5 -6q-18 -120 -18 -126q0 -3 -1.5 -4.5t-4.5 -1.5l-2 -1q-16 -4 -41 -4 q-6 0 -4 10l23 126q1 7 -0.5 8.5t-9.5 1.5h-139q-13 0 -13 6zM498 175q0 -2 14 -2h108q6 0 7.5 1.5t3.5 11.5q21 126 21 158q-21 -16 -143 -155q-11 -11 -11 -14zM210 -8q0 1 4 9l408 657q7 10 23 10q17 0 17 -6q0 -2 -1 -4l-410 -659q-3 -5 -4 -6t-3.5 -3t-6 -2.5 t-9.5 -0.5q-18 0 -18 5zM78 260q0 15 13 15h56q7 45 26 190.5t19 160.5q-5 -1 -32 -6t-28 -5q-7 0 -7 9v8q0 8 8 9q12 1 41 6l53 9t26 4q7 0 7 -8q0 -3 -3.5 -24l-9.5 -57.5t-9 -58.5l-35 -237h58q8 0 8 -16q0 -8 -1 -9.5t-7 -1.5q-4 0 -37.5 1t-44.5 1t-47.5 -1t-43.5 -1 t-8.5 2t-1.5 10z" />
<glyph unicode="&#xbd;" horiz-adv-x="844" d="M525 7q0 6 27 43t31 40q154 139 154 206q0 30 -19 50.5t-55 20.5q-31 0 -56.5 -16.5t-38.5 -32.5t-14 -16q-3 0 -9 4.5t-6 8.5q0 7 19 29t54.5 44t70.5 22q49 0 79 -30.5t30 -77.5q0 -52 -51 -108q-21 -23 -45.5 -43.5t-49.5 -39l-29 -21.5l-38 -43h182q0 1 2.5 8 l5.5 15.5t6.5 17t6 14t3.5 5.5q18 0 18 -5q0 -2 -5.5 -19.5l-13.5 -41t-11 -36.5q-1 -5 -9 -5h-228q-11 0 -11 7zM210 -8q0 1 4 9l408 657q7 10 23 10q17 0 17 -6q0 -2 -1 -4l-410 -659q-3 -5 -4 -6t-3.5 -3t-6 -2.5t-9.5 -0.5q-18 0 -18 5zM78 260q0 15 13 15h56 q7 45 26 190.5t19 160.5q-5 -1 -32 -6t-28 -5q-7 0 -7 9v8q0 8 8 9q12 1 41 6l53 9t26 4q7 0 7 -8q0 -3 -3.5 -24l-9.5 -57.5t-9 -58.5l-35 -237h58q8 0 8 -16q0 -8 -1 -9.5t-7 -1.5q-4 0 -37.5 1t-44.5 1t-47.5 -1t-43.5 -1t-8.5 2t-1.5 10z" />
<glyph unicode="&#xbe;" horiz-adv-x="794" d="M458 141q0 15 17 38q18 25 78.5 88.5t82.5 90.5q6 7 15 13t11 8q35 35 40 35q7 0 7 -14l-30 -216q-1 -8 0.5 -9.5t8.5 -1.5h37q6 0 6 -8v-23q0 -5 -1.5 -6t-7.5 -1h-46q-3 0 -4 -0.5t-2.5 -2.5t-1.5 -6q-18 -120 -18 -126q0 -3 -1.5 -4.5t-4.5 -1.5l-2 -1q-16 -4 -41 -4 q-6 0 -4 10l23 126q1 7 -0.5 8.5t-9.5 1.5h-139q-13 0 -13 6zM498 175q0 -2 14 -2h108q6 0 7.5 1.5t3.5 11.5q21 126 21 158q-21 -16 -143 -155q-11 -11 -11 -14zM210 -8q0 1 4 9l408 657q7 10 23 10q17 0 17 -6q0 -2 -1 -4l-410 -659q-3 -5 -4 -6t-3.5 -3t-6 -2.5 t-9.5 -0.5q-18 0 -18 5zM49 277q0 6 10.5 12t19.5 6q15 0 35 -15.5t35 -15.5q39 0 63.5 26.5t24.5 67.5q0 76 -86 76q-5 0 -17.5 -1t-17.5 -1q-7 0 -7 13q0 15 4 15q36 4 53 11q70 27 70 94q0 30 -16.5 47.5t-41.5 17.5q-20 0 -38 -8.5t-29 -17t-12 -8.5q-3 0 -8 4t-4 8 q1 5 14 17t38 23.5t49 11.5q48 0 75.5 -26.5t27.5 -61.5q0 -19 -8 -35.5t-18.5 -27.5t-26 -21t-26 -14.5l-22.5 -9.5l-13 -5l13 -3q13 -3 23.5 -6t26 -10.5t26 -17t18.5 -25.5t8 -35q0 -57 -46 -89t-105 -32q-25 0 -58.5 13t-33.5 23z" />
<glyph unicode="&#xbf;" horiz-adv-x="374" d="M35 148q0 31 7.5 53.5t13.5 30.5t28 32q16 18 105 107q1 1 17.5 16.5t24 24t16.5 22t9 23.5q0 11 -7 23.5t-14 20.5t-7 9q0 2 5 7.5t9 5.5q3 0 14.5 -11t22.5 -31t11 -38q0 -44 -65 -109l-42.5 -41l-45.5 -44t-37 -39.5t-29.5 -41t-9.5 -34.5q0 -21 11 -41.5t26 -29.5 q22 -14 89 -14q13 0 45 1.5t35 1.5t5 -1t3 -3.5l2 -5t1 -6.5t0.5 -7t0.5 -8v-8q1 -9 -3 -11.5t-15 -4.5q-30 -5 -64 -5q-60 0 -90 19q-33 21 -52.5 59.5t-19.5 77.5zM204 606q0 23 14.5 37t25.5 14q19 0 34.5 -16.5t15.5 -29.5q0 -19 -15.5 -35.5t-30.5 -16.5q-14 0 -29 16 t-15 31z" />
<glyph unicode="&#xc0;" horiz-adv-x="688" d="M402 818q0 29 29 29q17 0 30 -25l40 -85q1 -2 1 -5t-4 -3h-18q-1 0 -7 6l-61 60q-10 10 -10 23zM20 15q0 9 3 10.5t15 1.5h33q3 0 72 118l155.5 266t121.5 199q4 5 22.5 24.5t28.5 38.5q7 14 15 14q3 0 5 -1l3 -1.5t2 -3t1 -3.5t1 -5t1 -5q104 -641 116 -641h42 q8 0 9.5 -2t1.5 -11q0 -11 -2 -14t-9 -3q-6 0 -39.5 1.5t-50.5 1.5q-16 0 -58 -1.5t-53 -1.5q-10 0 -12 2.5t-2 15.5q0 9 3 10.5t15 1.5h57q2 0 2 11q0 24 -13.5 121t-14.5 103q-1 14 -4 16.5t-14 2.5h-189q-15 0 -23 -15q-121 -227 -121 -238l1 -1h68q8 0 9.5 -2t1.5 -11 q0 -11 -2 -14t-9 -3q-11 0 -48.5 1.5t-53.5 1.5t-39 -1.5t-34 -1.5q-10 0 -12 2.5t-2 15.5zM284 311q0 -6 18 -6h167q13 0 13 5q0 7 -11 74l-22 131t-12 64q-3 0 -13 -19l-133 -234q-7 -12 -7 -15z" />
<glyph unicode="&#xc1;" horiz-adv-x="688" d="M482 731l3 6l66 85q20 25 38 25q26 0 26 -21q0 -18 -18 -31l-83 -60q-8 -6 -9 -6h-19q-4 0 -4 2zM20 15q0 9 3 10.5t15 1.5h33q3 0 72 118l155.5 266t121.5 199q4 5 22.5 24.5t28.5 38.5q7 14 15 14q3 0 5 -1l3 -1.5t2 -3t1 -3.5t1 -5t1 -5q104 -641 116 -641h42 q8 0 9.5 -2t1.5 -11q0 -11 -2 -14t-9 -3q-6 0 -39.5 1.5t-50.5 1.5q-16 0 -58 -1.5t-53 -1.5q-10 0 -12 2.5t-2 15.5q0 9 3 10.5t15 1.5h57q2 0 2 11q0 24 -13.5 121t-14.5 103q-1 14 -4 16.5t-14 2.5h-189q-15 0 -23 -15q-121 -227 -121 -238l1 -1h68q8 0 9.5 -2t1.5 -11 q0 -11 -2 -14t-9 -3q-11 0 -48.5 1.5t-53.5 1.5t-39 -1.5t-34 -1.5q-10 0 -12 2.5t-2 15.5zM284 311q0 -6 18 -6h167q13 0 13 5q0 7 -11 74l-22 131t-12 64q-3 0 -13 -19l-133 -234q-7 -12 -7 -15z" />
<glyph unicode="&#xc2;" horiz-adv-x="688" d="M388 731q0 1 4 5l91 92q11 11 20 11h20q7 0 9 -1.5t7 -9.5l53 -92q2 -3 2 -5t-5 -2h-12q-1 0 -7 6l-63 52q-3 3 -8 0l-85 -52q-2 -1 -4 -2.5t-4 -2.5l-1 -1h-12q-5 0 -5 2zM20 15q0 9 3 10.5t15 1.5h33q3 0 72 118l155.5 266t121.5 199q4 5 22.5 24.5t28.5 38.5 q7 14 15 14q3 0 5 -1l3 -1.5t2 -3t1 -3.5t1 -5t1 -5q104 -641 116 -641h42q8 0 9.5 -2t1.5 -11q0 -11 -2 -14t-9 -3q-6 0 -39.5 1.5t-50.5 1.5q-16 0 -58 -1.5t-53 -1.5q-10 0 -12 2.5t-2 15.5q0 9 3 10.5t15 1.5h57q2 0 2 11q0 24 -13.5 121t-14.5 103q-1 14 -4 16.5 t-14 2.5h-189q-15 0 -23 -15q-121 -227 -121 -238l1 -1h68q8 0 9.5 -2t1.5 -11q0 -11 -2 -14t-9 -3q-11 0 -48.5 1.5t-53.5 1.5t-39 -1.5t-34 -1.5q-10 0 -12 2.5t-2 15.5zM284 311q0 -6 18 -6h167q13 0 13 5q0 7 -11 74l-22 131t-12 64q-3 0 -13 -19l-133 -234 q-7 -12 -7 -15z" />
<glyph unicode="&#xc3;" horiz-adv-x="688" d="M393 745q2 9 11 25q15 25 32.5 38.5t30.5 13.5q15 0 41 -18t39 -18q21 0 40 33q3 7 13 7q6 0 6 -2q-1 -6 -11 -26q-29 -55 -66 -55q-17 0 -41 17.5t-39 17.5q-22 0 -38 -29q-3 -6 -12 -6q-6 0 -6 2zM20 15q0 9 3 10.5t15 1.5h33q3 0 72 118l155.5 266t121.5 199 q4 5 22.5 24.5t28.5 38.5q7 14 15 14q3 0 5 -1l3 -1.5t2 -3t1 -3.5t1 -5t1 -5q104 -641 116 -641h42q8 0 9.5 -2t1.5 -11q0 -11 -2 -14t-9 -3q-6 0 -39.5 1.5t-50.5 1.5q-16 0 -58 -1.5t-53 -1.5q-10 0 -12 2.5t-2 15.5q0 9 3 10.5t15 1.5h57q2 0 2 11q0 24 -13.5 121 t-14.5 103q-1 14 -4 16.5t-14 2.5h-189q-15 0 -23 -15q-121 -227 -121 -238l1 -1h68q8 0 9.5 -2t1.5 -11q0 -11 -2 -14t-9 -3q-11 0 -48.5 1.5t-53.5 1.5t-39 -1.5t-34 -1.5q-10 0 -12 2.5t-2 15.5zM284 311q0 -6 18 -6h167q13 0 13 5q0 7 -11 74l-22 131t-12 64 q-3 0 -13 -19l-133 -234q-7 -12 -7 -15z" />
<glyph unicode="&#xc4;" horiz-adv-x="688" d="M390 785q0 20 11 33t30 13q20 0 32 -15t12 -33q0 -20 -11.5 -33t-29.5 -13q-20 0 -32 15t-12 33zM530 785q0 20 11 33t30 13q20 0 32 -15t12 -33q0 -20 -11.5 -33t-29.5 -13q-20 0 -32 15t-12 33zM20 15q0 9 3 10.5t15 1.5h33q3 0 72 118l155.5 266t121.5 199 q4 5 22.5 24.5t28.5 38.5q7 14 15 14q3 0 5 -1l3 -1.5t2 -3t1 -3.5t1 -5t1 -5q104 -641 116 -641h42q8 0 9.5 -2t1.5 -11q0 -11 -2 -14t-9 -3q-6 0 -39.5 1.5t-50.5 1.5q-16 0 -58 -1.5t-53 -1.5q-10 0 -12 2.5t-2 15.5q0 9 3 10.5t15 1.5h57q2 0 2 11q0 24 -13.5 121 t-14.5 103q-1 14 -4 16.5t-14 2.5h-189q-15 0 -23 -15q-121 -227 -121 -238l1 -1h68q8 0 9.5 -2t1.5 -11q0 -11 -2 -14t-9 -3q-11 0 -48.5 1.5t-53.5 1.5t-39 -1.5t-34 -1.5q-10 0 -12 2.5t-2 15.5zM284 311q0 -6 18 -6h167q13 0 13 5q0 7 -11 74l-22 131t-12 64 q-3 0 -13 -19l-133 -234q-7 -12 -7 -15z" />
<glyph unicode="&#xc5;" horiz-adv-x="688" d="M433 781q0 28 20 48t48 20t48 -20t20 -48t-20 -48t-48 -20t-48 20t-20 48zM461 781q0 -17 11.5 -28.5t28.5 -11.5t28.5 11.5t11.5 28.5t-11.5 28.5t-28.5 11.5t-28.5 -11.5t-11.5 -28.5zM20 15q0 9 3 10.5t15 1.5h33q3 0 72 118l155.5 266t121.5 199q4 5 22.5 24.5 t28.5 38.5q7 14 15 14q3 0 5 -1l3 -1.5t2 -3t1 -3.5t1 -5t1 -5q104 -641 116 -641h42q8 0 9.5 -2t1.5 -11q0 -11 -2 -14t-9 -3q-6 0 -39.5 1.5t-50.5 1.5q-16 0 -58 -1.5t-53 -1.5q-10 0 -12 2.5t-2 15.5q0 9 3 10.5t15 1.5h57q2 0 2 11q0 24 -13.5 121t-14.5 103 q-1 14 -4 16.5t-14 2.5h-189q-15 0 -23 -15q-121 -227 -121 -238l1 -1h68q8 0 9.5 -2t1.5 -11q0 -11 -2 -14t-9 -3q-11 0 -48.5 1.5t-53.5 1.5t-39 -1.5t-34 -1.5q-10 0 -12 2.5t-2 15.5zM284 311q0 -6 18 -6h167q13 0 13 5q0 7 -11 74l-22 131t-12 64q-3 0 -13 -19 l-133 -234q-7 -12 -7 -15z" />
<glyph unicode="&#xc6;" horiz-adv-x="968" d="M-10 15q0 9 3 10.5t15 1.5h33q7 0 105 125l219 282.5t158 201.5h-68q-7 0 -10.5 0.5t-6 4t-2.5 10.5q0 14 12 14l66 -1q67 -2 88 -2q28 0 108.5 1.5t100.5 1.5q55 0 74.5 2.5t20.5 10.5q1 12 13 12q11 0 14 -2t3 -9q0 -4 -4 -41t-5 -84q0 -6 -3 -8t-13 -2q-15 0 -15 14 q0 2 3 36t3 37q0 7 -263 7q-6 0 -39 -256q-3 -21 -3 -24q0 -6 15 -6h164q45 0 47 13l11 53q1 7 16 7q13 0 13 -6q0 -4 -2.5 -17t-7 -34l-7.5 -36q-7 -39 -15 -89q-1 -7 -13 -7q-17 0 -17 8q1 7 4 23.5t5.5 29t2.5 14.5q0 8 -10 11t-40 3h-151q-9 0 -12 -0.5t-5 -2.5t-3 -7 q-3 -13 -19.5 -129t-19.5 -147q0 -9 7 -9l319 7q4 0 10 16.5t14.5 43t13.5 37.5q4 9 14 9q17 0 17 -11q0 -5 -5.5 -21l-17 -47.5t-19.5 -55.5q-4 -11 -17 -11q-11 0 -179 1.5t-184 1.5t-54 -1.5t-49 -1.5q-10 0 -12 2.5t-2 15.5q0 9 2.5 10.5t15.5 1.5h43l42 274h-201 q-13 0 -23 -15q-3 -4 -54 -77l-85 -124t-34 -57l1 -1h68q8 0 9.5 -2t1.5 -11q0 -11 -2 -14t-9 -3q-11 0 -51 1.5t-56 1.5t-39 -1.5t-34 -1.5q-10 0 -12 2.5t-2 15.5zM323 331q0 -6 21 -6h172l20 145q20 144 20 154q0 8 -3 8q-4 0 -11 -10l-209 -276q-10 -14 -10 -15z" />
<glyph unicode="&#xc7;" horiz-adv-x="686" d="M35 291q0 160 108 270t255 110q62 0 120 -24.5t92 -62.5l12 41q8 0 18.5 -3.5t10.5 -7.5q0 -3 -7.5 -41l-17 -84t-10.5 -54q-1 -5 -13 -5q-9 0 -16 4t-7 7q0 1 11.5 46.5t11.5 50.5t-28 29.5t-79 50t-99 25.5q-75 0 -139 -56t-98.5 -137t-34.5 -162q0 -123 69.5 -195.5 t172.5 -72.5q47 0 91 16.5t67 33.5t26 26q10 29 25 84q3 9 8 10.5t15 -1.5q17 -4 17 -11q0 -6 -33 -116q-5 -17 -78 -45.5t-137 -30.5q-29 -51 -29 -53t5 -2q8 2 24 2q35 0 56 -19t21 -45q0 -37 -32 -61.5t-80 -24.5q-22 0 -40.5 6t-26.5 12t-8 9q0 10 8 10l8 -4 q8 -3 21 -6.5t27 -3.5q69 0 69 49q0 18 -11 31.5t-36 13.5q-8 0 -16 -1.5t-13.5 -3t-6.5 -1.5q-7 0 -7 4q0 1 8 15.5l21 37.5l20 35q-63 1 -117 18t-99.5 51.5t-72 95t-26.5 140.5z" />
<glyph unicode="&#xc8;" horiz-adv-x="579" d="M253 818q0 29 29 29q18 0 30 -25l40 -85q1 -2 1 -5t-4 -3h-18q-1 0 -7 6l-61 60q-10 10 -10 23zM20 15q0 9 3 10.5t15 1.5h43q83 519 83 599q0 10 -3 10h-55q-7 0 -10.5 0.5t-6 4t-2.5 10.5q0 14 12 14l47 -1q46 -2 67 -2q28 0 108.5 1.5t100.5 1.5q55 0 74.5 2.5 t20.5 10.5q1 12 13 12q11 0 14 -2t3 -9q0 -4 -4 -41t-5 -84q0 -6 -3 -8t-13 -2q-15 0 -15 14q0 2 3 36t3 37q0 7 -263 7q-5 0 -41 -269q-2 -11 -0.5 -14t14.5 -3h164q45 0 47 13l11 53q1 7 16 7q13 0 13 -6q0 -4 -2.5 -17t-7 -34l-7.5 -36q-7 -39 -15 -89q-1 -7 -13 -7 q-17 0 -17 8q1 7 4 23.5t5.5 29t2.5 14.5q0 8 -10 11t-40 3h-151q-9 0 -12 -0.5t-5 -2.5t-3 -7q-3 -13 -19.5 -129t-19.5 -147q0 -9 7 -9l319 7q4 0 10 16.5t14.5 43t13.5 37.5q4 9 14 9q17 0 17 -11q0 -5 -5.5 -21l-17 -47.5t-19.5 -55.5q-4 -11 -17 -11q-11 0 -179 1.5 t-184 1.5t-54 -1.5t-49 -1.5q-10 0 -12 2.5t-2 15.5z" />
<glyph unicode="&#xc9;" horiz-adv-x="579" d="M333 731l3 6l66 85q20 25 38 25q26 0 26 -21q0 -18 -18 -31l-83 -60q-8 -6 -9 -6h-19q-4 0 -4 2zM20 15q0 9 3 10.5t15 1.5h43q83 519 83 599q0 10 -3 10h-55q-7 0 -10.5 0.5t-6 4t-2.5 10.5q0 14 12 14l47 -1q46 -2 67 -2q28 0 108.5 1.5t100.5 1.5q55 0 74.5 2.5 t20.5 10.5q1 12 13 12q11 0 14 -2t3 -9q0 -4 -4 -41t-5 -84q0 -6 -3 -8t-13 -2q-15 0 -15 14q0 2 3 36t3 37q0 7 -263 7q-5 0 -41 -269q-2 -11 -0.5 -14t14.5 -3h164q45 0 47 13l11 53q1 7 16 7q13 0 13 -6q0 -4 -2.5 -17t-7 -34l-7.5 -36q-7 -39 -15 -89q-1 -7 -13 -7 q-17 0 -17 8q1 7 4 23.5t5.5 29t2.5 14.5q0 8 -10 11t-40 3h-151q-9 0 -12 -0.5t-5 -2.5t-3 -7q-3 -13 -19.5 -129t-19.5 -147q0 -9 7 -9l319 7q4 0 10 16.5t14.5 43t13.5 37.5q4 9 14 9q17 0 17 -11q0 -5 -5.5 -21l-17 -47.5t-19.5 -55.5q-4 -11 -17 -11q-11 0 -179 1.5 t-184 1.5t-54 -1.5t-49 -1.5q-10 0 -12 2.5t-2 15.5z" />
<glyph unicode="&#xca;" horiz-adv-x="579" d="M239 731q0 1 4 5l91 92q11 11 20 11h20q7 0 9 -1.5t7 -9.5l53 -92q2 -3 2 -5t-5 -2h-12q-1 0 -7 6l-63 52q-3 3 -8 0l-85 -52q-2 -1 -4 -2.5t-3 -2.5l-2 -1h-12q-5 0 -5 2zM20 15q0 9 3 10.5t15 1.5h43q83 519 83 599q0 10 -3 10h-55q-7 0 -10.5 0.5t-6 4t-2.5 10.5 q0 14 12 14l47 -1q46 -2 67 -2q28 0 108.5 1.5t100.5 1.5q55 0 74.5 2.5t20.5 10.5q1 12 13 12q11 0 14 -2t3 -9q0 -4 -4 -41t-5 -84q0 -6 -3 -8t-13 -2q-15 0 -15 14q0 2 3 36t3 37q0 7 -263 7q-5 0 -41 -269q-2 -11 -0.5 -14t14.5 -3h164q45 0 47 13l11 53q1 7 16 7 q13 0 13 -6q0 -4 -2.5 -17t-7 -34l-7.5 -36q-7 -39 -15 -89q-1 -7 -13 -7q-17 0 -17 8q1 7 4 23.5t5.5 29t2.5 14.5q0 8 -10 11t-40 3h-151q-9 0 -12 -0.5t-5 -2.5t-3 -7q-3 -13 -19.5 -129t-19.5 -147q0 -9 7 -9l319 7q4 0 10 16.5t14.5 43t13.5 37.5q4 9 14 9q17 0 17 -11 q0 -5 -5.5 -21l-17 -47.5t-19.5 -55.5q-4 -11 -17 -11q-11 0 -179 1.5t-184 1.5t-54 -1.5t-49 -1.5q-10 0 -12 2.5t-2 15.5z" />
<glyph unicode="&#xcb;" horiz-adv-x="579" d="M241 785q0 20 11 33t30 13q20 0 32 -15t12 -33q0 -20 -11.5 -33t-29.5 -13q-20 0 -32 15t-12 33zM381 785q0 20 11 33t30 13q20 0 32 -15t12 -33q0 -20 -11.5 -33t-29.5 -13q-20 0 -32 15t-12 33zM20 15q0 9 3 10.5t15 1.5h43q83 519 83 599q0 10 -3 10h-55 q-7 0 -10.5 0.5t-6 4t-2.5 10.5q0 14 12 14l47 -1q46 -2 67 -2q28 0 108.5 1.5t100.5 1.5q55 0 74.5 2.5t20.5 10.5q1 12 13 12q11 0 14 -2t3 -9q0 -4 -4 -41t-5 -84q0 -6 -3 -8t-13 -2q-15 0 -15 14q0 2 3 36t3 37q0 7 -263 7q-5 0 -41 -269q-2 -11 -0.5 -14t14.5 -3h164 q45 0 47 13l11 53q1 7 16 7q13 0 13 -6q0 -4 -2.5 -17t-7 -34l-7.5 -36q-7 -39 -15 -89q-1 -7 -13 -7q-17 0 -17 8q1 7 4 23.5t5.5 29t2.5 14.5q0 8 -10 11t-40 3h-151q-9 0 -12 -0.5t-5 -2.5t-3 -7q-3 -13 -19.5 -129t-19.5 -147q0 -9 7 -9l319 7q4 0 10 16.5t14.5 43 t13.5 37.5q4 9 14 9q17 0 17 -11q0 -5 -5.5 -21l-17 -47.5t-19.5 -55.5q-4 -11 -17 -11q-11 0 -179 1.5t-184 1.5t-54 -1.5t-49 -1.5q-10 0 -12 2.5t-2 15.5z" />
<glyph unicode="&#xcc;" horiz-adv-x="377" d="M151 818q0 29 29 29q18 0 30 -25l40 -85q1 -2 1 -5t-4 -3h-18q-1 0 -7 6l-61 60q-10 10 -10 23zM20 15q0 9 3 10.5t15 1.5h60q5 0 47 279t42 317q0 16 -9 16h-66q-12 0 -12 15q0 7 2.5 10.5t5.5 4t11 0.5q6 0 52 -1.5t63 -1.5q16 0 57 1.5t52 1.5q10 0 12 -2.5t2 -15.5 q0 -9 -2.5 -10.5t-15.5 -1.5h-57q-9 0 -48.5 -275.5t-39.5 -323.5q0 -13 8 -13h66q8 0 9.5 -2t1.5 -11q0 -11 -2 -14t-9 -3q-11 0 -58 1.5t-63 1.5t-59 -1.5t-54 -1.5q-10 0 -12 2.5t-2 15.5z" />
<glyph unicode="&#xcd;" horiz-adv-x="377" d="M231 731l3 6l66 85q20 25 38 25q26 0 26 -21q0 -18 -18 -31l-83 -60q-8 -6 -9 -6h-19q-4 0 -4 2zM20 15q0 9 3 10.5t15 1.5h60q5 0 47 279t42 317q0 16 -9 16h-66q-12 0 -12 15q0 7 2.5 10.5t5.5 4t11 0.5q6 0 52 -1.5t63 -1.5q16 0 57 1.5t52 1.5q10 0 12 -2.5t2 -15.5 q0 -9 -2.5 -10.5t-15.5 -1.5h-57q-9 0 -48.5 -275.5t-39.5 -323.5q0 -13 8 -13h66q8 0 9.5 -2t1.5 -11q0 -11 -2 -14t-9 -3q-11 0 -58 1.5t-63 1.5t-59 -1.5t-54 -1.5q-10 0 -12 2.5t-2 15.5z" />
<glyph unicode="&#xce;" horiz-adv-x="377" d="M137 731q0 1 4 5l91 92q11 11 20 11h20q7 0 9 -1.5t7 -9.5l53 -92q2 -3 2 -5t-5 -2h-12q-1 0 -7 6l-63 52q-3 3 -8 0l-85 -52q-2 -1 -4 -2.5t-3 -2.5l-2 -1h-12q-5 0 -5 2zM20 15q0 9 3 10.5t15 1.5h60q5 0 47 279t42 317q0 16 -9 16h-66q-12 0 -12 15q0 7 2.5 10.5 t5.5 4t11 0.5q6 0 52 -1.5t63 -1.5q16 0 57 1.5t52 1.5q10 0 12 -2.5t2 -15.5q0 -9 -2.5 -10.5t-15.5 -1.5h-57q-9 0 -48.5 -275.5t-39.5 -323.5q0 -13 8 -13h66q8 0 9.5 -2t1.5 -11q0 -11 -2 -14t-9 -3q-11 0 -58 1.5t-63 1.5t-59 -1.5t-54 -1.5q-10 0 -12 2.5t-2 15.5z " />
<glyph unicode="&#xcf;" horiz-adv-x="377" d="M139 785q0 20 11 33t30 13q20 0 32 -15t12 -33q0 -20 -11.5 -33t-29.5 -13q-20 0 -32 15t-12 33zM279 785q0 20 11 33t30 13q20 0 32 -15t12 -33q0 -20 -11.5 -33t-29.5 -13q-20 0 -32 15t-12 33zM20 15q0 9 3 10.5t15 1.5h60q5 0 47 279t42 317q0 16 -9 16h-66 q-12 0 -12 15q0 7 2.5 10.5t5.5 4t11 0.5q6 0 52 -1.5t63 -1.5q16 0 57 1.5t52 1.5q10 0 12 -2.5t2 -15.5q0 -9 -2.5 -10.5t-15.5 -1.5h-57q-9 0 -48.5 -275.5t-39.5 -323.5q0 -13 8 -13h66q8 0 9.5 -2t1.5 -11q0 -11 -2 -14t-9 -3q-11 0 -58 1.5t-63 1.5t-59 -1.5t-54 -1.5 q-10 0 -12 2.5t-2 15.5z" />
<glyph unicode="&#xd0;" horiz-adv-x="742" d="M19 10q0 11 3 13t14 2h43q5 0 46 285q1 8 -1 9.5t-11 1.5h-64q-2 0 -2.5 12t2.5 12h71q10 0 11 12q27 188 36 268q2 11 -4 11l-70 -2q-5 0 -7.5 0.5t-4 3t-1.5 8.5v6t0.5 4.5t2 3.5t4 1.5t6.5 0.5h24t51.5 -0.5t43.5 -0.5q33 0 75.5 1t56.5 1q165 0 261.5 -80t96.5 -248 q0 -158 -102 -247.5t-248 -91.5q-32 0 -112 2t-113 2q-16 0 -55 -2t-42 -2q-8 0 -9.5 2t-1.5 12zM171 46q0 -13 6 -17t59 -4q97 0 170 27t111 64t61.5 88t29.5 87.5t6 73.5q0 123 -74.5 196.5t-223.5 73.5q-49 0 -63 -4l-41 -274q-1 -7 0 -9.5t8 -2.5h196q3 0 3 -12t-3 -12 h-197q-9 0 -11 -1.5t-3 -9.5q-34 -236 -34 -264z" />
<glyph unicode="&#xd1;" horiz-adv-x="824" d="M366 745q2 9 11 25q15 25 32.5 38.5t30.5 13.5q16 0 42 -18t38 -18q21 0 40 33q3 7 13 7q6 0 6 -2q-1 -6 -11 -26q-29 -55 -66 -55q-17 0 -41 17.5t-39 17.5q-22 0 -38 -29q-3 -6 -12 -6q-6 0 -6 2zM20 15q0 9 3 10.5t15 1.5h50q40 245 89 514q1 6 4 22.5t5 29.5t2 21 q0 3 -5 12t-10 11t-22 2h-50q-8 0 -9.5 2t-1.5 11q0 11 2 14t9 3q6 0 53.5 -1.5t58.5 -1.5q13 0 28.5 1.5t16.5 1.5q12 0 20 -13l329 -499q8 -12 16 -12q7 0 39.5 218.5t32.5 263.5q0 12 -2 12h-76q-8 0 -9.5 2t-1.5 11q0 11 2 14t9 3q11 0 42 -1.5t47 -1.5t44.5 1.5 t39.5 1.5q10 0 12 -2.5t2 -15.5q0 -9 -3 -10.5t-15 -1.5h-42q-6 0 -80 -467q-10 -60 -16 -168q-1 -15 -4 -20t-12 -5t-28 32q-45 73 -118 180l-256 374q-15 21 -16 21q-4 0 -5 -20q0 -3 -17.5 -117t-35 -241.5t-17.5 -165.5q0 -15 3 -15h85q8 0 9.5 -2t1.5 -11q0 -11 -2 -14 t-9 -3q-11 0 -50.5 1.5t-55.5 1.5q-18 0 -52 -1.5t-35 -1.5q-10 0 -12 2.5t-2 15.5z" />
<glyph unicode="&#xd2;" horiz-adv-x="734" d="M340 818q0 29 29 29q17 0 30 -25l40 -85q1 -2 1 -5t-4 -3h-18q-1 0 -7 6l-61 60q-10 10 -10 23zM35 280q0 87 32.5 162t85.5 124.5t119.5 78t134.5 28.5q135 0 213.5 -89t78.5 -236q0 -151 -107 -260.5t-258 -109.5q-62 0 -114.5 17.5t-94.5 53t-66 94.5t-24 137z M127 286q0 -116 57 -200t167 -84q75 0 135.5 60t91 144t30.5 167q0 44 -11 89.5t-33.5 87.5t-62.5 68.5t-91 26.5q-71 0 -137 -52.5t-106 -136t-40 -170.5z" />
<glyph unicode="&#xd3;" horiz-adv-x="734" d="M420 731l3 6l66 85q20 25 38 25q26 0 26 -21q0 -18 -18 -31l-83 -60q-8 -6 -9 -6h-19q-4 0 -4 2zM35 280q0 87 32.5 162t85.5 124.5t119.5 78t134.5 28.5q135 0 213.5 -89t78.5 -236q0 -151 -107 -260.5t-258 -109.5q-62 0 -114.5 17.5t-94.5 53t-66 94.5t-24 137z M127 286q0 -116 57 -200t167 -84q75 0 135.5 60t91 144t30.5 167q0 44 -11 89.5t-33.5 87.5t-62.5 68.5t-91 26.5q-71 0 -137 -52.5t-106 -136t-40 -170.5z" />
<glyph unicode="&#xd4;" horiz-adv-x="734" d="M326 731q0 1 4 5l91 92q11 11 20 11h20q7 0 9 -1.5t7 -9.5l53 -92q2 -3 2 -5t-5 -2h-12q-1 0 -7 6l-63 52q-3 3 -8 0l-85 -52q-2 -1 -4 -2.5t-4 -2.5l-1 -1h-12q-5 0 -5 2zM35 280q0 87 32.5 162t85.5 124.5t119.5 78t134.5 28.5q135 0 213.5 -89t78.5 -236 q0 -151 -107 -260.5t-258 -109.5q-62 0 -114.5 17.5t-94.5 53t-66 94.5t-24 137zM127 286q0 -116 57 -200t167 -84q75 0 135.5 60t91 144t30.5 167q0 44 -11 89.5t-33.5 87.5t-62.5 68.5t-91 26.5q-71 0 -137 -52.5t-106 -136t-40 -170.5z" />
<glyph unicode="&#xd5;" horiz-adv-x="734" d="M331 745q2 9 11 25q15 25 32.5 38.5t30.5 13.5q15 0 41 -18t39 -18q21 0 40 33q3 7 13 7q6 0 6 -2q-1 -6 -11 -26q-29 -55 -66 -55q-17 0 -41 17.5t-39 17.5q-22 0 -38 -29q-3 -6 -12 -6q-6 0 -6 2zM35 280q0 87 32.5 162t85.5 124.5t119.5 78t134.5 28.5 q135 0 213.5 -89t78.5 -236q0 -151 -107 -260.5t-258 -109.5q-62 0 -114.5 17.5t-94.5 53t-66 94.5t-24 137zM127 286q0 -116 57 -200t167 -84q75 0 135.5 60t91 144t30.5 167q0 44 -11 89.5t-33.5 87.5t-62.5 68.5t-91 26.5q-71 0 -137 -52.5t-106 -136t-40 -170.5z" />
<glyph unicode="&#xd6;" horiz-adv-x="734" d="M328 785q0 20 11 33t30 13q20 0 32 -15t12 -33q0 -20 -11.5 -33t-29.5 -13q-20 0 -32 15t-12 33zM468 785q0 20 11 33t30 13q20 0 32 -15t12 -33q0 -20 -11.5 -33t-29.5 -13q-20 0 -32 15t-12 33zM35 280q0 87 32.5 162t85.5 124.5t119.5 78t134.5 28.5q135 0 213.5 -89 t78.5 -236q0 -151 -107 -260.5t-258 -109.5q-62 0 -114.5 17.5t-94.5 53t-66 94.5t-24 137zM127 286q0 -116 57 -200t167 -84q75 0 135.5 60t91 144t30.5 167q0 44 -11 89.5t-33.5 87.5t-62.5 68.5t-91 26.5q-71 0 -137 -52.5t-106 -136t-40 -170.5z" />
<glyph unicode="&#xd7;" horiz-adv-x="527" d="M88 358q0 5 10.5 15.5t17.5 10.5q6 0 14 -8l116 -115q12 -12 19 -12q6 0 11 5l125 125q6 6 12 6q5 0 15 -10t10 -17q0 -5 -9 -14l-121 -121q-8 -8 -8 -13q0 -4 8 -12l124 -124q6 -6 6 -12t-10.5 -16.5t-15.5 -10.5q-6 0 -13 7l-123 124q-7 7 -13 7q-5 0 -16 -11 l-120 -120q-7 -7 -12 -7t-15.5 10t-10.5 16q0 5 8 13l120 121q9 9 9 15t-7 13l-124 124q-7 7 -7 11z" />
<glyph unicode="&#xd8;" horiz-adv-x="734" d="M35 280q0 87 32.5 162t85.5 124.5t119.5 78t134.5 28.5q67 0 125 -25q7 -3 10 4l40 70q1 1 3 1q5 0 12 -5.5t6 -7.5l-41 -70q-3 -5 1 -8q65 -40 100.5 -113.5t35.5 -170.5q0 -151 -107 -260.5t-258 -109.5q-74 0 -132 23q-6 3 -10 -3l-30 -51q-2 -2 -3 -2q-4 0 -8.5 2.5 t-8 5.5t-2.5 4l30 52q3 6 -1 9q-2 0 -3 1q-131 76 -131 261zM127 286q0 -136 70 -216q3 -4 4.5 -4.5t2.5 0.5t3 6l306 530q3 6 -1 9q-44 34 -102 34q-71 0 -137 -52.5t-106 -136t-40 -170.5zM224 54q-4 -7 2 -12q53 -40 125 -40q75 0 135.5 60t91 144t30.5 167 q0 56 -17.5 114.5t-52.5 98.5q-4 4 -7 0z" />
<glyph unicode="&#xd9;" horiz-adv-x="759" d="M328 818q0 29 29 29q17 0 30 -25l40 -85q1 -2 1 -5t-4 -3h-18q-1 0 -7 6l-61 60q-10 10 -10 23zM60 649q0 7 2 10.5t5 4t11 0.5q6 0 40.5 -1.5t51.5 -1.5q16 0 52.5 1.5t47.5 1.5q10 0 12 -2.5t2 -15.5q0 -9 -3 -10.5t-15 -1.5h-32q-5 0 -23.5 -98.5t-35 -211.5 t-16.5 -148q0 -37 15 -64.5t34.5 -40.5t46 -21t40.5 -9t27 -1q42 0 88.5 16t76.5 35q28 19 39 60q12 47 32 163q41 241 48 320h-67q-8 0 -11 0.5t-6 4t-3 10.5t2.5 10.5t6 4t11.5 0.5q6 0 46.5 -1.5t57.5 -1.5t48 1.5t34 1.5q10 0 12 -2.5t2 -15.5q0 -9 -2.5 -10.5 t-15.5 -1.5h-32q-8 -38 -22 -118q-62 -378 -95 -490q-7 -25 -19 -25h-5q-9 0 -11 11q-1 10 -2.5 23t-2 19.5t-1.5 13t-2.5 9t-4.5 2.5t-45 -24q-113 -62 -211 -62q-82 0 -137 42.5t-55 115.5q0 46 33 248.5t33 229.5q0 5 -1 5h-63q-6 0 -8 0.5t-5 1.5t-4 4t-1 9z" />
<glyph unicode="&#xda;" horiz-adv-x="759" d="M408 731l3 6l66 85q20 25 38 25q26 0 26 -21q0 -18 -18 -31l-83 -60q-8 -6 -9 -6h-19q-4 0 -4 2zM60 649q0 7 2 10.5t5 4t11 0.5q6 0 40.5 -1.5t51.5 -1.5q16 0 52.5 1.5t47.5 1.5q10 0 12 -2.5t2 -15.5q0 -9 -3 -10.5t-15 -1.5h-32q-5 0 -23.5 -98.5t-35 -211.5 t-16.5 -148q0 -37 15 -64.5t34.5 -40.5t46 -21t40.5 -9t27 -1q42 0 88.5 16t76.5 35q28 19 39 60q12 47 32 163q41 241 48 320h-67q-8 0 -11 0.5t-6 4t-3 10.5t2.5 10.5t6 4t11.5 0.5q6 0 46.5 -1.5t57.5 -1.5t48 1.5t34 1.5q10 0 12 -2.5t2 -15.5q0 -9 -2.5 -10.5 t-15.5 -1.5h-32q-8 -38 -22 -118q-62 -378 -95 -490q-7 -25 -19 -25h-5q-9 0 -11 11q-1 10 -2.5 23t-2 19.5t-1.5 13t-2.5 9t-4.5 2.5t-45 -24q-113 -62 -211 -62q-82 0 -137 42.5t-55 115.5q0 46 33 248.5t33 229.5q0 5 -1 5h-63q-6 0 -8 0.5t-5 1.5t-4 4t-1 9z" />
<glyph unicode="&#xdb;" horiz-adv-x="759" d="M314 731q0 1 4 5l91 92q11 11 20 11h20q7 0 9 -1.5t7 -9.5l53 -92q2 -3 2 -5t-5 -2h-12q-1 0 -7 6l-63 52q-3 3 -8 0l-85 -52q-2 -1 -4 -2.5t-4 -2.5l-1 -1h-12q-5 0 -5 2zM60 649q0 7 2 10.5t5 4t11 0.5q6 0 40.5 -1.5t51.5 -1.5q16 0 52.5 1.5t47.5 1.5q10 0 12 -2.5 t2 -15.5q0 -9 -3 -10.5t-15 -1.5h-32q-5 0 -23.5 -98.5t-35 -211.5t-16.5 -148q0 -37 15 -64.5t34.5 -40.5t46 -21t40.5 -9t27 -1q42 0 88.5 16t76.5 35q28 19 39 60q12 47 32 163q41 241 48 320h-67q-8 0 -11 0.5t-6 4t-3 10.5t2.5 10.5t6 4t11.5 0.5q6 0 46.5 -1.5 t57.5 -1.5t48 1.5t34 1.5q10 0 12 -2.5t2 -15.5q0 -9 -2.5 -10.5t-15.5 -1.5h-32q-8 -38 -22 -118q-62 -378 -95 -490q-7 -25 -19 -25h-5q-9 0 -11 11q-1 10 -2.5 23t-2 19.5t-1.5 13t-2.5 9t-4.5 2.5t-45 -24q-113 -62 -211 -62q-82 0 -137 42.5t-55 115.5q0 46 33 248.5 t33 229.5q0 5 -1 5h-63q-6 0 -8 0.5t-5 1.5t-4 4t-1 9z" />
<glyph unicode="&#xdc;" horiz-adv-x="759" d="M316 785q0 20 11 33t30 13q20 0 32 -15t12 -33q0 -20 -11.5 -33t-29.5 -13q-20 0 -32 15t-12 33zM456 785q0 20 11 33t30 13q20 0 32 -15t12 -33q0 -20 -11.5 -33t-29.5 -13q-20 0 -32 15t-12 33zM60 649q0 7 2 10.5t5 4t11 0.5q6 0 40.5 -1.5t51.5 -1.5q16 0 52.5 1.5 t47.5 1.5q10 0 12 -2.5t2 -15.5q0 -9 -3 -10.5t-15 -1.5h-32q-5 0 -23.5 -98.5t-35 -211.5t-16.5 -148q0 -37 15 -64.5t34.5 -40.5t46 -21t40.5 -9t27 -1q42 0 88.5 16t76.5 35q28 19 39 60q12 47 32 163q41 241 48 320h-67q-8 0 -11 0.5t-6 4t-3 10.5t2.5 10.5t6 4 t11.5 0.5q6 0 46.5 -1.5t57.5 -1.5t48 1.5t34 1.5q10 0 12 -2.5t2 -15.5q0 -9 -2.5 -10.5t-15.5 -1.5h-32q-8 -38 -22 -118q-62 -378 -95 -490q-7 -25 -19 -25h-5q-9 0 -11 11q-1 10 -2.5 23t-2 19.5t-1.5 13t-2.5 9t-4.5 2.5t-45 -24q-113 -62 -211 -62q-82 0 -137 42.5 t-55 115.5q0 46 33 248.5t33 229.5q0 5 -1 5h-63q-6 0 -8 0.5t-5 1.5t-4 4t-1 9z" />
<glyph unicode="&#xdd;" horiz-adv-x="613" d="M322 731l3 6l66 85q20 25 38 25q26 0 26 -21q0 -18 -18 -31l-83 -60q-8 -6 -9 -6h-19q-4 0 -4 2zM20 654q0 7 2 10.5t5 4t11 0.5q6 0 45 -1.5t56 -1.5q16 0 46.5 1.5t41.5 1.5q10 0 12 -2.5t2 -15.5q0 -9 -2.5 -10.5t-15.5 -1.5h-31q-10 0 -11 -2t3 -13q13 -44 103 -265 q6 -12 8 -12q5 0 16 18l35 52l46 68l43 65t34.5 56.5t12.5 29.5v3h-53q-13 0 -15.5 1.5t-2.5 10.5q0 13 2 15.5t12 2.5q11 0 36.5 -1.5t41.5 -1.5q17 0 42.5 1.5t31.5 1.5q11 0 13.5 -2t2.5 -13q0 -6 -0.5 -9t-3 -4.5t-5 -1.5h-7.5h-36q-2 0 -45.5 -58l-97 -133t-80.5 -116 q-5 -9 -8 -22q-44 -260 -44 -270q0 -13 5 -13h63q8 0 9.5 -2t1.5 -11q0 -11 -2 -14t-9 -3q-11 0 -50 1.5t-55 1.5t-49.5 -1.5t-44.5 -1.5q-9 0 -11.5 3t-2.5 13q0 9 3 11.5t15 2.5h42q6 0 30 143l15 90q5 27 5 41l-146 338h-47q-6 0 -8 0.5t-5 1.5t-4 4t-1 9z" />
<glyph unicode="&#xde;" horiz-adv-x="566" d="M14 15q0 9 3 10.5t15 1.5h60q5 0 47 279t42 317q0 16 -9 16h-66q-12 0 -12 15q0 7 2.5 10.5t5.5 4t11 0.5q6 0 52 -1.5t63 -1.5q16 0 57 1.5t52 1.5q10 0 12 -2.5t2 -15.5q0 -9 -2.5 -10.5t-15.5 -1.5h-57q-3 0 -22 -106q-1 -4 -1 -9q0 -7 7 -7q8 0 14 1q23 3 52 3 q99 0 154.5 -47.5t55.5 -123.5q0 -44 -14.5 -78.5t-38 -55.5t-56 -35t-65.5 -19.5t-70 -5.5q-16 0 -44.5 1t-31.5 1q-13 0 -15 -2.5t-4 -14.5q-15 -90 -15 -109q0 -5 1 -5h79q8 0 9.5 -2t1.5 -11q0 -11 -2 -14t-9 -3q-11 0 -58 1.5t-63 1.5t-59 -1.5t-54 -1.5q-10 0 -12 2.5 t-2 15.5zM204 189q0 -10 12 -11q5 -1 18 -1q59 0 107.5 15.5t83 54.5t34.5 97q0 74 -42.5 113.5t-124.5 39.5q-18 0 -28 -1q-9 -1 -12.5 -2.5t-4 -2.5t-1.5 -8q-1 -3 -1 -4l-12 -81q-16 -106 -28 -197q-1 -5 -1 -12z" />
<glyph unicode="&#xdf;" horiz-adv-x="488" d="M-125 -240q0 13 17 27t32 14q12 0 37.5 -12t43.5 -12q9 0 17.5 6.5t14 19t10 25t8.5 31.5t6 31.5t4.5 31t3.5 24.5q29 179 58 438q0 4 12 97q11 86 54.5 141.5t120.5 55.5q55 0 87 -34t32 -88q0 -39 -13.5 -71.5t-35 -54t-40.5 -34.5t-38 -21q-6 -3 -11.5 -4.5t-8.5 -2.5 h-2h2q1 -1 5.5 -2t9.5 -3q131 -46 131 -165q0 -89 -43 -148.5t-112 -59.5q-39 0 -64.5 19.5t-25.5 53.5q0 33 39 46q19 6 19 -8q0 -4 -2.5 -19t-2.5 -23q0 -51 40 -51q41 0 63 66.5t22 138.5q0 37 -9 64.5t-19.5 41t-31 23t-30 11l-29.5 4.5q-6 1 -5 12q2 8 7 9q45 4 86 56 t41 135q0 38 -19 63.5t-54 25.5q-26 0 -44.5 -15.5t-28 -40t-14.5 -49.5t-9 -51q-1 -7 -1 -10q-7 -44 -32 -235t-45 -311q-3 -17 -11 -44.5t-31 -70.5t-52 -65q-2 -1 -8.5 -6t-9.5 -7.5t-10 -7t-11.5 -6.5t-11.5 -5.5t-13 -5t-13 -3t-14 -1.5q-24 0 -46 12.5t-22 23.5z" />
<glyph unicode="&#xe0;" horiz-adv-x="433" d="M212 575q0 31 34 31q21 0 26 -24l26 -125v-3l1 -3q0 -2 -4 -2h-15q-4 0 -7 6l-57 107q-4 7 -4 13zM25 59q0 46 15 100.5t42 106.5t72 86.5t98 34.5q35 0 56 -30l7.5 -12.5t7.5 -11.5t5 -4t8.5 21t6.5 23q2 6 36 11q21 2 21 -5q0 -3 -40.5 -146.5t-40.5 -169.5 q0 -20 14 -20q9 0 37 28l27 28q3 0 7 -4t4 -10q0 -3 -22 -26t-54 -46.5t-51 -23.5q-27 0 -27 24q0 19 14 72t28 97l15 44q-55 -101 -125 -174q-23 -24 -33.5 -33.5t-28 -19t-34.5 -9.5q-31 0 -48 19.5t-17 49.5zM94 96q0 -53 26 -53q25 0 81.5 62.5t97.5 129.5q15 24 15 54 q0 26 -27.5 42t-54.5 16q-32 0 -65 -46t-53 -105t-20 -100z" />
<glyph unicode="&#xe1;" horiz-adv-x="433" d="M256 451l3 6l61 123q13 24 32 24q31 0 31 -21q0 -15 -9 -25l-91 -103q-5 -6 -8 -6h-15q-4 0 -4 2zM25 59q0 46 15 100.5t42 106.5t72 86.5t98 34.5q35 0 56 -30l7.5 -12.5t7.5 -11.5t5 -4t8.5 21t6.5 23q2 6 36 11q21 2 21 -5q0 -3 -40.5 -146.5t-40.5 -169.5 q0 -20 14 -20q9 0 37 28l27 28q3 0 7 -4t4 -10q0 -3 -22 -26t-54 -46.5t-51 -23.5q-27 0 -27 24q0 19 14 72t28 97l15 44q-55 -101 -125 -174q-23 -24 -33.5 -33.5t-28 -19t-34.5 -9.5q-31 0 -48 19.5t-17 49.5zM94 96q0 -53 26 -53q25 0 81.5 62.5t97.5 129.5q15 24 15 54 q0 26 -27.5 42t-54.5 16q-32 0 -65 -46t-53 -105t-20 -100z" />
<glyph unicode="&#xe2;" horiz-adv-x="433" d="M174 462l4 6l91 104q11 12 20 12h20q7 0 9 -1.5t7 -10.5l53 -104q2 -3 2 -6q0 -2 -5 -2h-12q-1 0 -7 6l-63 62q-3 3 -8 0l-85 -62q-8 -6 -9 -6h-12q-5 0 -5 2zM25 59q0 46 15 100.5t42 106.5t72 86.5t98 34.5q35 0 56 -30l7.5 -12.5t7.5 -11.5t5 -4t8.5 21t6.5 23 q2 6 36 11q21 2 21 -5q0 -3 -40.5 -146.5t-40.5 -169.5q0 -20 14 -20q9 0 37 28l27 28q3 0 7 -4t4 -10q0 -3 -22 -26t-54 -46.5t-51 -23.5q-27 0 -27 24q0 19 14 72t28 97l15 44q-55 -101 -125 -174q-23 -24 -33.5 -33.5t-28 -19t-34.5 -9.5q-31 0 -48 19.5t-17 49.5zM94 96 q0 -53 26 -53q25 0 81.5 62.5t97.5 129.5q15 24 15 54q0 26 -27.5 42t-54.5 16q-32 0 -65 -46t-53 -105t-20 -100z" />
<glyph unicode="&#xe3;" horiz-adv-x="433" d="M176 495q2 9 11 25q15 25 32.5 38.5t30.5 13.5q16 0 42 -18t38 -18q21 0 40 33q3 7 13 7q6 0 6 -2q-1 -6 -11 -26q-29 -55 -66 -55q-17 0 -41 17.5t-39 17.5q-22 0 -38 -29q-3 -6 -12 -6q-6 0 -6 2zM25 59q0 46 15 100.5t42 106.5t72 86.5t98 34.5q35 0 56 -30l7.5 -12.5 t7.5 -11.5t5 -4t8.5 21t6.5 23q2 6 36 11q21 2 21 -5q0 -3 -40.5 -146.5t-40.5 -169.5q0 -20 14 -20q9 0 37 28l27 28q3 0 7 -4t4 -10q0 -3 -22 -26t-54 -46.5t-51 -23.5q-27 0 -27 24q0 19 14 72t28 97l15 44q-55 -101 -125 -174q-23 -24 -33.5 -33.5t-28 -19t-34.5 -9.5 q-31 0 -48 19.5t-17 49.5zM94 96q0 -53 26 -53q25 0 81.5 62.5t97.5 129.5q15 24 15 54q0 26 -27.5 42t-54.5 16q-32 0 -65 -46t-53 -105t-20 -100z" />
<glyph unicode="&#xe4;" horiz-adv-x="433" d="M173 535q0 20 11 33t30 13q20 0 32 -15t12 -33q0 -20 -11.5 -33t-29.5 -13q-20 0 -32 15t-12 33zM313 535q0 20 11 33t30 13q20 0 32 -15t12 -33q0 -20 -11.5 -33t-29.5 -13q-20 0 -32 15t-12 33zM25 59q0 46 15 100.5t42 106.5t72 86.5t98 34.5q35 0 56 -30l7.5 -12.5 t7.5 -11.5t5 -4t8.5 21t6.5 23q2 6 36 11q21 2 21 -5q0 -3 -40.5 -146.5t-40.5 -169.5q0 -20 14 -20q9 0 37 28l27 28q3 0 7 -4t4 -10q0 -3 -22 -26t-54 -46.5t-51 -23.5q-27 0 -27 24q0 19 14 72t28 97l15 44q-55 -101 -125 -174q-23 -24 -33.5 -33.5t-28 -19t-34.5 -9.5 q-31 0 -48 19.5t-17 49.5zM94 96q0 -53 26 -53q25 0 81.5 62.5t97.5 129.5q15 24 15 54q0 26 -27.5 42t-54.5 16q-32 0 -65 -46t-53 -105t-20 -100z" />
<glyph unicode="&#xe5;" horiz-adv-x="433" d="M216 531q0 28 20 48t48 20t48 -20t20 -48t-20 -48t-48 -20t-48 20t-20 48zM244 531q0 -17 11.5 -28.5t28.5 -11.5t28.5 11.5t11.5 28.5t-11.5 28.5t-28.5 11.5t-28.5 -11.5t-11.5 -28.5zM25 59q0 46 15 100.5t42 106.5t72 86.5t98 34.5q35 0 56 -30l7.5 -12.5t7.5 -11.5 t5 -4t8.5 21t6.5 23q2 6 36 11q21 2 21 -5q0 -3 -40.5 -146.5t-40.5 -169.5q0 -20 14 -20q9 0 37 28l27 28q3 0 7 -4t4 -10q0 -3 -22 -26t-54 -46.5t-51 -23.5q-27 0 -27 24q0 19 14 72t28 97l15 44q-55 -101 -125 -174q-23 -24 -33.5 -33.5t-28 -19t-34.5 -9.5 q-31 0 -48 19.5t-17 49.5zM94 96q0 -53 26 -53q25 0 81.5 62.5t97.5 129.5q15 24 15 54q0 26 -27.5 42t-54.5 16q-32 0 -65 -46t-53 -105t-20 -100z" />
<glyph unicode="&#xe6;" horiz-adv-x="636" d="M25 59q0 46 15 100.5t42 106.5t72 86.5t98 34.5q35 0 56 -30l7.5 -12.5t7.5 -11.5t5 -4t8.5 21t6.5 23q2 6 36 11q21 2 21 -5q0 -1 -7 -29q58 41 123 41q93 0 93 -66q0 -43 -35 -77t-88 -54q-65 -24 -141 -24q-8 0 -8 -46q0 -89 96 -89q42 0 82 21.5t63.5 43.5t24.5 22 q4 0 8.5 -5t4.5 -9q0 -2 -11 -13.5t-32 -28t-47 -32.5t-61 -27.5t-68 -11.5q-55 0 -90.5 27.5t-35.5 82.5q0 36 7 67q-49 -75 -92 -120q-23 -24 -33.5 -33.5t-28 -19t-34.5 -9.5q-31 0 -48 19.5t-17 49.5zM94 96q0 -53 26 -53q25 0 81.5 62.5t97.5 129.5q15 24 15 54 q0 26 -27.5 42t-54.5 16q-32 0 -65 -46t-53 -105t-20 -100zM352 200q0 -7 10 -7q74 0 128 36.5t54 96.5q0 19 -14 30t-36 11q-82 0 -128 -122q-14 -35 -14 -45z" />
<glyph unicode="&#xe7;" horiz-adv-x="402" d="M25 128q0 114 71 188.5t150 74.5q58 0 86 -31q22 -24 22 -56q0 -21 -12 -35t-31 -14q-22 0 -22 37q0 4 0.5 12t0.5 12q0 20 -11.5 34t-35.5 14q-28 0 -57 -18.5t-49 -48.5q-47 -71 -47 -153q0 -16 2.5 -28.5t11 -32.5t32 -31.5t60.5 -11.5q38 0 76.5 19.5t61.5 39 t24 19.5q3 0 7.5 -5t4.5 -9q0 -5 -30 -31.5t-82 -54t-96 -27.5h-2q-32 -53 -32 -58q0 -2 5 -2q8 2 24 2q35 0 56 -19t21 -45q0 -37 -32 -61.5t-80 -24.5q-22 0 -40.5 6t-26.5 12t-8 9q0 10 8 10l8 -4q8 -3 21 -6.5t27 -3.5q69 0 69 49q0 18 -11 31.5t-36 13.5q-8 0 -16 -1.5 t-13.5 -3t-6.5 -1.5q-7 0 -7 4q0 1 9.5 17.5l22.5 40.5l20 36q-63 6 -90 44.5t-27 91.5z" />
<glyph unicode="&#xe8;" horiz-adv-x="390" d="M211 575q0 31 34 31q21 0 26 -24l26 -125q0 -1 1 -3v-3q0 -2 -4 -2h-15q-4 0 -7 6l-57 107q-4 7 -4 13zM25 105q0 114 73 200t172 86q93 0 93 -66q0 -43 -35 -77t-88 -54q-65 -24 -141 -24q-8 0 -8 -46q0 -89 96 -89q42 0 82 21.5t63.5 43.5t24.5 22q4 0 8.5 -5t4.5 -9 q0 -2 -11 -13.5t-32 -28t-47 -32.5t-61 -27.5t-68 -11.5q-55 0 -90.5 27.5t-35.5 82.5zM106 200q0 -7 10 -7q74 0 128 36.5t54 96.5q0 19 -14 30t-36 11q-82 0 -128 -122q-14 -35 -14 -45z" />
<glyph unicode="&#xe9;" horiz-adv-x="390" d="M255 451l3 6l61 123q13 24 32 24q31 0 31 -21q0 -15 -9 -25l-91 -103q-4 -6 -8 -6h-15q-4 0 -4 2zM25 105q0 114 73 200t172 86q93 0 93 -66q0 -43 -35 -77t-88 -54q-65 -24 -141 -24q-8 0 -8 -46q0 -89 96 -89q42 0 82 21.5t63.5 43.5t24.5 22q4 0 8.5 -5t4.5 -9 q0 -2 -11 -13.5t-32 -28t-47 -32.5t-61 -27.5t-68 -11.5q-55 0 -90.5 27.5t-35.5 82.5zM106 200q0 -7 10 -7q74 0 128 36.5t54 96.5q0 19 -14 30t-36 11q-82 0 -128 -122q-14 -35 -14 -45z" />
<glyph unicode="&#xea;" horiz-adv-x="390" d="M173 462l4 6l91 104q11 12 20 12h20q7 0 9 -1.5t7 -10.5l53 -104q2 -3 2 -6q0 -2 -5 -2h-12q-1 0 -7 6l-63 62q-3 3 -8 0l-85 -62q-7 -6 -9 -6h-12q-5 0 -5 2zM25 105q0 114 73 200t172 86q93 0 93 -66q0 -43 -35 -77t-88 -54q-65 -24 -141 -24q-8 0 -8 -46q0 -89 96 -89 q42 0 82 21.5t63.5 43.5t24.5 22q4 0 8.5 -5t4.5 -9q0 -2 -11 -13.5t-32 -28t-47 -32.5t-61 -27.5t-68 -11.5q-55 0 -90.5 27.5t-35.5 82.5zM106 200q0 -7 10 -7q74 0 128 36.5t54 96.5q0 19 -14 30t-36 11q-82 0 -128 -122q-14 -35 -14 -45z" />
<glyph unicode="&#xeb;" horiz-adv-x="390" d="M172 535q0 20 11 33t30 13q20 0 32 -15t12 -33q0 -20 -11.5 -33t-29.5 -13q-20 0 -32 15t-12 33zM312 535q0 20 11 33t30 13q20 0 32 -15t12 -33q0 -20 -11.5 -33t-29.5 -13q-20 0 -32 15t-12 33zM25 105q0 114 73 200t172 86q93 0 93 -66q0 -43 -35 -77t-88 -54 q-65 -24 -141 -24q-8 0 -8 -46q0 -89 96 -89q42 0 82 21.5t63.5 43.5t24.5 22q4 0 8.5 -5t4.5 -9q0 -2 -11 -13.5t-32 -28t-47 -32.5t-61 -27.5t-68 -11.5q-55 0 -90.5 27.5t-35.5 82.5zM106 200q0 -7 10 -7q74 0 128 36.5t54 96.5q0 19 -14 30t-36 11q-82 0 -128 -122 q-14 -35 -14 -45z" />
<glyph unicode="&#xec;" horiz-adv-x="270" d="M114 575q0 31 34 31q21 0 26 -24l26 -125v-3l1 -3q0 -2 -4 -2h-15q-4 0 -7 6l-57 107q-4 7 -4 13zM25 282q0 4 29.5 28.5t67 48.5t54.5 24q20 0 20 -22q0 -26 -32.5 -150t-32.5 -136q0 -20 13 -20q8 0 27 16t35 32t17 16q3 0 7.5 -5t4.5 -7q0 -12 -64.5 -62.5 t-86.5 -50.5q-24 0 -24 18q0 24 35.5 145t35.5 153q0 18 -12 18q-11 0 -30.5 -15t-35 -29.5t-16.5 -14.5q-4 0 -8 4.5t-4 8.5z" />
<glyph unicode="&#xed;" horiz-adv-x="270" d="M158 451l3 6l61 123q13 24 32 24q31 0 31 -21q0 -15 -9 -25l-91 -103q-5 -6 -8 -6h-15q-4 0 -4 2zM25 282q0 4 29.5 28.5t67 48.5t54.5 24q20 0 20 -22q0 -26 -32.5 -150t-32.5 -136q0 -20 13 -20q8 0 27 16t35 32t17 16q3 0 7.5 -5t4.5 -7q0 -12 -64.5 -62.5 t-86.5 -50.5q-24 0 -24 18q0 24 35.5 145t35.5 153q0 18 -12 18q-11 0 -30.5 -15t-35 -29.5t-16.5 -14.5q-4 0 -8 4.5t-4 8.5z" />
<glyph unicode="&#xee;" horiz-adv-x="270" d="M76 462l4 6l91 104q11 12 20 12h20q7 0 9 -1.5t7 -10.5l53 -104q2 -3 2 -6q0 -2 -5 -2h-12q-1 0 -7 6l-63 62q-3 3 -8 0l-85 -62q-8 -6 -9 -6h-12q-5 0 -5 2zM25 282q0 4 29.5 28.5t67 48.5t54.5 24q20 0 20 -22q0 -26 -32.5 -150t-32.5 -136q0 -20 13 -20q8 0 27 16 t35 32t17 16q3 0 7.5 -5t4.5 -7q0 -12 -64.5 -62.5t-86.5 -50.5q-24 0 -24 18q0 24 35.5 145t35.5 153q0 18 -12 18q-11 0 -30.5 -15t-35 -29.5t-16.5 -14.5q-4 0 -8 4.5t-4 8.5z" />
<glyph unicode="&#xef;" horiz-adv-x="270" d="M82 535q0 20 11 33t30 13q20 0 32 -15t12 -33q0 -20 -11.5 -33t-29.5 -13q-20 0 -32 15t-12 33zM208 535q0 20 11 33t30 13q20 0 32 -15t12 -33q0 -20 -11.5 -33t-29.5 -13q-20 0 -32 15t-12 33zM25 282q0 4 29.5 28.5t67 48.5t54.5 24q20 0 20 -22q0 -26 -32.5 -150 t-32.5 -136q0 -20 13 -20q8 0 27 16t35 32t17 16q3 0 7.5 -5t4.5 -7q0 -12 -64.5 -62.5t-86.5 -50.5q-24 0 -24 18q0 24 35.5 145t35.5 153q0 18 -12 18q-11 0 -30.5 -15t-35 -29.5t-16.5 -14.5q-4 0 -8 4.5t-4 8.5z" />
<glyph unicode="&#xf0;" horiz-adv-x="411" d="M25 138q0 110 65 183.5t164 73.5q32 0 61 -16q-5 30 -22.5 72t-31.5 66q-4 6 -7 4l-113 -31q-2 0 -7 9t-5 13l25 7l54.5 15t32.5 9q7 1 2 6q-40 64 -92 112q-8 8 0 8l44 1q14 0 96 -108q4 -5 12 -3q96 26 100 26q2 0 6.5 -8.5t4.5 -12.5t-101 -26q-6 -1 -1 -8 q74 -127 74 -265q0 -116 -63 -194.5t-160 -78.5q-65 0 -101.5 42.5t-36.5 103.5zM87 146q0 -24 1.5 -39.5t8 -40t24 -37.5t44.5 -13q46 0 84 47.5t56.5 107t18.5 107.5q0 96 -81 96q-57 0 -106.5 -78.5t-49.5 -149.5z" />
<glyph unicode="&#xf1;" horiz-adv-x="515" d="M244 495q2 9 11 25q15 25 32.5 38.5t30.5 13.5q16 0 42 -18t38 -18q21 0 40 33q3 7 13 7q6 0 6 -2q-1 -6 -11 -26q-29 -55 -66 -55q-17 0 -41 17.5t-39 17.5q-22 0 -38 -29q-3 -6 -12 -6q-6 0 -6 2zM15 287q0 2 29.5 26t72.5 48.5t70 24.5q21 0 21 -21t-6 -55t-12 -57 l-19.5 -72.5t-16.5 -62.5q74 131 134.5 199.5t116.5 68.5q51 0 51 -44q0 -29 -38.5 -145t-38.5 -127q0 -20 19 -20q13 0 34.5 18.5t38 37t17.5 18.5q3 0 7.5 -4.5t4.5 -6.5q0 -5 -24 -31.5t-63.5 -53.5t-72.5 -27q-15 0 -23.5 11.5t-8.5 29.5q0 28 40 135t40 138 q0 12 -6 20.5t-16 8.5q-26 0 -79 -66.5t-100 -141.5q-22 -36 -44 -112q-7 -25 -15 -26q-40 -4 -48 -4q-7 0 -5 10q60 249 60 312q0 18 -13 18q-14 0 -54 -32l-39 -32q-3 0 -8.5 5t-5.5 12z" />
<glyph unicode="&#xf2;" horiz-adv-x="419" d="M218 575q0 31 34 31q21 0 26 -24l26 -125v-3l1 -3q0 -2 -4 -2h-15q-4 0 -7 6l-57 107q-4 7 -4 13zM25 138q0 110 66 184.5t165 74.5q71 0 104.5 -50t33.5 -109q0 -94 -68 -170t-161 -76q-67 0 -103.5 42.5t-36.5 103.5zM87 146q0 -130 80 -130q46 0 85.5 47.5t59 107 t19.5 107.5q0 36 -19 66t-67 30q-57 0 -107.5 -78.5t-50.5 -149.5z" />
<glyph unicode="&#xf3;" horiz-adv-x="419" d="M262 451l3 6l61 123q13 24 32 24q31 0 31 -21q0 -15 -9 -25l-91 -103q-5 -6 -8 -6h-15q-4 0 -4 2zM25 138q0 110 66 184.5t165 74.5q71 0 104.5 -50t33.5 -109q0 -94 -68 -170t-161 -76q-67 0 -103.5 42.5t-36.5 103.5zM87 146q0 -130 80 -130q46 0 85.5 47.5t59 107 t19.5 107.5q0 36 -19 66t-67 30q-57 0 -107.5 -78.5t-50.5 -149.5z" />
<glyph unicode="&#xf4;" horiz-adv-x="419" d="M180 462l4 6l91 104q11 12 20 12h20q7 0 9 -1.5t7 -10.5l53 -104q2 -3 2 -6q0 -2 -5 -2h-12q-1 0 -7 6l-63 62q-3 3 -8 0l-85 -62q-8 -6 -9 -6h-12q-5 0 -5 2zM25 138q0 110 66 184.5t165 74.5q71 0 104.5 -50t33.5 -109q0 -94 -68 -170t-161 -76q-67 0 -103.5 42.5 t-36.5 103.5zM87 146q0 -130 80 -130q46 0 85.5 47.5t59 107t19.5 107.5q0 36 -19 66t-67 30q-57 0 -107.5 -78.5t-50.5 -149.5z" />
<glyph unicode="&#xf5;" horiz-adv-x="419" d="M182 495q2 9 11 25q15 25 32.5 38.5t30.5 13.5q16 0 42 -18t38 -18q21 0 40 33q3 7 13 7q6 0 6 -2q-1 -6 -11 -26q-29 -55 -66 -55q-17 0 -41 17.5t-39 17.5q-22 0 -38 -29q-3 -6 -12 -6q-6 0 -6 2zM25 138q0 110 66 184.5t165 74.5q71 0 104.5 -50t33.5 -109 q0 -94 -68 -170t-161 -76q-67 0 -103.5 42.5t-36.5 103.5zM87 146q0 -130 80 -130q46 0 85.5 47.5t59 107t19.5 107.5q0 36 -19 66t-67 30q-57 0 -107.5 -78.5t-50.5 -149.5z" />
<glyph unicode="&#xf6;" horiz-adv-x="419" d="M179 535q0 20 11 33t30 13q20 0 32 -15t12 -33q0 -20 -11.5 -33t-29.5 -13q-20 0 -32 15t-12 33zM319 535q0 20 11 33t30 13q20 0 32 -15t12 -33q0 -20 -11.5 -33t-29.5 -13q-20 0 -32 15t-12 33zM25 138q0 110 66 184.5t165 74.5q71 0 104.5 -50t33.5 -109 q0 -94 -68 -170t-161 -76q-67 0 -103.5 42.5t-36.5 103.5zM87 146q0 -130 80 -130q46 0 85.5 47.5t59 107t19.5 107.5q0 36 -19 66t-67 30q-57 0 -107.5 -78.5t-50.5 -149.5z" />
<glyph unicode="&#xf7;" horiz-adv-x="527" d="M31 212q0 8 0.5 11.5t4.5 6t13 2.5h431q8 0 11.5 -2.5t4 -6t0.5 -12.5q0 -14 -3 -18.5t-18 -4.5h-427q-9 0 -12.5 3t-4 6.5t-0.5 14.5zM212 320q0 16 12.5 28.5t29.5 12.5q16 0 28 -11.5t12 -28.5t-12 -29t-29 -12t-29 12t-12 28zM217 101q0 16 12 28t29 12 q16 0 28.5 -12.5t12.5 -28.5t-11.5 -28t-28.5 -12t-29.5 12t-12.5 29z" />
<glyph unicode="&#xf8;" horiz-adv-x="419" d="M25 138q0 110 66 184.5t165 74.5q20 0 35 -4q11 -2 14 1q1 1 2 4l31 54q1 2 4 2q5 0 12 -5t6 -7l-30 -52q-4 -7 -4 -9t6 -6q32 -23 47 -61t15 -76q0 -94 -68 -170t-161 -76q-25 0 -49 8q-4 1 -5.5 1.5t-3 0t-2.5 -2l-3 -4.5l-32 -56q-2 -2 -3 -2q-4 0 -11 5t-7 7l1 3 l32 55q4 6 -3 12q-54 42 -54 119zM87 146q0 -57 14 -87q4 -8 5 -8t6 8l169 295q5 10 2 13q-1 1 -4 2q-13 5 -34 5q-57 0 -107.5 -78.5t-50.5 -149.5zM127 39q-5 -9 1 -13q17 -10 39 -10q46 0 85.5 47.5t59 107t19.5 107.5q0 40 -17 64q-4 6 -6 6t-7 -8z" />
<glyph unicode="&#xf9;" horiz-adv-x="521" d="M246 575q0 31 34 31q21 0 26 -24l26 -125v-3l1 -3q0 -2 -4 -2h-15q-4 0 -7 6l-57 107q-4 7 -4 13zM15 256q0 2 12 19t32 41.5t38 43.5q31 31 71 31q22 0 38.5 -9t16.5 -27q0 -13 -32 -132.5t-32 -145.5q0 -23 28 -23q33 0 88 78q72 104 101 199q6 24 12 55q1 4 27 7 q15 2 26 3q9 0 9 -9q0 -5 -27.5 -145.5t-27.5 -152.5q0 -25 19 -25q11 0 31 22.5t36 45t17 22.5q8 0 8 -7q0 -6 -22 -40.5t-57 -70.5t-62 -36q-14 0 -23.5 7.5t-9.5 19.5q0 22 22.5 122.5t26.5 130.5q-1 -3 -10 -22t-26 -50t-33 -55q-104 -158 -173 -158q-55 0 -55 42 q0 11 30.5 125.5t30.5 152.5q0 29 -20 29q-11 0 -34 -24.5t-41.5 -49t-20.5 -24.5q-4 0 -9 3t-5 7z" />
<glyph unicode="&#xfa;" horiz-adv-x="521" d="M290 451l3 6l61 123q13 24 32 24q31 0 31 -21q0 -15 -9 -25l-91 -103q-5 -6 -8 -6h-15q-4 0 -4 2zM15 256q0 2 12 19t32 41.5t38 43.5q31 31 71 31q22 0 38.5 -9t16.5 -27q0 -13 -32 -132.5t-32 -145.5q0 -23 28 -23q33 0 88 78q72 104 101 199q6 24 12 55q1 4 27 7 q15 2 26 3q9 0 9 -9q0 -5 -27.5 -145.5t-27.5 -152.5q0 -25 19 -25q11 0 31 22.5t36 45t17 22.5q8 0 8 -7q0 -6 -22 -40.5t-57 -70.5t-62 -36q-14 0 -23.5 7.5t-9.5 19.5q0 22 22.5 122.5t26.5 130.5q-1 -3 -10 -22t-26 -50t-33 -55q-104 -158 -173 -158q-55 0 -55 42 q0 11 30.5 125.5t30.5 152.5q0 29 -20 29q-11 0 -34 -24.5t-41.5 -49t-20.5 -24.5q-4 0 -9 3t-5 7z" />
<glyph unicode="&#xfb;" horiz-adv-x="521" d="M208 462l4 6l91 104q11 12 20 12h20q7 0 9 -1.5t7 -10.5l53 -104q2 -3 2 -6q0 -2 -5 -2h-12q-1 0 -7 6l-63 62q-3 3 -8 0l-85 -62q-8 -6 -9 -6h-12q-5 0 -5 2zM15 256q0 2 12 19t32 41.5t38 43.5q31 31 71 31q22 0 38.5 -9t16.5 -27q0 -13 -32 -132.5t-32 -145.5 q0 -23 28 -23q33 0 88 78q72 104 101 199q6 24 12 55q1 4 27 7q15 2 26 3q9 0 9 -9q0 -5 -27.5 -145.5t-27.5 -152.5q0 -25 19 -25q11 0 31 22.5t36 45t17 22.5q8 0 8 -7q0 -6 -22 -40.5t-57 -70.5t-62 -36q-14 0 -23.5 7.5t-9.5 19.5q0 22 22.5 122.5t26.5 130.5 q-1 -3 -10 -22t-26 -50t-33 -55q-104 -158 -173 -158q-55 0 -55 42q0 11 30.5 125.5t30.5 152.5q0 29 -20 29q-11 0 -34 -24.5t-41.5 -49t-20.5 -24.5q-4 0 -9 3t-5 7z" />
<glyph unicode="&#xfc;" horiz-adv-x="521" d="M207 535q0 20 11 33t30 13q20 0 32 -15t12 -33q0 -20 -11.5 -33t-29.5 -13q-20 0 -32 15t-12 33zM347 535q0 20 11 33t30 13q20 0 32 -15t12 -33q0 -20 -11.5 -33t-29.5 -13q-20 0 -32 15t-12 33zM15 256q0 2 12 19t32 41.5t38 43.5q31 31 71 31q22 0 38.5 -9t16.5 -27 q0 -13 -32 -132.5t-32 -145.5q0 -23 28 -23q33 0 88 78q72 104 101 199q6 24 12 55q1 4 27 7q15 2 26 3q9 0 9 -9q0 -5 -27.5 -145.5t-27.5 -152.5q0 -25 19 -25q11 0 31 22.5t36 45t17 22.5q8 0 8 -7q0 -6 -22 -40.5t-57 -70.5t-62 -36q-14 0 -23.5 7.5t-9.5 19.5 q0 22 22.5 122.5t26.5 130.5q-1 -3 -10 -22t-26 -50t-33 -55q-104 -158 -173 -158q-55 0 -55 42q0 11 30.5 125.5t30.5 152.5q0 29 -20 29q-11 0 -34 -24.5t-41.5 -49t-20.5 -24.5q-4 0 -9 3t-5 7z" />
<glyph unicode="&#xfd;" horiz-adv-x="422" d="M251 451l3 6l61 123q13 24 32 24q31 0 31 -21q0 -15 -9 -25l-91 -103q-4 -6 -8 -6h-15q-4 0 -4 2zM-13 -262q0 11 4 19t13 13.5t16.5 8t21 6.5t19.5 6q33 12 54 49q37 69 48 105.5t11 71.5q0 320 -69 320q-18 0 -37 -15.5t-31 -30.5t-13 -15t-4.5 1t-6.5 3.5t-3 5.5 q0 4 16.5 26.5t47.5 46t61 23.5q56 0 75 -86q12 -52 20 -241q1 -6 1 -12l35 64.5t48 94t29 74.5t17 101q1 17 11 17q12 0 24 -7t12 -18q0 -5 -2 -17q-12 -76 -148 -311l-29 -49l-10 -19q-82 -157 -101 -190q-11 -20 -39 -37q-58 -35 -74 -35q-8 0 -12.5 9t-4.5 18z" />
<glyph unicode="&#xfe;" horiz-adv-x="430" d="M-44 -256q0 14 3.5 18t15.5 4h16q12 0 16 3.5t6 17.5q26 137 43 243l35 208q44 249 59 374q2 10 -1 14t-13 1q-66 -18 -74 -18q-5 0 -3 20q1 8 2.5 9.5t7.5 3.5q39 9 75.5 18.5l53.5 14t19 4.5q10 0 10 -9q0 -8 -13 -87.5t-37 -209.5t-47 -242q43 107 100 194 q37 57 99 57q44 0 60 -23.5t16 -67.5q0 -110 -74 -204t-151 -94q-11 0 -32 3.5t-24 3.5q-12 0 -13 -8l-32 -209q-5 -23 9 -24q16 -2 40 -4q14 -1 19.5 -1.5t11 -2t7 -4t1.5 -6.5q0 -14 -4.5 -17.5t-15.5 -3.5q-1 0 -27 3.5t-67.5 7t-79.5 3.5q-17 0 -17 10zM125 51 q0 -32 64 -32q33 0 69.5 42.5t60.5 103.5t24 113q0 64 -44 64q-15 0 -29.5 -9.5t-29 -30t-22.5 -34t-22 -41.5l-16 -32q-55 -105 -55 -144z" />
<glyph unicode="&#xff;" horiz-adv-x="422" d="M168 535q0 20 11 33t30 13q20 0 32 -15t12 -33q0 -20 -11.5 -33t-29.5 -13q-20 0 -32 15t-12 33zM308 535q0 20 11 33t30 13q20 0 32 -15t12 -33q0 -20 -11.5 -33t-29.5 -13q-20 0 -32 15t-12 33zM-13 -262q0 11 4 19t13 13.5t16.5 8t21 6.5t19.5 6q33 12 54 49 q37 69 48 105.5t11 71.5q0 320 -69 320q-18 0 -37 -15.5t-31 -30.5t-13 -15t-4.5 1t-6.5 3.5t-3 5.5q0 4 16.5 26.5t47.5 46t61 23.5q56 0 75 -86q12 -52 20 -241q1 -6 1 -12l35 64.5t48 94t29 74.5t17 101q1 17 11 17q12 0 24 -7t12 -18q0 -5 -2 -17q-12 -76 -148 -311 l-29 -49l-10 -19q-82 -157 -101 -190q-11 -20 -39 -37q-58 -35 -74 -35q-8 0 -12.5 9t-4.5 18z" />
<glyph unicode="&#x100;" horiz-adv-x="688" d="M401 788l2 21q1 6 2 7t7 1h181q5 0 6.5 -1t1.5 -6l-2 -23q-5 -8 -8 -8h-181q-7 0 -8.5 1t-0.5 8zM20 15q0 9 3 10.5t15 1.5h33q3 0 72 118l155.5 266t121.5 199q4 5 22.5 24.5t28.5 38.5q7 14 15 14q3 0 5 -1l3 -1.5t2 -3t1 -3.5t1 -5t1 -5q104 -641 116 -641h42 q8 0 9.5 -2t1.5 -11q0 -11 -2 -14t-9 -3q-6 0 -39.5 1.5t-50.5 1.5q-16 0 -58 -1.5t-53 -1.5q-10 0 -12 2.5t-2 15.5q0 9 3 10.5t15 1.5h57q2 0 2 11q0 24 -13.5 121t-14.5 103q-1 14 -4 16.5t-14 2.5h-189q-15 0 -23 -15q-121 -227 -121 -238l1 -1h68q8 0 9.5 -2t1.5 -11 q0 -11 -2 -14t-9 -3q-11 0 -48.5 1.5t-53.5 1.5t-39 -1.5t-34 -1.5q-10 0 -12 2.5t-2 15.5zM284 311q0 -6 18 -6h167q13 0 13 5q0 7 -11 74l-22 131t-12 64q-3 0 -13 -19l-133 -234q-7 -12 -7 -15z" />
<glyph unicode="&#x101;" horiz-adv-x="433" d="M184 518l2 21q1 6 2 7t7 1h181q6 0 7 -1t1 -6l-2 -23q-5 -8 -8 -8h-181q-7 0 -8.5 1t-0.5 8zM25 59q0 46 15 100.5t42 106.5t72 86.5t98 34.5q35 0 56 -30l7.5 -12.5t7.5 -11.5t5 -4t8.5 21t6.5 23q2 6 36 11q21 2 21 -5q0 -3 -40.5 -146.5t-40.5 -169.5q0 -20 14 -20 q9 0 37 28l27 28q3 0 7 -4t4 -10q0 -3 -22 -26t-54 -46.5t-51 -23.5q-27 0 -27 24q0 19 14 72t28 97l15 44q-55 -101 -125 -174q-23 -24 -33.5 -33.5t-28 -19t-34.5 -9.5q-31 0 -48 19.5t-17 49.5zM94 96q0 -53 26 -53q25 0 81.5 62.5t97.5 129.5q15 24 15 54q0 26 -27.5 42 t-54.5 16q-32 0 -65 -46t-53 -105t-20 -100z" />
<glyph unicode="&#x102;" horiz-adv-x="688" d="M415 810q0 28 4 28h13q1 0 1 -2q0 -31 15.5 -45t52.5 -14q53 0 77 32q4 6 7.5 13.5l5.5 11.5t3 4h13q-6 -46 -37.5 -77.5t-76.5 -31.5q-41 0 -59.5 23t-18.5 58zM20 15q0 9 3 10.5t15 1.5h33q3 0 72 118l155.5 266t121.5 199q4 5 22.5 24.5t28.5 38.5q7 14 15 14 q3 0 5 -1l3 -1.5t2 -3t1 -3.5t1 -5t1 -5q104 -641 116 -641h42q8 0 9.5 -2t1.5 -11q0 -11 -2 -14t-9 -3q-6 0 -39.5 1.5t-50.5 1.5q-16 0 -58 -1.5t-53 -1.5q-10 0 -12 2.5t-2 15.5q0 9 3 10.5t15 1.5h57q2 0 2 11q0 24 -13.5 121t-14.5 103q-1 14 -4 16.5t-14 2.5h-189 q-15 0 -23 -15q-121 -227 -121 -238l1 -1h68q8 0 9.5 -2t1.5 -11q0 -11 -2 -14t-9 -3q-11 0 -48.5 1.5t-53.5 1.5t-39 -1.5t-34 -1.5q-10 0 -12 2.5t-2 15.5zM284 311q0 -6 18 -6h167q13 0 13 5q0 7 -11 74l-22 131t-12 64q-3 0 -13 -19l-133 -234q-7 -12 -7 -15z" />
<glyph unicode="&#x103;" horiz-adv-x="433" d="M200 552q0 32 4 32h13q1 0 1 -3q0 -9 2 -21q9 -49 66 -49q52 0 78 40q4 7 7.5 15.5t5 13t2.5 4.5h13q-6 -53 -37.5 -89t-76.5 -36q-41 0 -59.5 26.5t-18.5 66.5zM25 59q0 46 15 100.5t42 106.5t72 86.5t98 34.5q35 0 56 -30l7.5 -12.5t7.5 -11.5t5 -4t8.5 21t6.5 23 q2 6 36 11q21 2 21 -5q0 -3 -40.5 -146.5t-40.5 -169.5q0 -20 14 -20q9 0 37 28l27 28q3 0 7 -4t4 -10q0 -3 -22 -26t-54 -46.5t-51 -23.5q-27 0 -27 24q0 19 14 72t28 97l15 44q-55 -101 -125 -174q-23 -24 -33.5 -33.5t-28 -19t-34.5 -9.5q-31 0 -48 19.5t-17 49.5zM94 96 q0 -53 26 -53q25 0 81.5 62.5t97.5 129.5q15 24 15 54q0 26 -27.5 42t-54.5 16q-32 0 -65 -46t-53 -105t-20 -100z" />
<glyph unicode="&#x104;" horiz-adv-x="688" d="M20 15q0 9 3 10.5t15 1.5h33q3 0 72 118l155.5 266t121.5 199q4 5 22.5 24.5t28.5 38.5q7 14 15 14q3 0 5 -1l3 -1.5t2 -3t1 -3.5t1 -5t1 -5q104 -641 116 -641h42q8 0 9.5 -2t1.5 -11q0 -11 -2 -14t-9 -3q-6 0 -19 0.5t-31 1.5t-29 1q-107 -95 -107 -177 q0 -24 14.5 -44.5t34.5 -20.5t42 11t36 22l14 11q1 0 5 -6t4 -7q0 -3 -19 -19t-55 -34t-72 -18q-30 0 -50.5 26t-20.5 58q0 31 26 70t47 60l71 68q-17 0 -50 -1.5t-42 -1.5q-10 0 -12 2.5t-2 15.5q0 9 3 10.5t15 1.5h57q2 0 2 11q0 24 -13.5 121t-14.5 103q-1 14 -4 16.5 t-14 2.5h-189q-15 0 -23 -15q-121 -227 -121 -238l1 -1h68q8 0 9.5 -2t1.5 -11q0 -11 -2 -14t-9 -3q-11 0 -48.5 1.5t-53.5 1.5t-39 -1.5t-34 -1.5q-10 0 -12 2.5t-2 15.5zM284 311q0 -6 18 -6h167q13 0 13 5q0 7 -11 74l-22 131t-12 64q-3 0 -13 -19l-133 -234 q-7 -12 -7 -15z" />
<glyph unicode="&#x105;" horiz-adv-x="433" d="M25 59q0 46 15 100.5t42 106.5t72 86.5t98 34.5q35 0 56 -30l7.5 -12.5t7.5 -11.5t5 -4t8.5 21t6.5 23q2 6 36 11q21 2 21 -5q0 -3 -40.5 -146.5t-40.5 -169.5q0 -20 14 -20q9 0 37 28l27 28q3 0 7 -4t4 -10q0 -2 -11 -13.5t-30 -29t-36 -30.5q-22 -17 -33 -27 q-91 -89 -91 -162q0 -24 14.5 -44.5t34.5 -20.5t42 11t36 22l14 11q1 0 5 -6t4 -7q0 -3 -19 -19t-55 -34t-72 -18q-30 0 -50.5 26t-20.5 58q0 29 23 65t44.5 58.5t65.5 64.5q-19 3 -19 23q0 19 14 72t28 97l15 44q-55 -101 -125 -174q-23 -24 -33.5 -33.5t-28 -19 t-34.5 -9.5q-31 0 -48 19.5t-17 49.5zM94 96q0 -53 26 -53q25 0 81.5 62.5t97.5 129.5q15 24 15 54q0 26 -27.5 42t-54.5 16q-32 0 -65 -46t-53 -105t-20 -100z" />
<glyph unicode="&#x106;" horiz-adv-x="686" d="M389 731l3 6l66 85q20 25 38 25q26 0 26 -21q0 -18 -18 -31l-83 -60q-8 -6 -9 -6h-19q-4 0 -4 2zM35 291q0 160 108 270t255 110q62 0 120 -24.5t92 -62.5l12 41q8 0 18.5 -3.5t10.5 -7.5q0 -3 -7.5 -41l-17 -84t-10.5 -54q-1 -5 -13 -5q-9 0 -16 4t-7 7q0 1 11.5 46.5 t11.5 50.5t-28 29.5t-79 50t-99 25.5q-75 0 -139 -56t-98.5 -137t-34.5 -162q0 -123 69.5 -195.5t172.5 -72.5q47 0 91 16.5t67 33.5t26 26q10 29 25 84q3 9 8 10.5t15 -1.5q17 -4 17 -11q0 -6 -33 -116q-5 -18 -81.5 -47t-141.5 -29q-64 0 -119.5 16.5t-103 50.5t-75 95 t-27.5 143z" />
<glyph unicode="&#x107;" horiz-adv-x="402" d="M250 451l3 6l61 123q13 24 32 24q31 0 31 -21q0 -15 -9 -25l-91 -103q-5 -6 -8 -6h-15q-4 0 -4 2zM25 128q0 114 71 188.5t150 74.5q58 0 86 -31q22 -24 22 -56q0 -21 -12 -35t-31 -14q-22 0 -22 37q0 4 0.5 12t0.5 12q0 20 -11.5 34t-35.5 14q-28 0 -57 -18.5t-49 -48.5 q-47 -71 -47 -153q0 -16 2.5 -28.5t11 -32.5t32 -31.5t60.5 -11.5q38 0 76.5 19.5t61.5 39t24 19.5q3 0 7.5 -5t4.5 -9q0 -5 -30 -31.5t-82 -54t-96 -27.5q-73 0 -105 40t-32 97z" />
<glyph unicode="&#x108;" horiz-adv-x="686" d="M295 731q0 1 4 5l91 92q11 11 20 11h20q7 0 9 -1.5t7 -9.5l53 -92q2 -3 2 -5t-5 -2h-12q-1 0 -7 6l-63 52q-3 3 -8 0l-85 -52q-2 -1 -4 -2.5t-3 -2.5l-2 -1h-12q-5 0 -5 2zM35 291q0 160 108 270t255 110q62 0 120 -24.5t92 -62.5l12 41q8 0 18.5 -3.5t10.5 -7.5 q0 -3 -7.5 -41l-17 -84t-10.5 -54q-1 -5 -13 -5q-9 0 -16 4t-7 7q0 1 11.5 46.5t11.5 50.5t-28 29.5t-79 50t-99 25.5q-75 0 -139 -56t-98.5 -137t-34.5 -162q0 -123 69.5 -195.5t172.5 -72.5q47 0 91 16.5t67 33.5t26 26q10 29 25 84q3 9 8 10.5t15 -1.5q17 -4 17 -11 q0 -6 -33 -116q-5 -18 -81.5 -47t-141.5 -29q-64 0 -119.5 16.5t-103 50.5t-75 95t-27.5 143z" />
<glyph unicode="&#x109;" horiz-adv-x="402" d="M168 462l4 6l91 104q11 12 20 12h20q7 0 9 -1.5t7 -10.5l53 -104q2 -3 2 -6q0 -2 -5 -2h-12q-1 0 -7 6l-63 62q-3 3 -8 0l-85 -62q-8 -6 -9 -6h-12q-5 0 -5 2zM25 128q0 114 71 188.5t150 74.5q58 0 86 -31q22 -24 22 -56q0 -21 -12 -35t-31 -14q-22 0 -22 37q0 4 0.5 12 t0.5 12q0 20 -11.5 34t-35.5 14q-28 0 -57 -18.5t-49 -48.5q-47 -71 -47 -153q0 -16 2.5 -28.5t11 -32.5t32 -31.5t60.5 -11.5q38 0 76.5 19.5t61.5 39t24 19.5q3 0 7.5 -5t4.5 -9q0 -5 -30 -31.5t-82 -54t-96 -27.5q-73 0 -105 40t-32 97z" />
<glyph unicode="&#x10a;" horiz-adv-x="686" d="M366 790q0 20 11 33t30 13q20 0 32 -15t12 -33q0 -20 -11.5 -33t-29.5 -13q-20 0 -32 15t-12 33zM35 291q0 160 108 270t255 110q62 0 120 -24.5t92 -62.5l12 41q8 0 18.5 -3.5t10.5 -7.5q0 -3 -7.5 -41l-17 -84t-10.5 -54q-1 -5 -13 -5q-9 0 -16 4t-7 7q0 1 11.5 46.5 t11.5 50.5t-28 29.5t-79 50t-99 25.5q-75 0 -139 -56t-98.5 -137t-34.5 -162q0 -123 69.5 -195.5t172.5 -72.5q47 0 91 16.5t67 33.5t26 26q10 29 25 84q3 9 8 10.5t15 -1.5q17 -4 17 -11q0 -6 -33 -116q-5 -18 -81.5 -47t-141.5 -29q-64 0 -119.5 16.5t-103 50.5t-75 95 t-27.5 143z" />
<glyph unicode="&#x10b;" horiz-adv-x="402" d="M236 540q0 20 11 33t30 13q20 0 32 -15t12 -33q0 -20 -11.5 -33t-29.5 -13q-20 0 -32 15t-12 33zM25 128q0 114 71 188.5t150 74.5q58 0 86 -31q22 -24 22 -56q0 -21 -12 -35t-31 -14q-22 0 -22 37q0 4 0.5 12t0.5 12q0 20 -11.5 34t-35.5 14q-28 0 -57 -18.5t-49 -48.5 q-47 -71 -47 -153q0 -16 2.5 -28.5t11 -32.5t32 -31.5t60.5 -11.5q38 0 76.5 19.5t61.5 39t24 19.5q3 0 7.5 -5t4.5 -9q0 -5 -30 -31.5t-82 -54t-96 -27.5q-73 0 -105 40t-32 97z" />
<glyph unicode="&#x10c;" horiz-adv-x="686" d="M318 837q0 2 5 2h12q1 0 7 -6l63 -52q3 -3 8 0l85 52q2 1 4 2.5t4 2.5l1 1h12q5 0 5 -2q0 -1 -4 -5l-91 -92q-11 -11 -20 -11h-20q-7 0 -9 1.5t-7 9.5l-53 92q-2 3 -2 5zM35 291q0 160 108 270t255 110q62 0 120 -24.5t92 -62.5l12 41q8 0 18.5 -3.5t10.5 -7.5 q0 -3 -7.5 -41l-17 -84t-10.5 -54q-1 -5 -13 -5q-9 0 -16 4t-7 7q0 1 11.5 46.5t11.5 50.5t-28 29.5t-79 50t-99 25.5q-75 0 -139 -56t-98.5 -137t-34.5 -162q0 -123 69.5 -195.5t172.5 -72.5q47 0 91 16.5t67 33.5t26 26q10 29 25 84q3 9 8 10.5t15 -1.5q17 -4 17 -11 q0 -6 -33 -116q-5 -18 -81.5 -47t-141.5 -29q-64 0 -119.5 16.5t-103 50.5t-75 95t-27.5 143z" />
<glyph unicode="&#x10d;" horiz-adv-x="402" d="M189 582q0 2 5 2h12q1 0 7 -6l63 -62q3 -3 8 0l85 62q7 6 9 6h12q5 0 5 -2l-4 -6l-91 -104q-11 -12 -20 -12h-20q-7 0 -9 1.5t-7 10.5l-53 104q-2 3 -2 6zM25 128q0 114 71 188.5t150 74.5q58 0 86 -31q22 -24 22 -56q0 -21 -12 -35t-31 -14q-22 0 -22 37q0 4 0.5 12 t0.5 12q0 20 -11.5 34t-35.5 14q-28 0 -57 -18.5t-49 -48.5q-47 -71 -47 -153q0 -16 2.5 -28.5t11 -32.5t32 -31.5t60.5 -11.5q38 0 76.5 19.5t61.5 39t24 19.5q3 0 7.5 -5t4.5 -9q0 -5 -30 -31.5t-82 -54t-96 -27.5q-73 0 -105 40t-32 97z" />
<glyph unicode="&#x10e;" horiz-adv-x="742" d="M266 837q0 2 5 2h12q1 0 7 -6l63 -52q3 -3 8 0l85 52q2 1 4 2.5t4 2.5l1 1h12q5 0 5 -2q0 -1 -4 -5l-91 -92q-11 -11 -20 -11h-20q-7 0 -9 1.5t-7 9.5l-53 92q-2 3 -2 5zM19 10q0 11 3 13t14 2h43q5 0 42.5 261.5t45.5 338.5q2 11 -4 11l-70 -2q-5 0 -7.5 0.5t-4 3 t-1.5 8.5v6t0.5 4.5t2 3.5t4 1.5t6.5 0.5h24t51.5 -0.5t43.5 -0.5q33 0 75.5 1t56.5 1q165 0 261.5 -80t96.5 -248q0 -158 -102 -247.5t-248 -91.5q-32 0 -112 2t-113 2q-16 0 -55 -2t-42 -2q-8 0 -9.5 2t-1.5 12zM171 46q0 -13 6 -17t59 -4q97 0 170 27t111 64t61.5 88 t29.5 87.5t6 73.5q0 123 -74.5 196.5t-223.5 73.5q-49 0 -63 -4l-9 -56l-20 -137.5l-24 -165t-20.5 -148.5t-8.5 -78z" />
<glyph unicode="&#x10f;" horiz-adv-x="473" d="M478 495q0 3 6 25.5l15 57.5l13 51q9 32 34 32q26 0 26 -23q0 -9 -13 -35l-55 -98q-6 -12 -9 -12h-15q-2 0 -2 2zM25 74q0 34 14.5 83.5t40 100t68 86t92.5 35.5q17 0 33.5 -3t25 -6.5t18 -8.5t10.5 -5q9 -4 12 -2t5 12q6 31 15 91.5l15.5 107t6.5 47.5q5 17 -4 17 q-2 0 -44 -10.5t-45 -10.5q-5 0 -3 21q1 8 2.5 9.5t7.5 3.5q39 8 76 17.5t55 14.5t20 5q11 0 11 -15q0 -3 -50 -288t-50 -316q0 -15 13 -15t35.5 18.5t39.5 36.5t18 18q3 0 6.5 -3t3.5 -5q0 -5 -22 -32t-61.5 -56t-75.5 -29q-12 0 -19.5 9.5t-7.5 25.5q0 18 10.5 70.5 t20.5 95.5l10 43q-38 -72 -89 -139l-30.5 -39t-29 -30.5t-37 -25t-40.5 -7.5q-10 0 -19.5 2t-24.5 9t-24 24t-9 43zM91 102q0 -56 46 -56q41 0 138 140q54 82 54 118q0 14 -29 33.5t-60 19.5q-41 0 -77 -49t-54 -107t-18 -99z" />
<glyph unicode="&#x110;" horiz-adv-x="742" d="M19 10q0 11 3 13t14 2h43q5 0 46 285q1 8 -1 9.5t-11 1.5h-64q-2 0 -2.5 12t2.5 12h71q10 0 11 12q27 188 36 268q2 11 -4 11l-70 -2q-5 0 -7.5 0.5t-4 3t-1.5 8.5v6t0.5 4.5t2 3.5t4 1.5t6.5 0.5h24t51.5 -0.5t43.5 -0.5q33 0 75.5 1t56.5 1q165 0 261.5 -80t96.5 -248 q0 -158 -102 -247.5t-248 -91.5q-32 0 -112 2t-113 2q-16 0 -55 -2t-42 -2q-8 0 -9.5 2t-1.5 12zM171 46q0 -13 6 -17t59 -4q97 0 170 27t111 64t61.5 88t29.5 87.5t6 73.5q0 123 -74.5 196.5t-223.5 73.5q-49 0 -63 -4l-41 -274q-1 -7 0 -9.5t8 -2.5h196q3 0 3 -12t-3 -12 h-197q-9 0 -11 -1.5t-3 -9.5q-34 -236 -34 -264z" />
<glyph unicode="&#x111;" horiz-adv-x="473" d="M25 74q0 34 14.5 83.5t40 100t68 86t92.5 35.5q17 0 33.5 -3t25 -6.5t18 -8.5t10.5 -5q9 -4 12 -2t5 12q10 54 18 110q1 6 0 7t-8 1h-145q-2 0 -2.5 12t2.5 12h148q9 0 10 7l6.5 46.5t5.5 37t2 13.5q5 17 -4 17q-2 0 -44 -10.5t-45 -10.5q-5 0 -3 21q1 8 2.5 9.5t7.5 3.5 q39 8 76 17.5t55 14.5t20 5q11 0 11 -15q0 -2 -25 -148q-1 -6 -0.5 -7t7.5 -1h61q3 0 3 -12t-3 -12h-64q-7 0 -8.5 -1t-2.5 -7q-68 -387 -68 -416q0 -15 13 -15t35.5 18.5t39.5 36.5t18 18q3 0 6.5 -3t3.5 -5q0 -5 -22 -32t-61.5 -56t-75.5 -29q-12 0 -19.5 9.5t-7.5 25.5 q0 18 10.5 70.5t20.5 95.5l10 43q-38 -72 -89 -139l-30.5 -39t-29 -30.5t-37 -25t-40.5 -7.5q-10 0 -19.5 2t-24.5 9t-24 24t-9 43zM91 102q0 -56 46 -56q41 0 138 140q54 82 54 118q0 14 -29 33.5t-60 19.5q-41 0 -77 -49t-54 -107t-18 -99z" />
<glyph unicode="&#x112;" horiz-adv-x="579" d="M252 788l2 21q1 6 2 7t7 1h181q6 0 7 -1t1 -6l-2 -23q-5 -8 -8 -8h-181q-7 0 -8.5 1t-0.5 8zM20 15q0 9 3 10.5t15 1.5h43q83 519 83 599q0 10 -3 10h-55q-7 0 -10.5 0.5t-6 4t-2.5 10.5q0 14 12 14l47 -1q46 -2 67 -2q28 0 108.5 1.5t100.5 1.5q55 0 74.5 2.5t20.5 10.5 q1 12 13 12q11 0 14 -2t3 -9q0 -4 -4 -41t-5 -84q0 -6 -3 -8t-13 -2q-15 0 -15 14q0 2 3 36t3 37q0 7 -263 7q-5 0 -41 -269q-2 -11 -0.5 -14t14.5 -3h164q45 0 47 13l11 53q1 7 16 7q13 0 13 -6q0 -4 -2.5 -17t-7 -34l-7.5 -36q-7 -39 -15 -89q-1 -7 -13 -7q-17 0 -17 8 q1 7 4 23.5t5.5 29t2.5 14.5q0 8 -10 11t-40 3h-151q-9 0 -12 -0.5t-5 -2.5t-3 -7q-3 -13 -19.5 -129t-19.5 -147q0 -9 7 -9l319 7q4 0 10 16.5t14.5 43t13.5 37.5q4 9 14 9q17 0 17 -11q0 -5 -5.5 -21l-17 -47.5t-19.5 -55.5q-4 -11 -17 -11q-11 0 -179 1.5t-184 1.5 t-54 -1.5t-49 -1.5q-10 0 -12 2.5t-2 15.5z" />
<glyph unicode="&#x113;" horiz-adv-x="390" d="M183 518l2 21q1 6 2 7t7 1h181q5 0 6.5 -1t1.5 -6l-2 -23q-5 -8 -8 -8h-181q-7 0 -8.5 1t-0.5 8zM25 105q0 114 73 200t172 86q93 0 93 -66q0 -43 -35 -77t-88 -54q-65 -24 -141 -24q-8 0 -8 -46q0 -89 96 -89q42 0 82 21.5t63.5 43.5t24.5 22q4 0 8.5 -5t4.5 -9 q0 -2 -11 -13.5t-32 -28t-47 -32.5t-61 -27.5t-68 -11.5q-55 0 -90.5 27.5t-35.5 82.5zM106 200q0 -7 10 -7q74 0 128 36.5t54 96.5q0 19 -14 30t-36 11q-82 0 -128 -122q-14 -35 -14 -45z" />
<glyph unicode="&#x114;" horiz-adv-x="579" d="M266 810q0 28 4 28h13q1 0 1 -2q0 -31 15.5 -45t52.5 -14q53 0 77 32q4 6 7.5 13.5l5.5 11.5t3 4h13q-6 -46 -37.5 -77.5t-76.5 -31.5q-41 0 -59.5 23t-18.5 58zM20 15q0 9 3 10.5t15 1.5h43q83 519 83 599q0 10 -3 10h-55q-7 0 -10.5 0.5t-6 4t-2.5 10.5q0 14 12 14 l47 -1q46 -2 67 -2q28 0 108.5 1.5t100.5 1.5q55 0 74.5 2.5t20.5 10.5q1 12 13 12q11 0 14 -2t3 -9q0 -4 -4 -41t-5 -84q0 -6 -3 -8t-13 -2q-15 0 -15 14q0 2 3 36t3 37q0 7 -263 7q-5 0 -41 -269q-2 -11 -0.5 -14t14.5 -3h164q45 0 47 13l11 53q1 7 16 7q13 0 13 -6 q0 -4 -2.5 -17t-7 -34l-7.5 -36q-7 -39 -15 -89q-1 -7 -13 -7q-17 0 -17 8q1 7 4 23.5t5.5 29t2.5 14.5q0 8 -10 11t-40 3h-151q-9 0 -12 -0.5t-5 -2.5t-3 -7q-3 -13 -19.5 -129t-19.5 -147q0 -9 7 -9l319 7q4 0 10 16.5t14.5 43t13.5 37.5q4 9 14 9q17 0 17 -11 q0 -5 -5.5 -21l-17 -47.5t-19.5 -55.5q-4 -11 -17 -11q-11 0 -179 1.5t-184 1.5t-54 -1.5t-49 -1.5q-10 0 -12 2.5t-2 15.5z" />
<glyph unicode="&#x115;" horiz-adv-x="390" d="M199 552q0 32 4 32h13q1 0 1 -3q0 -9 2 -21q9 -49 66 -49q52 0 78 40q4 7 7.5 15.5t5 13t2.5 4.5h13q-6 -53 -37.5 -89t-76.5 -36q-41 0 -59.5 26.5t-18.5 66.5zM25 105q0 114 73 200t172 86q93 0 93 -66q0 -43 -35 -77t-88 -54q-65 -24 -141 -24q-8 0 -8 -46 q0 -89 96 -89q42 0 82 21.5t63.5 43.5t24.5 22q4 0 8.5 -5t4.5 -9q0 -2 -11 -13.5t-32 -28t-47 -32.5t-61 -27.5t-68 -11.5q-55 0 -90.5 27.5t-35.5 82.5zM106 200q0 -7 10 -7q74 0 128 36.5t54 96.5q0 19 -14 30t-36 11q-82 0 -128 -122q-14 -35 -14 -45z" />
<glyph unicode="&#x116;" horiz-adv-x="579" d="M310 790q0 20 11 33t30 13q20 0 32 -15t12 -33q0 -20 -11.5 -33t-29.5 -13q-20 0 -32 15t-12 33zM20 15q0 9 3 10.5t15 1.5h43q83 519 83 599q0 10 -3 10h-55q-7 0 -10.5 0.5t-6 4t-2.5 10.5q0 14 12 14l47 -1q46 -2 67 -2q28 0 108.5 1.5t100.5 1.5q55 0 74.5 2.5 t20.5 10.5q1 12 13 12q11 0 14 -2t3 -9q0 -4 -4 -41t-5 -84q0 -6 -3 -8t-13 -2q-15 0 -15 14q0 2 3 36t3 37q0 7 -263 7q-5 0 -41 -269q-2 -11 -0.5 -14t14.5 -3h164q45 0 47 13l11 53q1 7 16 7q13 0 13 -6q0 -4 -2.5 -17t-7 -34l-7.5 -36q-7 -39 -15 -89q-1 -7 -13 -7 q-17 0 -17 8q1 7 4 23.5t5.5 29t2.5 14.5q0 8 -10 11t-40 3h-151q-9 0 -12 -0.5t-5 -2.5t-3 -7q-3 -13 -19.5 -129t-19.5 -147q0 -9 7 -9l319 7q4 0 10 16.5t14.5 43t13.5 37.5q4 9 14 9q17 0 17 -11q0 -5 -5.5 -21l-17 -47.5t-19.5 -55.5q-4 -11 -17 -11q-11 0 -179 1.5 t-184 1.5t-54 -1.5t-49 -1.5q-10 0 -12 2.5t-2 15.5z" />
<glyph unicode="&#x117;" horiz-adv-x="390" d="M241 540q0 20 11 33t30 13q20 0 32 -15t12 -33q0 -20 -11.5 -33t-29.5 -13q-20 0 -32 15t-12 33zM25 105q0 114 73 200t172 86q93 0 93 -66q0 -43 -35 -77t-88 -54q-65 -24 -141 -24q-8 0 -8 -46q0 -89 96 -89q42 0 82 21.5t63.5 43.5t24.5 22q4 0 8.5 -5t4.5 -9 q0 -2 -11 -13.5t-32 -28t-47 -32.5t-61 -27.5t-68 -11.5q-55 0 -90.5 27.5t-35.5 82.5zM106 200q0 -7 10 -7q74 0 128 36.5t54 96.5q0 19 -14 30t-36 11q-82 0 -128 -122q-14 -35 -14 -45z" />
<glyph unicode="&#x118;" horiz-adv-x="579" d="M20 15q0 9 3 10.5t15 1.5h43q83 519 83 599q0 10 -3 10h-55q-7 0 -10.5 0.5t-6 4t-2.5 10.5q0 14 12 14l47 -1q46 -2 67 -2q28 0 108.5 1.5t100.5 1.5q55 0 74.5 2.5t20.5 10.5q1 12 13 12q11 0 14 -2t3 -9q0 -4 -4 -41t-5 -84q0 -6 -3 -8t-13 -2q-15 0 -15 14q0 2 3 36 t3 37q0 7 -263 7q-5 0 -41 -269q-2 -11 -0.5 -14t14.5 -3h164q45 0 47 13l11 53q1 7 16 7q13 0 13 -6q0 -4 -2.5 -17t-7 -34l-7.5 -36q-7 -39 -15 -89q-1 -7 -13 -7q-17 0 -17 8q1 7 4 23.5t5.5 29t2.5 14.5q0 8 -10 11t-40 3h-151q-9 0 -12 -0.5t-5 -2.5t-3 -7 q-3 -13 -19.5 -129t-19.5 -147q0 -9 7 -9l319 7q4 0 10 16.5t14.5 43t13.5 37.5q4 9 14 9q17 0 17 -11q0 -5 -5.5 -21l-17 -47.5t-19.5 -55.5q-4 -11 -17 -11h-62q-101 -109 -101 -174t47 -65q20 0 42 11t36 22l14 11q1 0 5 -6t4 -7q0 -3 -19 -19t-55 -34t-72 -18 q-31 0 -50 21t-19 56q0 73 143 203q-202 2 -276 2q-16 0 -54 -1.5t-49 -1.5q-10 0 -12 2.5t-2 15.5z" />
<glyph unicode="&#x119;" horiz-adv-x="390" d="M25 105q0 114 73 200t172 86q93 0 93 -66q0 -43 -35 -77t-88 -54q-65 -24 -141 -24q-8 0 -8 -46q0 -89 96 -89q42 0 82 21.5t63.5 43.5t24.5 22q4 0 8.5 -5t4.5 -9q0 -5 -33 -33t-50 -46q-48 -49 -87 -107t-39 -99q0 -65 47 -65q20 0 42 11t36 22l14 11q1 0 5 -6t4 -7 q0 -3 -19 -19t-55 -34t-72 -18q-31 0 -50 21t-19 56q0 11 2.5 22t9.5 24.5l12.5 23.5t18 26l19.5 25t23.5 27l23 25l25 26.5l23.5 24.5q-51 -24 -100 -24q-55 0 -90.5 27.5t-35.5 82.5zM106 200q0 -7 10 -7q74 0 128 36.5t54 96.5q0 19 -14 30t-36 11q-82 0 -128 -122 q-14 -35 -14 -45z" />
<glyph unicode="&#x11a;" horiz-adv-x="579" d="M262 837q0 2 5 2h12q1 0 7 -6l63 -52q3 -3 8 0l85 52q2 1 4 2.5t4 2.5l1 1h12q5 0 5 -2q0 -1 -4 -5l-91 -92q-11 -11 -20 -11h-20q-7 0 -9 1.5t-7 9.5l-53 92q-2 3 -2 5zM20 15q0 9 3 10.5t15 1.5h43q83 519 83 599q0 10 -3 10h-55q-7 0 -10.5 0.5t-6 4t-2.5 10.5 q0 14 12 14l47 -1q46 -2 67 -2q28 0 108.5 1.5t100.5 1.5q55 0 74.5 2.5t20.5 10.5q1 12 13 12q11 0 14 -2t3 -9q0 -4 -4 -41t-5 -84q0 -6 -3 -8t-13 -2q-15 0 -15 14q0 2 3 36t3 37q0 7 -263 7q-5 0 -41 -269q-2 -11 -0.5 -14t14.5 -3h164q45 0 47 13l11 53q1 7 16 7 q13 0 13 -6q0 -4 -2.5 -17t-7 -34l-7.5 -36q-7 -39 -15 -89q-1 -7 -13 -7q-17 0 -17 8q1 7 4 23.5t5.5 29t2.5 14.5q0 8 -10 11t-40 3h-151q-9 0 -12 -0.5t-5 -2.5t-3 -7q-3 -13 -19.5 -129t-19.5 -147q0 -9 7 -9l319 7q4 0 10 16.5t14.5 43t13.5 37.5q4 9 14 9q17 0 17 -11 q0 -5 -5.5 -21l-17 -47.5t-19.5 -55.5q-4 -11 -17 -11q-11 0 -179 1.5t-184 1.5t-54 -1.5t-49 -1.5q-10 0 -12 2.5t-2 15.5z" />
<glyph unicode="&#x11b;" horiz-adv-x="390" d="M194 582q0 2 5 2h12q1 0 7 -6l63 -62q3 -3 8 0l85 62q8 6 9 6h12q5 0 5 -2l-4 -6l-91 -104q-11 -12 -20 -12h-20q-7 0 -9 1.5t-7 10.5l-53 104q-2 3 -2 6zM25 105q0 114 73 200t172 86q93 0 93 -66q0 -43 -35 -77t-88 -54q-65 -24 -141 -24q-8 0 -8 -46q0 -89 96 -89 q42 0 82 21.5t63.5 43.5t24.5 22q4 0 8.5 -5t4.5 -9q0 -2 -11 -13.5t-32 -28t-47 -32.5t-61 -27.5t-68 -11.5q-55 0 -90.5 27.5t-35.5 82.5zM106 200q0 -7 10 -7q74 0 128 36.5t54 96.5q0 19 -14 30t-36 11q-82 0 -128 -122q-14 -35 -14 -45z" />
<glyph unicode="&#x11c;" horiz-adv-x="721" d="M309 731q0 1 4 5l91 92q11 11 20 11h20q7 0 9 -1.5t7 -9.5l53 -92q2 -3 2 -5t-5 -2h-12q-1 0 -7 6l-63 52q-3 3 -8 0l-85 -52q-2 -1 -4 -2.5t-3 -2.5l-2 -1h-12q-5 0 -5 2zM35 266q0 108 51.5 203t138.5 150.5t186 55.5q26 0 51.5 -3.5t46.5 -8.5t39.5 -12t33 -13.5 t24.5 -11.5l16 -8l6 -4q1 0 6 27q3 11 11 11q9 0 15.5 -2t5.5 -7q-13 -84 -23 -175l-1.5 -7.5t-4 -4.5t-9.5 -2q-22 0 -18 16q1 5 8.5 49.5t7.5 50.5q0 5 -35.5 24t-87.5 37.5t-88 18.5q-78 0 -145.5 -57.5t-103.5 -143.5t-36 -173q0 -122 67 -195t165 -73q65 0 111.5 21.5 t51.5 40.5q15 55 18 136q1 14 -9 14h-85q-8 0 -8 12q0 18 9 18q16 0 64 -1.5t66 -1.5q17 0 49.5 1.5t53.5 1.5q8 0 8 -14q0 -16 -8 -16h-57q-2 0 -19 -146q-1 -10 -44.5 -33.5t-116.5 -45t-138 -21.5q-28 0 -59 6t-70.5 26t-70 50.5t-52 85t-21.5 124.5z" />
<glyph unicode="&#x11d;" horiz-adv-x="426" d="M146 460l4 6l91 104q11 12 20 12h20q7 0 9 -1.5t7 -10.5l53 -104q2 -3 2 -6q0 -2 -5 -2h-12q-1 0 -7 6l-63 62q-3 3 -8 0l-85 -62q-8 -6 -9 -6h-12q-5 0 -5 2zM-6 -157q0 39 29.5 67t61.5 42q12 6 12 8q0 1 -3 2.5t-7.5 3.5t-7.5 4q-25 18 -25 33q0 7 18 35.5t27 31.5 l60 22l6 3q0 2 -7 4q-14 4 -28 11.5t-31.5 22t-28 40t-10.5 57.5q0 70 51.5 119.5t125.5 49.5q18 0 35 -4.5t28 -11.5t19 -13.5t12 -11t5 -4.5q2 0 7.5 11.5t12 26.5t8.5 19q5 9 21 9q27 0 27 -11q0 -12 -11.5 -33t-23 -38t-11.5 -18q0 -6 3 -13q7 -18 7 -40q0 -73 -53 -121 q-26 -24 -51.5 -35t-74.5 -24q-93 -27 -93 -47q0 -9 10.5 -16t37 -13.5t41.5 -9t55 -8.5q17 -3 26 -4q65 -11 98 -30.5t33 -64.5q0 -75 -67 -110t-173 -35q-44 0 -79.5 7t-63.5 29t-28 58zM36 -151q0 -21 18 -36.5t46.5 -22t53.5 -9.5t50 -3q62 0 101 22.5t39 66.5 q0 32 -26 46t-78 23q-98 17 -107 17q-8 0 -32 -11q-65 -32 -65 -93zM123 229q0 -60 24.5 -87t49.5 -27q40 0 78.5 48.5t38.5 115.5q0 37 -22 67t-56 30q-50 0 -81.5 -48.5t-31.5 -98.5z" />
<glyph unicode="&#x11e;" horiz-adv-x="721" d="M336 810q0 28 4 28h13q1 0 1 -2q0 -31 15.5 -45t52.5 -14q53 0 77 32q4 6 7.5 13.5l5.5 11.5t3 4h13q-6 -46 -37.5 -77.5t-76.5 -31.5q-41 0 -59.5 23t-18.5 58zM35 266q0 108 51.5 203t138.5 150.5t186 55.5q26 0 51.5 -3.5t46.5 -8.5t39.5 -12t33 -13.5t24.5 -11.5 l16 -8l6 -4q1 0 6 27q3 11 11 11q9 0 15.5 -2t5.5 -7q-13 -84 -23 -175l-1.5 -7.5t-4 -4.5t-9.5 -2q-22 0 -18 16q1 5 8.5 49.5t7.5 50.5q0 5 -35.5 24t-87.5 37.5t-88 18.5q-78 0 -145.5 -57.5t-103.5 -143.5t-36 -173q0 -122 67 -195t165 -73q65 0 111.5 21.5t51.5 40.5 q15 55 18 136q1 14 -9 14h-85q-8 0 -8 12q0 18 9 18q16 0 64 -1.5t66 -1.5q17 0 49.5 1.5t53.5 1.5q8 0 8 -14q0 -16 -8 -16h-57q-2 0 -19 -146q-1 -10 -44.5 -33.5t-116.5 -45t-138 -21.5q-28 0 -59 6t-70.5 26t-70 50.5t-52 85t-21.5 124.5z" />
<glyph unicode="&#x11f;" horiz-adv-x="426" d="M172 550q0 32 4 32h13q1 0 1 -3q0 -9 2 -21q9 -49 66 -49q52 0 78 40q4 7 7.5 15.5t5 13t2.5 4.5h13q-6 -53 -37.5 -89t-76.5 -36q-41 0 -59.5 26.5t-18.5 66.5zM-6 -157q0 39 29.5 67t61.5 42q12 6 12 8q0 1 -3 2.5t-7.5 3.5t-7.5 4q-25 18 -25 33q0 7 18 35.5t27 31.5 l60 22l6 3q0 2 -7 4q-14 4 -28 11.5t-31.5 22t-28 40t-10.5 57.5q0 70 51.5 119.5t125.5 49.5q18 0 35 -4.5t28 -11.5t19 -13.5t12 -11t5 -4.5q2 0 7.5 11.5t12 26.5t8.5 19q5 9 21 9q27 0 27 -11q0 -12 -11.5 -33t-23 -38t-11.5 -18q0 -6 3 -13q7 -18 7 -40q0 -73 -53 -121 q-26 -24 -51.5 -35t-74.5 -24q-93 -27 -93 -47q0 -9 10.5 -16t37 -13.5t41.5 -9t55 -8.5q17 -3 26 -4q65 -11 98 -30.5t33 -64.5q0 -75 -67 -110t-173 -35q-44 0 -79.5 7t-63.5 29t-28 58zM36 -151q0 -21 18 -36.5t46.5 -22t53.5 -9.5t50 -3q62 0 101 22.5t39 66.5 q0 32 -26 46t-78 23q-98 17 -107 17q-8 0 -32 -11q-65 -32 -65 -93zM123 229q0 -60 24.5 -87t49.5 -27q40 0 78.5 48.5t38.5 115.5q0 37 -22 67t-56 30q-50 0 -81.5 -48.5t-31.5 -98.5z" />
<glyph unicode="&#x120;" horiz-adv-x="721" d="M380 790q0 20 11 33t30 13q20 0 32 -15t12 -33q0 -20 -11.5 -33t-29.5 -13q-20 0 -32 15t-12 33zM35 266q0 108 51.5 203t138.5 150.5t186 55.5q26 0 51.5 -3.5t46.5 -8.5t39.5 -12t33 -13.5t24.5 -11.5l16 -8l6 -4q1 0 6 27q3 11 11 11q9 0 15.5 -2t5.5 -7 q-13 -84 -23 -175l-1.5 -7.5t-4 -4.5t-9.5 -2q-22 0 -18 16q1 5 8.5 49.5t7.5 50.5q0 5 -35.5 24t-87.5 37.5t-88 18.5q-78 0 -145.5 -57.5t-103.5 -143.5t-36 -173q0 -122 67 -195t165 -73q65 0 111.5 21.5t51.5 40.5q15 55 18 136q1 14 -9 14h-85q-8 0 -8 12q0 18 9 18 q16 0 64 -1.5t66 -1.5q17 0 49.5 1.5t53.5 1.5q8 0 8 -14q0 -16 -8 -16h-57q-2 0 -19 -146q-1 -10 -44.5 -33.5t-116.5 -45t-138 -21.5q-28 0 -59 6t-70.5 26t-70 50.5t-52 85t-21.5 124.5z" />
<glyph unicode="&#x121;" horiz-adv-x="426" d="M214 538q0 20 11 33t30 13q20 0 32 -15t12 -33q0 -20 -11.5 -33t-29.5 -13q-20 0 -32 15t-12 33zM-6 -157q0 39 29.5 67t61.5 42q12 6 12 8q0 1 -3 2.5t-7.5 3.5t-7.5 4q-25 18 -25 33q0 7 18 35.5t27 31.5l60 22l6 3q0 2 -7 4q-14 4 -28 11.5t-31.5 22t-28 40 t-10.5 57.5q0 70 51.5 119.5t125.5 49.5q18 0 35 -4.5t28 -11.5t19 -13.5t12 -11t5 -4.5q2 0 7.5 11.5t12 26.5t8.5 19q5 9 21 9q27 0 27 -11q0 -12 -11.5 -33t-23 -38t-11.5 -18q0 -6 3 -13q7 -18 7 -40q0 -73 -53 -121q-26 -24 -51.5 -35t-74.5 -24q-93 -27 -93 -47 q0 -9 10.5 -16t37 -13.5t41.5 -9t55 -8.5q17 -3 26 -4q65 -11 98 -30.5t33 -64.5q0 -75 -67 -110t-173 -35q-44 0 -79.5 7t-63.5 29t-28 58zM36 -151q0 -21 18 -36.5t46.5 -22t53.5 -9.5t50 -3q62 0 101 22.5t39 66.5q0 32 -26 46t-78 23q-98 17 -107 17q-8 0 -32 -11 q-65 -32 -65 -93zM123 229q0 -60 24.5 -87t49.5 -27q40 0 78.5 48.5t38.5 115.5q0 37 -22 67t-56 30q-50 0 -81.5 -48.5t-31.5 -98.5z" />
<glyph unicode="&#x122;" horiz-adv-x="721" d="M235 -207q0 1 14 8.5t27 21t13 28.5q0 18 -17 34.5t-17 19.5q0 11 19.5 22.5t24.5 11.5q10 0 27 -17.5t17 -30.5q0 -30 -26 -58t-49 -41.5t-26 -13.5q-7 0 -7 13v2zM35 266q0 108 51.5 203t138.5 150.5t186 55.5q26 0 51.5 -3.5t46.5 -8.5t39.5 -12t33 -13.5t24.5 -11.5 l16 -8l6 -4q1 0 6 27q3 11 11 11q9 0 15.5 -2t5.5 -7q-13 -84 -23 -175l-1.5 -7.5t-4 -4.5t-9.5 -2q-22 0 -18 16q1 5 8.5 49.5t7.5 50.5q0 5 -35.5 24t-87.5 37.5t-88 18.5q-78 0 -145.5 -57.5t-103.5 -143.5t-36 -173q0 -122 67 -195t165 -73q65 0 111.5 21.5t51.5 40.5 q15 55 18 136q1 14 -9 14h-85q-8 0 -8 12q0 18 9 18q16 0 64 -1.5t66 -1.5q17 0 49.5 1.5t53.5 1.5q8 0 8 -14q0 -16 -8 -16h-57q-2 0 -19 -146q-1 -10 -44.5 -33.5t-116.5 -45t-138 -21.5q-28 0 -59 6t-70.5 26t-70 50.5t-52 85t-21.5 124.5z" />
<glyph unicode="&#x123;" horiz-adv-x="426" d="M208 498q0 30 26 58t49 41.5t26 13.5q7 0 7 -13v-2q0 -1 -14 -8.5t-27 -21t-13 -28.5q0 -18 17 -34.5t17 -19.5q0 -11 -19.5 -22.5t-24.5 -11.5q-10 0 -27 17.5t-17 30.5zM-6 -157q0 39 29.5 67t61.5 42q12 6 12 8q0 1 -3 2.5t-7.5 3.5t-7.5 4q-25 18 -25 33q0 7 18 35.5 t27 31.5l60 22l6 3q0 2 -7 4q-14 4 -28 11.5t-31.5 22t-28 40t-10.5 57.5q0 70 51.5 119.5t125.5 49.5q18 0 35 -4.5t28 -11.5t19 -13.5t12 -11t5 -4.5q2 0 7.5 11.5t12 26.5t8.5 19q5 9 21 9q27 0 27 -11q0 -12 -11.5 -33t-23 -38t-11.5 -18q0 -6 3 -13q7 -18 7 -40 q0 -73 -53 -121q-26 -24 -51.5 -35t-74.5 -24q-93 -27 -93 -47q0 -9 10.5 -16t37 -13.5t41.5 -9t55 -8.5q17 -3 26 -4q65 -11 98 -30.5t33 -64.5q0 -75 -67 -110t-173 -35q-44 0 -79.5 7t-63.5 29t-28 58zM36 -151q0 -21 18 -36.5t46.5 -22t53.5 -9.5t50 -3q62 0 101 22.5 t39 66.5q0 32 -26 46t-78 23q-98 17 -107 17q-8 0 -32 -11q-65 -32 -65 -93zM123 229q0 -60 24.5 -87t49.5 -27q40 0 78.5 48.5t38.5 115.5q0 37 -22 67t-56 30q-50 0 -81.5 -48.5t-31.5 -98.5z" />
<glyph unicode="&#x124;" horiz-adv-x="795" d="M341 731q0 1 4 5l91 92q11 11 20 11h20q7 0 9 -1.5t7 -9.5l53 -92q2 -3 2 -5t-5 -2h-12q-1 0 -7 6l-63 52q-3 3 -8 0l-85 -52q-2 -1 -4 -2.5t-3 -2.5l-2 -1h-12q-5 0 -5 2zM20 13q0 9 3 11.5t15 2.5h53q7 0 48 282t41 314q0 16 -9 16h-61q-12 0 -12 15q0 7 2.5 10.5 t5.5 4t11 0.5q6 0 47.5 -1.5t58.5 -1.5q16 0 53 1.5t48 1.5q10 0 12 -2.5t2 -15.5q0 -9 -3 -10.5t-15 -1.5h-50q-8 0 -47 -270q-2 -11 -0.5 -15t12.5 -4h332q8 0 11 0.5t5.5 3t3.5 8.5q30 232 30 261q0 16 -9 16h-61q-12 0 -12 15q0 7 2.5 10.5t5.5 4t11 0.5q6 0 48 -1.5 t59 -1.5q16 0 52.5 1.5t47.5 1.5q10 0 12 -2.5t2 -15.5q0 -9 -2.5 -10.5t-15.5 -1.5h-50q-10 0 -47 -288.5t-37 -310.5q0 -13 8 -13h57q8 0 9.5 -2t1.5 -11q0 -11 -2 -14t-9 -3q-11 0 -54.5 1.5t-59.5 1.5t-50 -1.5t-45 -1.5q-10 0 -12 2.5t-2 15.5q0 9 2.5 10.5t15.5 1.5 h53q5 0 44 287q1 8 -1.5 10t-13.5 2h-334q-9 0 -12.5 -3t-4.5 -13q-32 -235 -32 -270q0 -13 8 -13h59q8 0 9.5 -2t1.5 -11q0 -11 -2 -14t-9 -3q-11 0 -54 1.5t-59 1.5t-53.5 -1.5t-48.5 -1.5q-9 0 -11.5 3t-2.5 13z" />
<glyph unicode="&#x125;" horiz-adv-x="468" d="M85 731q0 1 4 5l91 92q11 11 20 11h20q7 0 9 -1.5t7 -9.5l53 -92q2 -3 2 -5t-5 -2h-12q-1 0 -7 6l-63 52q-3 3 -8 0l-85 -52q-2 -1 -4 -2.5t-3 -2.5l-2 -1h-12q-5 0 -5 2zM25 6q0 2 7 33.5t18 88l23.5 127t26 168.5t23.5 196q2 19 -4 19q-10 0 -49 -14l-38 -13 q-3 0 -3 14q0 13 7 16q30 11 83 22.5t72 11.5q6 0 6 -15q-5 -101 -93 -537q47 110 115 192q56 68 124 68q26 0 42.5 -12t16.5 -36q0 -37 -33.5 -147.5t-33.5 -120.5q0 -22 21 -22q11 0 34 21.5t41.5 43.5t19.5 22q2 0 7 -4t5 -6q0 -5 -22 -33.5t-60.5 -58.5t-72.5 -30 q-18 0 -29.5 10.5t-11.5 27.5q0 14 36.5 127.5t36.5 141.5q0 17 -9 28t-25 11q-33 0 -66.5 -40t-74.5 -107q-46 -77 -54 -108l-20 -82q-2 -11 -58 -11q-8 0 -8 8z" />
<glyph unicode="&#x126;" horiz-adv-x="795" d="M20 13q0 9 3 11.5t15 2.5h53q11 0 72 451q1 10 -7 10h-74q-2 0 -2.5 12t2.5 12h74h6.5t3.5 1t2.5 3t0.5 6q11 83 11 101q0 16 -9 16h-61q-12 0 -12 15q0 7 2.5 10.5t5.5 4t11 0.5q6 0 47.5 -1.5t58.5 -1.5q16 0 53 1.5t48 1.5q10 0 12 -2.5t2 -15.5q0 -9 -3 -10.5 t-15 -1.5h-50q-5 0 -24 -115q-2 -7 -0.5 -9.5t8.5 -2.5h342q7 0 8.5 2t2.5 10q10 85 10 99q0 16 -9 16h-61q-12 0 -12 15q0 7 2.5 10.5t5.5 4t11 0.5q6 0 48 -1.5t59 -1.5q16 0 52.5 1.5t47.5 1.5q10 0 12 -2.5t2 -15.5q0 -9 -2.5 -10.5t-15.5 -1.5h-50q-6 0 -23 -115 q-1 -8 0 -10t8 -2h61q3 0 3 -12t-3 -12h-65q-9 0 -10 -9l-24.5 -186.5l-22 -177t-8.5 -75.5q0 -13 8 -13h57q8 0 9.5 -2t1.5 -11q0 -11 -2 -14t-9 -3q-11 0 -54.5 1.5t-59.5 1.5t-50 -1.5t-45 -1.5q-10 0 -12 2.5t-2 15.5q0 9 2.5 10.5t15.5 1.5h53q5 0 44 287q1 8 -1.5 10 t-13.5 2h-334q-9 0 -12.5 -3t-4.5 -13q-32 -235 -32 -270q0 -13 8 -13h59q8 0 9.5 -2t1.5 -11q0 -11 -2 -14t-9 -3q-11 0 -54 1.5t-59 1.5t-53.5 -1.5t-48.5 -1.5q-9 0 -11.5 3t-2.5 13zM222 358q0 -8 13 -8h332q8 0 11 0.5t5.5 3t3.5 8.5l15 117v4l1 2q0 3 -8 3h-345 q-7 0 -8.5 -1.5t-2.5 -8.5l-16 -109q-1 -5 -1 -11z" />
<glyph unicode="&#x127;" horiz-adv-x="468" d="M11 497q0 11 3 11h87q7 0 8.5 1.5t2.5 8.5q8 66 11 101q2 19 -4 19q-10 0 -49 -14l-38 -13q-3 0 -3 14q0 13 7 16q30 11 83 22.5t72 11.5q6 0 6 -15q-3 -46 -19 -142q-1 -7 -0.5 -8.5t8.5 -1.5h149q3 0 3 -12t-3 -12h-151q-8 0 -10 -1t-3 -9q-10 -61 -67 -351 q47 110 115 192q56 68 124 68q26 0 42.5 -12t16.5 -36q0 -37 -33.5 -147.5t-33.5 -120.5q0 -22 21 -22q11 0 34 21.5t41.5 43.5t19.5 22q2 0 7 -4t5 -6q0 -5 -22 -33.5t-60.5 -58.5t-72.5 -30q-18 0 -29.5 10.5t-11.5 27.5q0 14 36.5 127.5t36.5 141.5q0 17 -9 28t-25 11 q-33 0 -66.5 -40t-74.5 -107q-46 -77 -54 -108l-20 -82q-2 -11 -58 -11q-8 0 -8 8q0 1 12.5 59.5t33.5 173.5t36 235q1 8 -0.5 9t-9.5 1h-83q-3 0 -3 13z" />
<glyph unicode="&#x128;" horiz-adv-x="377" d="M142 745q2 9 11 25q15 25 32.5 38.5t30.5 13.5q16 0 42 -18t38 -18q21 0 40 33q3 7 13 7q6 0 6 -2q-1 -6 -11 -26q-29 -55 -66 -55q-17 0 -41 17.5t-39 17.5q-22 0 -38 -29q-3 -6 -12 -6q-6 0 -6 2zM20 15q0 9 3 10.5t15 1.5h60q5 0 47 279t42 317q0 16 -9 16h-66 q-12 0 -12 15q0 7 2.5 10.5t5.5 4t11 0.5q6 0 52 -1.5t63 -1.5q16 0 57 1.5t52 1.5q10 0 12 -2.5t2 -15.5q0 -9 -2.5 -10.5t-15.5 -1.5h-57q-9 0 -48.5 -275.5t-39.5 -323.5q0 -13 8 -13h66q8 0 9.5 -2t1.5 -11q0 -11 -2 -14t-9 -3q-11 0 -58 1.5t-63 1.5t-59 -1.5t-54 -1.5 q-10 0 -12 2.5t-2 15.5z" />
<glyph unicode="&#x129;" horiz-adv-x="270" d="M78 495q2 9 11 25q15 25 32.5 38.5t30.5 13.5q16 0 42 -18t38 -18q21 0 40 33q3 7 13 7q6 0 6 -2q-1 -6 -11 -26q-29 -55 -66 -55q-17 0 -41 17.5t-39 17.5q-22 0 -38 -29q-3 -6 -12 -6q-6 0 -6 2zM25 282q0 4 29.5 28.5t67 48.5t54.5 24q20 0 20 -22q0 -26 -32.5 -150 t-32.5 -136q0 -20 13 -20q8 0 27 16t35 32t17 16q3 0 7.5 -5t4.5 -7q0 -12 -64.5 -62.5t-86.5 -50.5q-24 0 -24 18q0 24 35.5 145t35.5 153q0 18 -12 18q-11 0 -30.5 -15t-35 -29.5t-16.5 -14.5q-4 0 -8 4.5t-4 8.5z" />
<glyph unicode="&#x12a;" horiz-adv-x="377" d="M150 788l2 21q1 6 2 7t7 1h181q6 0 7 -1t1 -6l-2 -23q-5 -8 -8 -8h-181q-7 0 -8.5 1t-0.5 8zM20 15q0 9 3 10.5t15 1.5h60q5 0 47 279t42 317q0 16 -9 16h-66q-12 0 -12 15q0 7 2.5 10.5t5.5 4t11 0.5q6 0 52 -1.5t63 -1.5q16 0 57 1.5t52 1.5q10 0 12 -2.5t2 -15.5 q0 -9 -2.5 -10.5t-15.5 -1.5h-57q-9 0 -48.5 -275.5t-39.5 -323.5q0 -13 8 -13h66q8 0 9.5 -2t1.5 -11q0 -11 -2 -14t-9 -3q-11 0 -58 1.5t-63 1.5t-59 -1.5t-54 -1.5q-10 0 -12 2.5t-2 15.5z" />
<glyph unicode="&#x12b;" horiz-adv-x="270" d="M86 518l2 21q1 6 2 7t7 1h181q6 0 7 -1t1 -6l-2 -23q-5 -8 -8 -8h-181q-7 0 -8.5 1t-0.5 8zM25 282q0 4 29.5 28.5t67 48.5t54.5 24q20 0 20 -22q0 -26 -32.5 -150t-32.5 -136q0 -20 13 -20q8 0 27 16t35 32t17 16q3 0 7.5 -5t4.5 -7q0 -12 -64.5 -62.5t-86.5 -50.5 q-24 0 -24 18q0 24 35.5 145t35.5 153q0 18 -12 18q-11 0 -30.5 -15t-35 -29.5t-16.5 -14.5q-4 0 -8 4.5t-4 8.5z" />
<glyph unicode="&#x12c;" horiz-adv-x="377" d="M164 810q0 28 4 28h13q1 0 1 -2q0 -31 15.5 -45t52.5 -14q53 0 77 32q4 6 7.5 13.5l5.5 11.5t3 4h13q-6 -46 -37.5 -77.5t-76.5 -31.5q-41 0 -59.5 23t-18.5 58zM20 15q0 9 3 10.5t15 1.5h60q5 0 47 279t42 317q0 16 -9 16h-66q-12 0 -12 15q0 7 2.5 10.5t5.5 4t11 0.5 q6 0 52 -1.5t63 -1.5q16 0 57 1.5t52 1.5q10 0 12 -2.5t2 -15.5q0 -9 -2.5 -10.5t-15.5 -1.5h-57q-9 0 -48.5 -275.5t-39.5 -323.5q0 -13 8 -13h66q8 0 9.5 -2t1.5 -11q0 -11 -2 -14t-9 -3q-11 0 -58 1.5t-63 1.5t-59 -1.5t-54 -1.5q-10 0 -12 2.5t-2 15.5z" />
<glyph unicode="&#x12d;" horiz-adv-x="270" d="M102 552q0 32 4 32h13q1 0 1 -3q0 -9 2 -21q9 -49 66 -49q52 0 78 40q4 7 7.5 15.5t5 13t2.5 4.5h13q-6 -53 -37.5 -89t-76.5 -36q-41 0 -59.5 26.5t-18.5 66.5zM25 282q0 4 29.5 28.5t67 48.5t54.5 24q20 0 20 -22q0 -26 -32.5 -150t-32.5 -136q0 -20 13 -20q8 0 27 16 t35 32t17 16q3 0 7.5 -5t4.5 -7q0 -12 -64.5 -62.5t-86.5 -50.5q-24 0 -24 18q0 24 35.5 145t35.5 153q0 18 -12 18q-11 0 -30.5 -15t-35 -29.5t-16.5 -14.5q-4 0 -8 4.5t-4 8.5z" />
<glyph unicode="&#x12e;" horiz-adv-x="377" d="M10 -205q0 65 124 205q-96 -3 -100 -3q-10 0 -12 2.5t-2 15.5q0 9 3 10.5t15 1.5h60q5 0 47 279t42 317q0 16 -9 16h-66q-12 0 -12 15q0 7 2.5 10.5t5.5 4t11 0.5q6 0 52 -1.5t63 -1.5q16 0 57 1.5t52 1.5q10 0 12 -2.5t2 -15.5q0 -9 -2.5 -10.5t-15.5 -1.5h-57 q-9 0 -48.5 -275.5t-39.5 -323.5q0 -13 8 -13h66q8 0 9.5 -2t1.5 -11q0 -11 -2 -14t-9 -3q-11 0 -110 3q-40 -52 -60.5 -93t-20.5 -88q0 -61 47 -61q20 0 42 11t36 22l14 11q1 0 5 -6t4 -7q0 -3 -19 -19t-55 -34t-72 -18q-31 0 -50 21t-19 56z" />
<glyph unicode="&#x12f;" horiz-adv-x="270" d="M-40 -205q0 27 23.5 66t45 63.5t67.5 72.5q-8 -3 -12 -3q-24 0 -24 18q0 24 35.5 145t35.5 153q0 18 -12 18q-11 0 -30.5 -15t-35 -29.5t-16.5 -14.5q-4 0 -8 4.5t-4 8.5t29.5 28.5t67 48.5t54.5 24q20 0 20 -22q0 -26 -32.5 -150t-32.5 -136q0 -20 13 -20q8 0 27 16 t35 32t17 16q3 0 7.5 -5t4.5 -7q0 -11 -55 -55q-24 -19 -49 -47q-104 -119 -104 -182q0 -65 47 -65q20 0 42 11t36 22l14 11q1 0 5 -6t4 -7q0 -3 -19 -19t-55 -34t-72 -18q-31 0 -50 21t-19 56zM128 549q0 20 11 33t30 13q20 0 32 -15t12 -33q0 -20 -11.5 -33t-29.5 -13 q-20 0 -32 15t-12 33z" />
<glyph unicode="&#x130;" horiz-adv-x="377" d="M208 790q0 20 11 33t30 13q20 0 32 -15t12 -33q0 -20 -11.5 -33t-29.5 -13q-20 0 -32 15t-12 33zM20 15q0 9 3 10.5t15 1.5h60q5 0 47 279t42 317q0 16 -9 16h-66q-12 0 -12 15q0 7 2.5 10.5t5.5 4t11 0.5q6 0 52 -1.5t63 -1.5q16 0 57 1.5t52 1.5q10 0 12 -2.5t2 -15.5 q0 -9 -2.5 -10.5t-15.5 -1.5h-57q-9 0 -48.5 -275.5t-39.5 -323.5q0 -13 8 -13h66q8 0 9.5 -2t1.5 -11q0 -11 -2 -14t-9 -3q-11 0 -58 1.5t-63 1.5t-59 -1.5t-54 -1.5q-10 0 -12 2.5t-2 15.5z" />
<glyph unicode="&#x131;" horiz-adv-x="270" d="M25 282q0 4 29.5 28.5t67 48.5t54.5 24q20 0 20 -22q0 -26 -32.5 -150t-32.5 -136q0 -20 13 -20q8 0 27 16t35 32t17 16q3 0 7.5 -5t4.5 -7q0 -12 -64.5 -62.5t-86.5 -50.5q-24 0 -24 18q0 24 35.5 145t35.5 153q0 18 -12 18q-11 0 -30.5 -15t-35 -29.5t-16.5 -14.5 q-4 0 -8 4.5t-4 8.5z" />
<glyph unicode="&#x132;" horiz-adv-x="677" d="M254 -188q0 23 28.5 43.5t38.5 20.5q7 0 24 -10.5t28 -10.5q6 0 11.5 2.5t9.5 8.5t7 12t5.5 16.5t4.5 18t3.5 21t2.5 20.5t2 21.5t2 19.5q11 106 30.5 260l33.5 257t14 109q0 18 -10 18h-68q-8 0 -11 0.5t-6 4t-3 10.5t2.5 10.5t6 4t11.5 0.5q6 0 56 -1.5t67 -1.5 q16 0 52 1.5t47 1.5q10 0 12 -2.5t2 -15.5q0 -9 -2.5 -10.5t-15.5 -1.5h-50q-5 0 -20 -101t-34.5 -253.5t-19.5 -154.5q-16 -121 -35 -173q-23 -62 -64 -105q-60 -64 -109 -64q-19 0 -36 7t-17 17zM20 15q0 9 3 10.5t15 1.5h60q5 0 47 279t42 317q0 16 -9 16h-66 q-12 0 -12 15q0 7 2.5 10.5t5.5 4t11 0.5q6 0 52 -1.5t63 -1.5q16 0 57 1.5t52 1.5q10 0 12 -2.5t2 -15.5q0 -9 -2.5 -10.5t-15.5 -1.5h-57q-9 0 -48.5 -275.5t-39.5 -323.5q0 -13 8 -13h66q8 0 9.5 -2t1.5 -11q0 -11 -2 -14t-9 -3q-11 0 -58 1.5t-63 1.5t-59 -1.5t-54 -1.5 q-10 0 -12 2.5t-2 15.5z" />
<glyph unicode="&#x133;" horiz-adv-x="567" d="M201 -221q0 15 10 25.5t25 10.5q18 0 38 -12.5t37 -12.5q10 0 17.5 7.5t14 26.5t9.5 31.5t9 42.5q19 93 43 242t24 170q0 18 -12 18q-11 0 -35 -22t-43.5 -44.5t-20.5 -22.5q-4 0 -8 3.5t-4 7.5t30 36t71.5 64.5t66.5 32.5q21 0 21 -24q0 -21 -12.5 -103t-27 -167 t-15.5 -92q-7 -45 -14 -73.5t-28.5 -72.5t-53.5 -68q-52 -38 -87 -38q-24 0 -39.5 11t-15.5 23zM427 579q0 20 11 33t30 13q20 0 32 -15t12 -33q0 -20 -11.5 -33t-29.5 -13q-20 0 -32 15t-12 33zM25 282q0 4 29.5 28.5t67 48.5t54.5 24q20 0 20 -22q0 -26 -32.5 -150 t-32.5 -136q0 -20 13 -20q8 0 27 16t35 32t17 16q3 0 7.5 -5t4.5 -7q0 -12 -64.5 -62.5t-86.5 -50.5q-24 0 -24 18q0 24 35.5 145t35.5 153q0 18 -12 18q-11 0 -30.5 -15t-35 -29.5t-16.5 -14.5q-4 0 -8 4.5t-4 8.5zM128 549q0 20 11 33t30 13q20 0 32 -15t12 -33 q0 -20 -11.5 -33t-29.5 -13q-20 0 -32 15t-12 33z" />
<glyph unicode="&#x134;" horiz-adv-x="365" d="M124 731q0 1 4 5l91 92q11 11 20 11h20q7 0 9 -1.5t7 -9.5l53 -92q2 -3 2 -5t-5 -2h-12q-1 0 -7 6l-63 52q-3 3 -8 0l-85 -52q-2 -1 -4 -2.5t-4 -2.5l-1 -1h-12q-5 0 -5 2zM-58 -188q0 23 28.5 43.5t38.5 20.5q7 0 24 -10.5t28 -10.5q6 0 11.5 2.5t9.5 8.5t7 12t5.5 16.5 t4.5 18t3.5 21t2.5 20.5t2 21.5t2 19.5q11 106 30.5 260l33.5 257t14 109q0 18 -10 18h-68q-8 0 -11 0.5t-6 4t-3 10.5t2.5 10.5t6 4t11.5 0.5q6 0 56 -1.5t67 -1.5q16 0 52 1.5t47 1.5q10 0 12 -2.5t2 -15.5q0 -9 -2.5 -10.5t-15.5 -1.5h-50q-5 0 -20 -101t-34.5 -253.5 t-19.5 -154.5q-16 -121 -35 -173q-23 -62 -64 -105q-60 -64 -109 -64q-19 0 -36 7t-17 17z" />
<glyph unicode="&#x135;" horiz-adv-x="297" d="M77 462l4 6l91 104q11 12 20 12h20q7 0 9 -1.5t7 -10.5l53 -104q2 -3 2 -6q0 -2 -5 -2h-12q-1 0 -7 6l-63 62q-3 3 -8 0l-85 -62q-7 -6 -9 -6h-12q-5 0 -5 2zM-69 -221q0 15 10 25.5t25 10.5q18 0 38 -12.5t37 -12.5q10 0 17.5 7.5t14 26.5t9.5 31.5t9 42.5q19 93 43 242 t24 170q0 18 -12 18q-11 0 -35 -22t-43.5 -44.5t-20.5 -22.5q-4 0 -8 3.5t-4 7.5t30 36t71.5 64.5t66.5 32.5q21 0 21 -24q0 -21 -12.5 -103t-27 -167t-15.5 -92q-7 -45 -14 -73.5t-28.5 -72.5t-53.5 -68q-52 -38 -87 -38q-24 0 -39.5 11t-15.5 23z" />
<glyph unicode="&#x136;" horiz-adv-x="656" d="M249 -207q0 1 14 8.5t27 21t13 28.5q0 18 -17 34.5t-17 19.5q0 11 19.5 22.5t24.5 11.5q10 0 27 -17.5t17 -30.5q0 -30 -26 -58t-49 -41.5t-26 -13.5q-7 0 -7 13v2zM20 13q0 9 3 11.5t15 2.5h33q7 0 50.5 282t43.5 314q0 16 -9 16h-57q-12 0 -12 15q0 7 2.5 10.5t5.5 4 t11 0.5q6 0 45.5 -1.5t56.5 -1.5q16 0 48 1.5t43 1.5q10 0 12 -2.5t2 -15.5q0 -9 -2.5 -10.5t-15.5 -1.5h-35q-10 0 -33 -127t-25 -154q-2 -20 13 -20h50q8 0 93 108.5t130 171.5q10 15 10 16q0 5 -15 5h-21q-7 0 -10.5 0.5t-6 4t-2.5 10.5t2.5 10.5t5.5 4t11 0.5 q6 0 29 -1.5t40 -1.5q16 0 42.5 1.5t37.5 1.5q10 0 12 -2.5t2 -15.5q0 -9 -2.5 -10.5t-15.5 -1.5h-58q-82 -110 -218 -261q-3 -3 -6 -6.5t-5.5 -5.5t-4 -4t-1.5 -3q0 -3 9 -12q24 -22 56 -60.5t56 -70l66 -89.5l61 -83q12 -17 35 -17h28q8 0 9.5 -2t1.5 -11q0 -11 -2 -14 t-9 -3q-11 0 -54.5 1.5t-59.5 1.5t-41.5 -1.5t-36.5 -1.5q-10 0 -12 2.5t-2 15.5q0 9 2.5 10.5t15.5 1.5h8q20 0 20 7q0 4 -12 20q-187 266 -196 266h-46h-8t-4.5 -2.5t-3.5 -7.5q-4 -33 -14.5 -101t-16.5 -112.5t-6 -58.5q0 -11 2 -11h69q8 0 9.5 -2t1.5 -11q0 -11 -2 -14 t-9 -3q-11 0 -54 1.5t-59 1.5t-43.5 -1.5t-38.5 -1.5q-9 0 -11.5 3t-2.5 13z" />
<glyph unicode="&#x137;" horiz-adv-x="450" d="M128 -207q0 1 14 8.5t27 21t13 28.5q0 18 -17 34.5t-17 19.5q0 11 19.5 22.5t24.5 11.5q10 0 27 -17.5t17 -30.5q0 -30 -26 -58t-49 -41.5t-26 -13.5q-7 0 -7 13v2zM25 -3q0 8 21 107t48.5 249.5t38.5 269.5q0 9 -7 9q-8 0 -75 -19q-6 -1 -7.5 2t0.5 17q2 8 6 9l77.5 20 l53.5 14t19 4q14 0 14 -11q0 -16 -97 -489q36 69 72 117q33 43 66.5 64t82.5 21q59 0 59 -37q0 -42 -32.5 -78t-67.5 -53t-65 -24q-21 -3 -21 -4l4 -2q4 -2 10.5 -6.5t12.5 -9.5q47 -45 73 -77q16 -20 24 -28.5t22.5 -16.5t31.5 -8q34 0 34 27q0 4 -1 10.5t-1 9.5q0 12 8 12 t14.5 -10.5t6.5 -32.5t-38.5 -38.5t-72.5 -16.5q-22 0 -43 20q-11 10 -23.5 25t-29 37.5t-24.5 32.5q-10 13 -23.5 28.5t-20 24t-6.5 9.5q0 5 17 22q2 2 10 2q16 0 28 5q37 17 71 53.5t34 70.5q0 20 -31 20q-29 0 -63 -32q-9 -9 -18.5 -20t-20.5 -26.5l-18.5 -26.5 l-21.5 -33t-21 -32q-17 -27 -24 -58q-15 -64 -21 -98q-3 -22 -10 -22q-1 0 -11 -1.5t-22 -3t-17 -1.5t-5 3z" />
<glyph unicode="&#x138;" horiz-adv-x="491" d="M25 291q0 11 50.5 53t79.5 42q18 0 18 -20q0 -67 -31 -211q58 101 88 141q33 43 66.5 64t82.5 21q59 0 59 -37q0 -42 -32.5 -78t-67.5 -53t-65 -24q-21 -3 -21 -4l4 -2q4 -2 10.5 -6.5t12.5 -9.5q47 -45 73 -77q16 -20 24 -28.5t22.5 -16.5t31.5 -8q34 0 34 27 q0 4 -1 10.5t-1 9.5q0 12 8 12t14.5 -10.5t6.5 -32.5t-38.5 -38.5t-72.5 -16.5q-22 0 -43 20q-11 10 -23.5 25t-29 37.5t-24.5 32.5q-10 13 -23.5 28.5t-20 24t-6.5 9.5q0 5 17 22q2 2 10 2q15 0 28 5q37 17 71 53.5t34 70.5q0 20 -31 20q-29 0 -63 -32q-9 -9 -18.5 -20 t-20.5 -26.5l-18.5 -26.5l-21.5 -33t-21 -32q-17 -27 -24 -58q-15 -64 -21 -98q-3 -22 -10 -22q-1 0 -11 -1.5t-22 -3t-17 -1.5q-7 0 -5 9q1 3 9.5 48.5l16.5 87.5t15 88.5t7 65.5q0 38 -13 38q-11 0 -27 -12.5t-27.5 -25.5t-12.5 -13q-9 0 -9 11z" />
<glyph unicode="&#x139;" horiz-adv-x="586" d="M204 731l3 6l66 85q20 25 38 25q26 0 26 -21q0 -18 -18 -31l-83 -60q-8 -6 -9 -6h-19q-4 0 -4 2zM20 15q0 9 2.5 10.5t14.5 1.5h52q1 0 20 142.5l38 292t19 164.5q0 13 -2 13h-58q-10 0 -13 2.5t-3 12.5t3.5 12.5t16.5 2.5q6 0 43.5 -1.5t54.5 -1.5q16 0 57.5 1.5 t52.5 1.5q12 0 14.5 -2t2.5 -13q0 -9 -3 -12t-15 -3h-62l-19 -144l-39 -290t-19 -152q0 -22 17 -22q231 0 291 6q12 1 15 4t8 19l25 77q3 8 11 8q21 0 21 -10q0 -3 -5 -19l-14.5 -47t-17.5 -61q-2 -11 -20 -11q-11 0 -185.5 1.5t-190.5 1.5t-52.5 -1.5t-47.5 -1.5 q-10 0 -11.5 2.5t-1.5 15.5z" />
<glyph unicode="&#x13a;" horiz-adv-x="272" d="M196 731l3 6l66 85q20 25 38 25q26 0 26 -21q0 -18 -18 -31l-83 -60q-8 -6 -9 -6h-19q-4 0 -4 2zM55 28q0 6 18 106.5l42 243t35 234.5q2 10 -1 14t-13 1q-66 -18 -74 -18q-5 0 -3 20q1 8 2.5 9.5t7.5 3.5q39 9 75.5 18.5l53.5 14t19 4.5q10 0 10 -9q0 -12 -50 -305.5 t-50 -296.5q0 -21 14 -21q12 0 36 21t43.5 42t20.5 21q3 0 9.5 -5.5t6.5 -7.5q0 -4 -28 -34.5t-71.5 -62t-73.5 -31.5q-29 0 -29 38z" />
<glyph unicode="&#x13b;" horiz-adv-x="586" d="M236 -207q0 1 14 8.5t27 21t13 28.5q0 18 -17 34.5t-17 19.5q0 11 19.5 22.5t24.5 11.5q10 0 27 -17.5t17 -30.5q0 -30 -26 -58t-49 -41.5t-26 -13.5q-7 0 -7 13v2zM20 15q0 9 2.5 10.5t14.5 1.5h52q1 0 20 142.5l38 292t19 164.5q0 13 -2 13h-58q-10 0 -13 2.5t-3 12.5 t3.5 12.5t16.5 2.5q6 0 43.5 -1.5t54.5 -1.5q16 0 57.5 1.5t52.5 1.5q12 0 14.5 -2t2.5 -13q0 -9 -3 -12t-15 -3h-62l-19 -144l-39 -290t-19 -152q0 -22 17 -22q231 0 291 6q12 1 15 4t8 19l25 77q3 8 11 8q21 0 21 -10q0 -3 -5 -19l-14.5 -47t-17.5 -61q-2 -11 -20 -11 q-11 0 -185.5 1.5t-190.5 1.5t-52.5 -1.5t-47.5 -1.5q-10 0 -11.5 2.5t-1.5 15.5z" />
<glyph unicode="&#x13c;" horiz-adv-x="272" d="M17 -207q0 1 14 8.5t27 21t13 28.5q0 18 -17 34.5t-17 19.5q0 11 19.5 22.5t24.5 11.5q10 0 27 -17.5t17 -30.5q0 -30 -26 -58t-49 -41.5t-26 -13.5q-7 0 -7 13v2zM55 28q0 6 18 106.5l42 243t35 234.5q2 10 -1 14t-13 1q-66 -18 -74 -18q-5 0 -3 20q1 8 2.5 9.5t7.5 3.5 q39 9 75.5 18.5l53.5 14t19 4.5q10 0 10 -9q0 -12 -50 -305.5t-50 -296.5q0 -21 14 -21q12 0 36 21t43.5 42t20.5 21q3 0 9.5 -5.5t6.5 -7.5q0 -4 -28 -34.5t-71.5 -62t-73.5 -31.5q-29 0 -29 38z" />
<glyph unicode="&#x13d;" horiz-adv-x="586" d="M367 495q0 3 6 25.5l15 57.5l13 51q9 32 34 32q26 0 26 -23q0 -9 -13 -35l-55 -98q-6 -12 -9 -12h-15q-2 0 -2 2zM20 15q0 9 2.5 10.5t14.5 1.5h52q1 0 20 142.5l38 292t19 164.5q0 13 -2 13h-58q-10 0 -13 2.5t-3 12.5t3.5 12.5t16.5 2.5q6 0 43.5 -1.5t54.5 -1.5 q16 0 57.5 1.5t52.5 1.5q12 0 14.5 -2t2.5 -13q0 -9 -3 -12t-15 -3h-62l-19 -144l-39 -290t-19 -152q0 -22 17 -22q231 0 291 6q12 1 15 4t8 19l25 77q3 8 11 8q21 0 21 -10q0 -3 -5 -19l-14.5 -47t-17.5 -61q-2 -11 -20 -11q-11 0 -185.5 1.5t-190.5 1.5t-52.5 -1.5 t-47.5 -1.5q-10 0 -11.5 2.5t-1.5 15.5z" />
<glyph unicode="&#x13e;" horiz-adv-x="272" d="M248 495q0 3 6 25.5l15 57.5l13 51q9 32 34 32q26 0 26 -23q0 -9 -13 -35l-55 -98q-6 -12 -9 -12h-15q-2 0 -2 2zM55 28q0 6 18 106.5l42 243t35 234.5q2 10 -1 14t-13 1q-66 -18 -74 -18q-5 0 -3 20q1 8 2.5 9.5t7.5 3.5q39 9 75.5 18.5l53.5 14t19 4.5q10 0 10 -9 q0 -12 -50 -305.5t-50 -296.5q0 -21 14 -21q12 0 36 21t43.5 42t20.5 21q3 0 9.5 -5.5t6.5 -7.5q0 -4 -28 -34.5t-71.5 -62t-73.5 -31.5q-29 0 -29 38z" />
<glyph unicode="&#x13f;" horiz-adv-x="586" d="M20 15q0 9 2.5 10.5t14.5 1.5h52q1 0 20 142.5l38 292t19 164.5q0 13 -2 13h-58q-10 0 -13 2.5t-3 12.5t3.5 12.5t16.5 2.5q6 0 43.5 -1.5t54.5 -1.5q16 0 57.5 1.5t52.5 1.5q12 0 14.5 -2t2.5 -13q0 -9 -3 -12t-15 -3h-62l-19 -144l-39 -290t-19 -152q0 -22 17 -22 q231 0 291 6q12 1 15 4t8 19l25 77q3 8 11 8q21 0 21 -10q0 -3 -5 -19l-14.5 -47t-17.5 -61q-2 -11 -20 -11q-11 0 -185.5 1.5t-190.5 1.5t-52.5 -1.5t-47.5 -1.5q-10 0 -11.5 2.5t-1.5 15.5zM428 340q0 20 11 33t30 13q20 0 32 -15t12 -33q0 -20 -11.5 -33t-29.5 -13 q-20 0 -32 15t-12 33z" />
<glyph unicode="&#x140;" horiz-adv-x="397" d="M297 340q0 20 11 33t30 13q20 0 32 -15t12 -33q0 -20 -11.5 -33t-29.5 -13q-20 0 -32 15t-12 33zM55 28q0 6 18 106.5l42 243t35 234.5q2 10 -1 14t-13 1q-66 -18 -74 -18q-5 0 -3 20q1 8 2.5 9.5t7.5 3.5q39 9 75.5 18.5l53.5 14t19 4.5q10 0 10 -9q0 -12 -50 -305.5 t-50 -296.5q0 -21 14 -21q12 0 36 21t43.5 42t20.5 21q3 0 9.5 -5.5t6.5 -7.5q0 -4 -28 -34.5t-71.5 -62t-73.5 -31.5q-29 0 -29 38z" />
<glyph unicode="&#x141;" horiz-adv-x="586" d="M20 15q0 9 2.5 10.5t14.5 1.5h52q1 0 26 188q1 7 0 7t-6 -2q-10 -5 -27.5 -13t-29.5 -13l-11 -6q-2 0 -2 9q0 15 3 18l69 32q9 4 10 15q45 343 45 364q0 13 -2 13h-58q-10 0 -13 2.5t-3 12.5t3.5 12.5t16.5 2.5q6 0 43.5 -1.5t54.5 -1.5q16 0 57.5 1.5t52.5 1.5 q12 0 14.5 -2t2.5 -13q0 -9 -3 -12t-15 -3h-62q0 -1 -44 -334q-1 -10 -1 -10.5t7 1.5l100 46.5l123.5 58t53.5 24.5q2 0 2 -4q0 -5 -3 -20q-1 -3 -5 -5l-271 -126q-10 -5 -12 -11q-1 -2 -1 -4q-26 -201 -26 -202q0 -22 17 -22q231 0 291 6q12 1 15 4t8 19l25 77q3 8 11 8 q21 0 21 -10q0 -3 -5 -19l-14.5 -47t-17.5 -61q-2 -11 -20 -11q-11 0 -185.5 1.5t-190.5 1.5t-52.5 -1.5t-47.5 -1.5q-10 0 -11.5 2.5t-1.5 15.5z" />
<glyph unicode="&#x142;" horiz-adv-x="272" d="M29 273q-2 0 0 11q0 15 5 18l67 34q8 3 9 12q32 196 40 264q2 10 -1 14t-13 1q-66 -18 -74 -18q-5 0 -3 20q1 8 2.5 9.5t7.5 3.5q39 9 75.5 18.5l53.5 14t19 4.5q10 0 10 -9q0 -12 -47 -288v-1q-1 -5 -0.5 -5t3.5 1l2 1l35 17q34 18 35 18q2 0 0 -18q0 -2 -0.5 -4 t-0.5 -4l-1 -2l-74 -37q-5 -2 -6 -8q-46 -264 -46 -272q0 -21 14 -21q12 0 36 21t43.5 42t20.5 21q3 0 9.5 -5.5t6.5 -7.5q0 -4 -28 -34.5t-71.5 -62t-73.5 -31.5q-29 0 -29 38q0 4 6.5 40l19 105.5l22.5 128.5q1 6 0 6.5t-5 -1.5q-2 -1 -3 -1q-64 -33 -66 -33z" />
<glyph unicode="&#x143;" horiz-adv-x="824" d="M455 731l3 6l66 85q20 25 38 25q26 0 26 -21q0 -18 -18 -31l-83 -60q-8 -6 -9 -6h-19q-4 0 -4 2zM20 15q0 9 3 10.5t15 1.5h50q40 245 89 514q1 6 4 22.5t5 29.5t2 21q0 3 -5 12t-10 11t-22 2h-50q-8 0 -9.5 2t-1.5 11q0 11 2 14t9 3q6 0 53.5 -1.5t58.5 -1.5 q13 0 28.5 1.5t16.5 1.5q12 0 20 -13l329 -499q8 -12 16 -12q7 0 39.5 218.5t32.5 263.5q0 12 -2 12h-76q-8 0 -9.5 2t-1.5 11q0 11 2 14t9 3q11 0 42 -1.5t47 -1.5t44.5 1.5t39.5 1.5q10 0 12 -2.5t2 -15.5q0 -9 -3 -10.5t-15 -1.5h-42q-6 0 -80 -467q-10 -60 -16 -168 q-1 -15 -4 -20t-12 -5t-28 32q-45 73 -118 180l-256 374q-15 21 -16 21q-4 0 -5 -20q0 -3 -17.5 -117t-35 -241.5t-17.5 -165.5q0 -15 3 -15h85q8 0 9.5 -2t1.5 -11q0 -11 -2 -14t-9 -3q-11 0 -50.5 1.5t-55.5 1.5q-18 0 -52 -1.5t-35 -1.5q-10 0 -12 2.5t-2 15.5z" />
<glyph unicode="&#x144;" horiz-adv-x="515" d="M324 451l3 6l61 123q13 24 32 24q31 0 31 -21q0 -15 -9 -25l-91 -103q-5 -6 -8 -6h-15q-4 0 -4 2zM15 287q0 2 29.5 26t72.5 48.5t70 24.5q21 0 21 -21t-6 -55t-12 -57l-19.5 -72.5t-16.5 -62.5q74 131 134.5 199.5t116.5 68.5q51 0 51 -44q0 -29 -38.5 -145t-38.5 -127 q0 -20 19 -20q13 0 34.5 18.5t38 37t17.5 18.5q3 0 7.5 -4.5t4.5 -6.5q0 -5 -24 -31.5t-63.5 -53.5t-72.5 -27q-15 0 -23.5 11.5t-8.5 29.5q0 28 40 135t40 138q0 12 -6 20.5t-16 8.5q-26 0 -79 -66.5t-100 -141.5q-22 -36 -44 -112q-7 -25 -15 -26q-40 -4 -48 -4 q-7 0 -5 10q60 249 60 312q0 18 -13 18q-14 0 -54 -32l-39 -32q-3 0 -8.5 5t-5.5 12z" />
<glyph unicode="&#x145;" horiz-adv-x="824" d="M320 -207q0 1 14 8.5t27 21t13 28.5q0 18 -17 34.5t-17 19.5q0 11 19.5 22.5t24.5 11.5q10 0 27 -17.5t17 -30.5q0 -30 -26 -58t-49 -41.5t-26 -13.5q-7 0 -7 13v2zM20 15q0 9 3 10.5t15 1.5h50q40 245 89 514q1 6 4 22.5t5 29.5t2 21q0 3 -5 12t-10 11t-22 2h-50 q-8 0 -9.5 2t-1.5 11q0 11 2 14t9 3q6 0 53.5 -1.5t58.5 -1.5q13 0 28.5 1.5t16.5 1.5q12 0 20 -13l329 -499q8 -12 16 -12q7 0 39.5 218.5t32.5 263.5q0 12 -2 12h-76q-8 0 -9.5 2t-1.5 11q0 11 2 14t9 3q11 0 42 -1.5t47 -1.5t44.5 1.5t39.5 1.5q10 0 12 -2.5t2 -15.5 q0 -9 -3 -10.5t-15 -1.5h-42q-6 0 -80 -467q-10 -60 -16 -168q-1 -15 -4 -20t-12 -5t-28 32q-45 73 -118 180l-256 374q-15 21 -16 21q-4 0 -5 -20q0 -3 -17.5 -117t-35 -241.5t-17.5 -165.5q0 -15 3 -15h85q8 0 9.5 -2t1.5 -11q0 -11 -2 -14t-9 -3q-11 0 -50.5 1.5 t-55.5 1.5q-18 0 -52 -1.5t-35 -1.5q-10 0 -12 2.5t-2 15.5z" />
<glyph unicode="&#x146;" horiz-adv-x="515" d="M162 -207q0 1 14 8.5t27 21t13 28.5q0 18 -17 34.5t-17 19.5q0 11 19.5 22.5t24.5 11.5q10 0 27 -17.5t17 -30.5q0 -30 -26 -58t-49 -41.5t-26 -13.5q-7 0 -7 13v2zM15 287q0 2 29.5 26t72.5 48.5t70 24.5q21 0 21 -21t-6 -55t-12 -57l-19.5 -72.5t-16.5 -62.5 q74 131 134.5 199.5t116.5 68.5q51 0 51 -44q0 -29 -38.5 -145t-38.5 -127q0 -20 19 -20q13 0 34.5 18.5t38 37t17.5 18.5q3 0 7.5 -4.5t4.5 -6.5q0 -5 -24 -31.5t-63.5 -53.5t-72.5 -27q-15 0 -23.5 11.5t-8.5 29.5q0 28 40 135t40 138q0 12 -6 20.5t-16 8.5 q-26 0 -79 -66.5t-100 -141.5q-22 -36 -44 -112q-7 -25 -15 -26q-40 -4 -48 -4q-7 0 -5 10q60 249 60 312q0 18 -13 18q-14 0 -54 -32l-39 -32q-3 0 -8.5 5t-5.5 12z" />
<glyph unicode="&#x147;" horiz-adv-x="824" d="M384 837q0 2 5 2h12q1 0 7 -6l63 -52q3 -3 8 0l85 52q2 1 4 2.5t4 2.5l1 1h12q5 0 5 -2q0 -1 -4 -5l-91 -92q-11 -11 -20 -11h-20q-7 0 -9 1.5t-7 9.5l-53 92q-2 3 -2 5zM20 15q0 9 3 10.5t15 1.5h50q40 245 89 514q1 6 4 22.5t5 29.5t2 21q0 3 -5 12t-10 11t-22 2h-50 q-8 0 -9.5 2t-1.5 11q0 11 2 14t9 3q6 0 53.5 -1.5t58.5 -1.5q13 0 28.5 1.5t16.5 1.5q12 0 20 -13l329 -499q8 -12 16 -12q7 0 39.5 218.5t32.5 263.5q0 12 -2 12h-76q-8 0 -9.5 2t-1.5 11q0 11 2 14t9 3q11 0 42 -1.5t47 -1.5t44.5 1.5t39.5 1.5q10 0 12 -2.5t2 -15.5 q0 -9 -3 -10.5t-15 -1.5h-42q-6 0 -80 -467q-10 -60 -16 -168q-1 -15 -4 -20t-12 -5t-28 32q-45 73 -118 180l-256 374q-15 21 -16 21q-4 0 -5 -20q0 -3 -17.5 -117t-35 -241.5t-17.5 -165.5q0 -15 3 -15h85q8 0 9.5 -2t1.5 -11q0 -11 -2 -14t-9 -3q-11 0 -50.5 1.5 t-55.5 1.5q-18 0 -52 -1.5t-35 -1.5q-10 0 -12 2.5t-2 15.5z" />
<glyph unicode="&#x148;" horiz-adv-x="515" d="M263 582q0 2 5 2h12q1 0 7 -6l63 -62q3 -3 8 0l85 62q7 6 9 6h12q5 0 5 -2l-4 -6l-91 -104q-11 -12 -20 -12h-20q-7 0 -9 1.5t-7 10.5l-53 104q-2 3 -2 6zM15 287q0 2 29.5 26t72.5 48.5t70 24.5q21 0 21 -21t-6 -55t-12 -57l-19.5 -72.5t-16.5 -62.5q74 131 134.5 199.5 t116.5 68.5q51 0 51 -44q0 -29 -38.5 -145t-38.5 -127q0 -20 19 -20q13 0 34.5 18.5t38 37t17.5 18.5q3 0 7.5 -4.5t4.5 -6.5q0 -5 -24 -31.5t-63.5 -53.5t-72.5 -27q-15 0 -23.5 11.5t-8.5 29.5q0 28 40 135t40 138q0 12 -6 20.5t-16 8.5q-26 0 -79 -66.5t-100 -141.5 q-22 -36 -44 -112q-7 -25 -15 -26q-40 -4 -48 -4q-7 0 -5 10q60 249 60 312q0 18 -13 18q-14 0 -54 -32l-39 -32q-3 0 -8.5 5t-5.5 12z" />
<glyph unicode="&#x149;" horiz-adv-x="744" d="M244 287q0 2 29.5 26t72.5 48.5t70 24.5q21 0 21 -21t-6 -55t-12 -57l-19.5 -72.5t-16.5 -62.5q74 131 134.5 199.5t116.5 68.5q51 0 51 -44q0 -29 -38.5 -145t-38.5 -127q0 -20 19 -20q13 0 34.5 18.5t38 37t17.5 18.5q3 0 7.5 -4.5t4.5 -6.5q0 -5 -24 -31.5 t-63.5 -53.5t-72.5 -27q-15 0 -23.5 11.5t-8.5 29.5q0 28 40 135t40 138q0 12 -6 20.5t-16 8.5q-26 0 -79 -66.5t-100 -141.5q-22 -36 -44 -112q-7 -25 -15 -26q-40 -4 -48 -4q-7 0 -5 10q60 249 60 312q0 18 -13 18q-14 0 -53 -32l-40 -32q-3 0 -8.5 5t-5.5 12zM60 453 q0 1 16 16t32 35.5t16 35.5q0 13 -10.5 41.5t-10.5 41.5q0 19 18 36.5t29 17.5q10 0 19.5 -31.5t9.5 -53.5q0 -34 -25 -73t-49 -61.5t-28 -22.5q-3 0 -10 7.5t-7 10.5z" />
<glyph unicode="&#x14a;" horiz-adv-x="824" d="M20 15q0 9 3 10.5t15 1.5h50q40 245 89 514q1 6 4 22.5t5 29.5t2 21q0 3 -5 12t-10 11t-22 2h-50q-8 0 -9.5 2t-1.5 11q0 11 2 14t9 3q6 0 53.5 -1.5t58.5 -1.5q13 0 28.5 1.5t16.5 1.5q12 0 20 -13l329 -499q8 -12 16 -12q7 0 39.5 218.5t32.5 263.5q0 12 -2 12h-76 q-8 0 -9.5 2t-1.5 11q0 11 2 14t9 3q11 0 42 -1.5t47 -1.5t44.5 1.5t39.5 1.5q10 0 12 -2.5t2 -15.5q0 -9 -3 -10.5t-15 -1.5h-42q-5 0 -68 -394l-12 -73q-22 -140 -44 -238q-23 -104 -86 -151q-52 -38 -87 -38q-24 0 -39.5 11t-15.5 23q0 15 10 25.5t25 10.5q18 0 38 -12.5 t37 -12.5q5 0 9 1.5t7 5.5l6 8t6 11.5t5 13t4.5 15.5t4 16.5l4 18t4.5 18.5q29 113 29 138q0 14 -10 30l-341 499q-15 21 -16 21q-4 0 -5 -20q0 -3 -17.5 -117t-35 -241.5t-17.5 -165.5q0 -15 3 -15h85q8 0 9.5 -2t1.5 -11q0 -11 -2 -14t-9 -3q-11 0 -50.5 1.5t-55.5 1.5 q-18 0 -52 -1.5t-35 -1.5q-10 0 -12 2.5t-2 15.5z" />
<glyph unicode="&#x14b;" horiz-adv-x="515" d="M15 287q0 2 29.5 26t72.5 48.5t70 24.5q21 0 21 -21t-6 -55t-12 -57l-19.5 -72.5t-16.5 -62.5q74 131 134.5 199.5t116.5 68.5q51 0 51 -44q0 -49 -97 -408q-30 -109 -86 -151q-52 -38 -87 -38q-24 0 -39.5 11t-15.5 23q0 15 10 25.5t25 10.5q18 0 38 -12.5t37 -12.5 q5 0 9 1.5t7 5.5l6 8t6 11.5t5 13t4.5 15.5t4 16.5l4 18t4.5 18.5q7 30 35 137.5t46 183t18 96.5q0 12 -7 20.5t-17 8.5q-26 0 -79 -66.5t-100 -141.5q-22 -36 -44 -112q-7 -25 -15 -26q-40 -4 -48 -4q-7 0 -5 10q60 249 60 312q0 18 -13 18q-14 0 -54 -32l-39 -32 q-3 0 -8.5 5t-5.5 12z" />
<glyph unicode="&#x14c;" horiz-adv-x="734" d="M339 788l2 21q1 6 2 7t7 1h181q5 0 6.5 -1t1.5 -6l-2 -23q-5 -8 -8 -8h-181q-7 0 -8.5 1t-0.5 8zM35 280q0 87 32.5 162t85.5 124.5t119.5 78t134.5 28.5q135 0 213.5 -89t78.5 -236q0 -151 -107 -260.5t-258 -109.5q-62 0 -114.5 17.5t-94.5 53t-66 94.5t-24 137z M127 286q0 -116 57 -200t167 -84q75 0 135.5 60t91 144t30.5 167q0 44 -11 89.5t-33.5 87.5t-62.5 68.5t-91 26.5q-71 0 -137 -52.5t-106 -136t-40 -170.5z" />
<glyph unicode="&#x14d;" horiz-adv-x="419" d="M190 518l2 21q1 6 2 7t7 1h181q6 0 7 -1t1 -6l-2 -23q-5 -8 -8 -8h-181q-7 0 -8.5 1t-0.5 8zM25 138q0 110 66 184.5t165 74.5q71 0 104.5 -50t33.5 -109q0 -94 -68 -170t-161 -76q-67 0 -103.5 42.5t-36.5 103.5zM87 146q0 -130 80 -130q46 0 85.5 47.5t59 107 t19.5 107.5q0 36 -19 66t-67 30q-57 0 -107.5 -78.5t-50.5 -149.5z" />
<glyph unicode="&#x14e;" horiz-adv-x="734" d="M353 810q0 28 4 28h13q1 0 1 -2q0 -31 15.5 -45t52.5 -14q53 0 77 32q4 6 7.5 13.5l5.5 11.5t3 4h13q-6 -46 -37.5 -77.5t-76.5 -31.5q-41 0 -59.5 23t-18.5 58zM35 280q0 87 32.5 162t85.5 124.5t119.5 78t134.5 28.5q135 0 213.5 -89t78.5 -236q0 -151 -107 -260.5 t-258 -109.5q-62 0 -114.5 17.5t-94.5 53t-66 94.5t-24 137zM127 286q0 -116 57 -200t167 -84q75 0 135.5 60t91 144t30.5 167q0 44 -11 89.5t-33.5 87.5t-62.5 68.5t-91 26.5q-71 0 -137 -52.5t-106 -136t-40 -170.5z" />
<glyph unicode="&#x14f;" horiz-adv-x="419" d="M206 552q0 32 4 32h13q1 0 1 -3q0 -9 2 -21q9 -49 66 -49q52 0 78 40q4 7 7.5 15.5t5 13t2.5 4.5h13q-6 -53 -37.5 -89t-76.5 -36q-41 0 -59.5 26.5t-18.5 66.5zM25 138q0 110 66 184.5t165 74.5q71 0 104.5 -50t33.5 -109q0 -94 -68 -170t-161 -76q-67 0 -103.5 42.5 t-36.5 103.5zM87 146q0 -130 80 -130q46 0 85.5 47.5t59 107t19.5 107.5q0 36 -19 66t-67 30q-57 0 -107.5 -78.5t-50.5 -149.5z" />
<glyph unicode="&#x150;" horiz-adv-x="734" d="M355 731l3 6l66 85q20 25 38 25q26 0 26 -21q0 -18 -18 -31l-83 -60q-8 -6 -9 -6h-19q-4 0 -4 2zM475 731l3 6l66 85q20 25 38 25q26 0 26 -21q0 -18 -18 -31l-83 -60q-8 -6 -9 -6h-19q-4 0 -4 2zM35 280q0 87 32.5 162t85.5 124.5t119.5 78t134.5 28.5q135 0 213.5 -89 t78.5 -236q0 -151 -107 -260.5t-258 -109.5q-62 0 -114.5 17.5t-94.5 53t-66 94.5t-24 137zM127 286q0 -116 57 -200t167 -84q75 0 135.5 60t91 144t30.5 167q0 44 -11 89.5t-33.5 87.5t-62.5 68.5t-91 26.5q-71 0 -137 -52.5t-106 -136t-40 -170.5z" />
<glyph unicode="&#x151;" horiz-adv-x="419" d="M206 451l3 6l61 123q13 24 32 24q31 0 31 -21q0 -15 -9 -25l-91 -103q-5 -6 -8 -6h-15q-4 0 -4 2zM316 451l3 6l61 123q13 24 32 24q31 0 31 -21q0 -15 -9 -25l-91 -103q-5 -6 -8 -6h-15q-4 0 -4 2zM25 138q0 110 66 184.5t165 74.5q71 0 104.5 -50t33.5 -109 q0 -94 -68 -170t-161 -76q-67 0 -103.5 42.5t-36.5 103.5zM87 146q0 -130 80 -130q46 0 85.5 47.5t59 107t19.5 107.5q0 36 -19 66t-67 30q-57 0 -107.5 -78.5t-50.5 -149.5z" />
<glyph unicode="&#x152;" horiz-adv-x="988" d="M35 287q0 166 114 277t270 111q36 0 105 -6.5t98 -6.5q28 0 108.5 1.5t100.5 1.5q55 0 74.5 2.5t20.5 10.5q1 12 13 12q11 0 14 -2t3 -9q0 -4 -4 -41t-5 -84q0 -6 -3 -8t-13 -2q-15 0 -15 14q0 2 3 36t3 37q0 7 -263 7q-5 0 -41 -270q-2 -12 0 -14t14 -2h164q45 0 47 13 l11 53q1 7 16 7q13 0 13 -6q0 -4 -2.5 -17t-7 -34l-7.5 -36q-7 -39 -15 -89q-1 -7 -13 -7q-17 0 -17 8q1 7 4 23.5t5.5 29t2.5 14.5q0 8 -10 11t-40 3h-151q-9 0 -12 -0.5t-5 -2.5t-3 -7q-3 -13 -19.5 -129t-19.5 -147q0 -9 7 -9l319 7q4 0 10 16.5t14.5 43t13.5 37.5 q4 9 14 9q17 0 17 -11q0 -5 -5.5 -21l-17 -47.5t-19.5 -55.5q-4 -11 -17 -11q-11 0 -179 1.5t-184 1.5q-21 0 -88 -8.5t-119 -8.5q-58 0 -110.5 18t-97 53.5t-70.5 95.5t-26 137zM127 293q0 -111 64 -198.5t165 -87.5q44 0 71.5 3t35 6l27.5 11q60 376 78 537q1 7 2.5 22 l2.5 25t1 13t-20.5 9t-51 11t-53.5 5q-145 0 -233.5 -102t-88.5 -254z" />
<glyph unicode="&#x153;" horiz-adv-x="669" d="M25 138q0 110 66 184.5t165 74.5q93 0 125 -92q67 86 168 86q93 0 93 -66q0 -43 -35 -77t-88 -54q-65 -24 -141 -24q-8 0 -8 -46q0 -89 96 -89q26 0 52.5 9t46 21.5t35 25.5l25.5 22t11 9q4 0 8.5 -5t4.5 -9q0 -2 -11 -13.5t-32 -28t-47 -32.5t-61 -27.5t-68 -11.5 q-85 0 -116 66q-71 -69 -149 -69q-67 0 -103.5 42.5t-36.5 103.5zM87 146q0 -130 80 -130q46 0 85.5 47.5t59 107t19.5 107.5q0 36 -19 66t-67 30q-57 0 -107.5 -78.5t-50.5 -149.5zM385 200q0 -7 10 -7q74 0 128 36.5t54 96.5q0 19 -14 30t-36 11q-82 0 -128 -122 q-14 -35 -14 -45z" />
<glyph unicode="&#x154;" horiz-adv-x="625" d="M320 731l3 6l66 85q20 25 38 25q26 0 26 -21q0 -18 -18 -31l-83 -60q-8 -6 -9 -6h-19q-4 0 -4 2zM20 13q0 9 3 11.5t15 2.5h41q19 106 47.5 312t35.5 282q0 15 -3 15h-61q-7 0 -10.5 0.5t-6 4t-2.5 10.5q0 14 17 14q1 0 15 -0.5t38.5 -1.5t53.5 -1q15 0 69.5 3.5 t72.5 3.5q87 0 144.5 -45.5t57.5 -116.5q0 -44 -20 -78.5t-48.5 -53t-57 -30t-48.5 -16t-20 -5.5t7.5 -3.5l24.5 -8t34 -12.5q113 -45 113 -164q0 -6 -1.5 -44t-1.5 -54q0 -11 3 -11h43q12 0 16 -2.5t4 -12.5q0 -15 -8 -15q-2 0 -29.5 0.5t-61.5 1.5t-53 1q-7 0 -5 13 q16 94 16 157q0 48 -38 86.5t-97 50.5q-24 5 -71 5h-27q-25 0 -28 -24q-26 -182 -29 -252q0 -9 8 -9h53q8 0 10.5 -2t2.5 -11q0 -11 -2 -14t-9 -3q-11 0 -42.5 1.5t-47.5 1.5t-54 -1.5t-49 -1.5q-10 0 -12 2t-2 14zM204 350q0 -14 18 -14h7q20 0 43.5 -1.5t26.5 -1.5 q53 0 108 50t55 115q0 145 -171 145q-50 0 -50 -5q-3 -25 -18.5 -143t-17.5 -132q-1 -5 -1 -13z" />
<glyph unicode="&#x155;" horiz-adv-x="341" d="M188 451l3 6l61 123q13 24 32 24q31 0 31 -21q0 -15 -9 -25l-91 -103q-5 -6 -8 -6h-15q-4 0 -4 2zM25 291q0 11 50.5 53t79.5 42q18 0 18 -20q0 -17 -27 -176l4 -1q47 121 62 149q29 55 72 55q18 0 32.5 -10t14.5 -26q0 -37 -22 -37q-11 0 -28 9t-27 9q-14 0 -25 -17 q-23 -35 -57 -125q-2 -6 -11 -38q-9 -36 -19.5 -86.5l-13.5 -64.5q-1 -4 -21.5 -7.5t-30.5 -3.5t-10 4q0 2 12 63.5t24 133t12 96.5q0 38 -13 38q-11 0 -27 -12.5t-27.5 -25.5t-12.5 -13q-9 0 -9 11z" />
<glyph unicode="&#x156;" horiz-adv-x="625" d="M244 -207q0 1 14 8.5t27 21t13 28.5q0 18 -17 34.5t-17 19.5q0 11 19.5 22.5t24.5 11.5q10 0 27 -17.5t17 -30.5q0 -30 -26 -58t-49 -41.5t-26 -13.5q-7 0 -7 13v2zM20 13q0 9 3 11.5t15 2.5h41q19 106 47.5 312t35.5 282q0 15 -3 15h-61q-7 0 -10.5 0.5t-6 4t-2.5 10.5 q0 14 17 14q1 0 15 -0.5t38.5 -1.5t53.5 -1q15 0 69.5 3.5t72.5 3.5q87 0 144.5 -45.5t57.5 -116.5q0 -44 -20 -78.5t-48.5 -53t-57 -30t-48.5 -16t-20 -5.5t7.5 -3.5l24.5 -8t34 -12.5q113 -45 113 -164q0 -6 -1.5 -44t-1.5 -54q0 -11 3 -11h43q12 0 16 -2.5t4 -12.5 q0 -15 -8 -15q-2 0 -29.5 0.5t-61.5 1.5t-53 1q-7 0 -5 13q16 94 16 157q0 48 -38 86.5t-97 50.5q-24 5 -71 5h-27q-25 0 -28 -24q-26 -182 -29 -252q0 -9 8 -9h53q8 0 10.5 -2t2.5 -11q0 -11 -2 -14t-9 -3q-11 0 -42.5 1.5t-47.5 1.5t-54 -1.5t-49 -1.5q-10 0 -12 2t-2 14z M204 350q0 -14 18 -14h7q20 0 43.5 -1.5t26.5 -1.5q53 0 108 50t55 115q0 145 -171 145q-50 0 -50 -5q-3 -25 -18.5 -143t-17.5 -132q-1 -5 -1 -13z" />
<glyph unicode="&#x157;" horiz-adv-x="341" d="M24 -207q0 1 14 8.5t27 21t13 28.5q0 18 -17 34.5t-17 19.5q0 11 19.5 22.5t24.5 11.5q10 0 27 -17.5t17 -30.5q0 -30 -26 -58t-49 -41.5t-26 -13.5q-7 0 -7 13v2zM25 291q0 11 50.5 53t79.5 42q18 0 18 -20q0 -17 -27 -176l4 -1q47 121 62 149q29 55 72 55 q18 0 32.5 -10t14.5 -26q0 -37 -22 -37q-11 0 -28 9t-27 9q-14 0 -25 -17q-23 -35 -57 -125q-2 -6 -11 -38q-9 -36 -19.5 -86.5l-13.5 -64.5q-1 -4 -21.5 -7.5t-30.5 -3.5t-10 4q0 2 12 63.5t24 133t12 96.5q0 38 -13 38q-11 0 -27 -12.5t-27.5 -25.5t-12.5 -13q-9 0 -9 11z " />
<glyph unicode="&#x158;" horiz-adv-x="625" d="M249 837q0 2 5 2h12q1 0 7 -6l63 -52q3 -3 8 0l85 52q2 1 4 2.5t3 2.5l2 1h12q5 0 5 -2q0 -1 -4 -5l-91 -92q-11 -11 -20 -11h-20q-7 0 -9 1.5t-7 9.5l-53 92q-2 3 -2 5zM20 13q0 9 3 11.5t15 2.5h41q19 106 47.5 312t35.5 282q0 15 -3 15h-61q-7 0 -10.5 0.5t-6 4 t-2.5 10.5q0 14 17 14q1 0 15 -0.5t38.5 -1.5t53.5 -1q15 0 69.5 3.5t72.5 3.5q87 0 144.5 -45.5t57.5 -116.5q0 -44 -20 -78.5t-48.5 -53t-57 -30t-48.5 -16t-20 -5.5t7.5 -3.5l24.5 -8t34 -12.5q113 -45 113 -164q0 -6 -1.5 -44t-1.5 -54q0 -11 3 -11h43q12 0 16 -2.5 t4 -12.5q0 -15 -8 -15q-2 0 -29.5 0.5t-61.5 1.5t-53 1q-7 0 -5 13q16 94 16 157q0 48 -38 86.5t-97 50.5q-24 5 -71 5h-27q-25 0 -28 -24q-26 -182 -29 -252q0 -9 8 -9h53q8 0 10.5 -2t2.5 -11q0 -11 -2 -14t-9 -3q-11 0 -42.5 1.5t-47.5 1.5t-54 -1.5t-49 -1.5 q-10 0 -12 2t-2 14zM204 350q0 -14 18 -14h7q20 0 43.5 -1.5t26.5 -1.5q53 0 108 50t55 115q0 145 -171 145q-50 0 -50 -5q-3 -25 -18.5 -143t-17.5 -132q-1 -5 -1 -13z" />
<glyph unicode="&#x159;" horiz-adv-x="341" d="M127 582q0 2 5 2h12q1 0 7 -6l63 -62q3 -3 8 0l85 62q7 6 9 6h12q5 0 5 -2l-4 -6l-91 -104q-11 -12 -20 -12h-20q-7 0 -9 1.5t-7 10.5l-53 104q-2 3 -2 6zM25 291q0 11 50.5 53t79.5 42q18 0 18 -20q0 -17 -27 -176l4 -1q47 121 62 149q29 55 72 55q18 0 32.5 -10 t14.5 -26q0 -37 -22 -37q-11 0 -28 9t-27 9q-14 0 -25 -17q-23 -35 -57 -125q-2 -6 -11 -38q-9 -36 -19.5 -86.5l-13.5 -64.5q-1 -4 -21.5 -7.5t-30.5 -3.5t-10 4q0 2 12 63.5t24 133t12 96.5q0 38 -13 38q-11 0 -27 -12.5t-27.5 -25.5t-12.5 -13q-9 0 -9 11z" />
<glyph unicode="&#x15a;" horiz-adv-x="505" d="M296 731l3 6l66 85q20 25 38 25q26 0 26 -21q0 -18 -18 -31l-83 -60q-8 -6 -9 -6h-19q-4 0 -4 2zM40 67q0 15 17 100q1 3 2.5 11.5t3 15t2.5 7.5t5 1q23 0 23 -10q0 -2 -7.5 -45.5t-7.5 -46.5q0 -18 64.5 -51t122.5 -33q56 0 93 35t37 88q0 42 -31.5 72.5t-76.5 52 l-90 45t-76.5 65t-31.5 99.5q0 86 57.5 141t147.5 55q20 0 41 -6t37.5 -14t30 -16t21.5 -14l8 -6l8 32q2 10 9 10h3q18 -3 18 -7q0 -3 -31 -167q-2 -12 -15 -12q-16 0 -16 12l4 14q4 14 7.5 31t3.5 24q0 2 -6 11.5t-18.5 22.5t-28.5 25t-39.5 20.5t-47.5 8.5 q-57 0 -90.5 -36.5t-33.5 -95.5q0 -39 22.5 -67.5t55.5 -44l72.5 -35t72.5 -39t55.5 -57t22.5 -88.5q0 -85 -66 -136.5t-144 -51.5q-55 0 -106.5 16.5t-77.5 35t-26 28.5z" />
<glyph unicode="&#x15b;" horiz-adv-x="336" d="M192 451l3 6l61 123q13 24 32 24q31 0 31 -21q0 -15 -9 -25l-91 -103q-5 -6 -8 -6h-15q-4 0 -4 2zM20 61q0 11 8.5 18t15.5 7q5 0 8.5 -0.5t7.5 -2t6 -2.5t5.5 -4t5 -4t5.5 -5.5t5 -5.5l13 -13.5l11.5 -12t9.5 -8t12 -6t13 -1.5q30 0 50.5 20t20.5 53q0 20 -22.5 44 t-49.5 42.5t-49.5 46.5t-22.5 56q0 47 39 81.5t92 34.5q31 0 52 -8t30 -20t12 -21t3 -15q0 -17 -18 -17q-29 0 -48 35q-15 27 -32 27q-27 0 -48 -15t-21 -48q0 -26 15 -47.5t36 -37l42.5 -31.5t36.5 -40t15 -54q0 -45 -39 -78.5t-92 -33.5q-46 0 -87 21.5t-41 44.5z" />
<glyph unicode="&#x15c;" horiz-adv-x="505" d="M202 731q0 1 4 5l91 92q11 11 20 11h20q7 0 9 -1.5t7 -9.5l53 -92q2 -3 2 -5t-5 -2h-12q-1 0 -7 6l-63 52q-3 3 -8 0l-85 -52q-2 -1 -4 -2.5t-4 -2.5l-1 -1h-12q-5 0 -5 2zM40 67q0 15 17 100q1 3 2.5 11.5t3 15t2.5 7.5t5 1q23 0 23 -10q0 -2 -7.5 -45.5t-7.5 -46.5 q0 -18 64.5 -51t122.5 -33q56 0 93 35t37 88q0 42 -31.5 72.5t-76.5 52l-90 45t-76.5 65t-31.5 99.5q0 86 57.5 141t147.5 55q20 0 41 -6t37.5 -14t30 -16t21.5 -14l8 -6l8 32q2 10 9 10h3q18 -3 18 -7q0 -3 -31 -167q-2 -12 -15 -12q-16 0 -16 12l4 14q4 14 7.5 31t3.5 24 q0 2 -6 11.5t-18.5 22.5t-28.5 25t-39.5 20.5t-47.5 8.5q-57 0 -90.5 -36.5t-33.5 -95.5q0 -39 22.5 -67.5t55.5 -44l72.5 -35t72.5 -39t55.5 -57t22.5 -88.5q0 -85 -66 -136.5t-144 -51.5q-55 0 -106.5 16.5t-77.5 35t-26 28.5z" />
<glyph unicode="&#x15d;" horiz-adv-x="336" d="M110 462l4 6l91 104q11 12 20 12h20q7 0 9 -1.5t7 -10.5l53 -104q2 -3 2 -6q0 -2 -5 -2h-12q-1 0 -7 6l-63 62q-3 3 -8 0l-85 -62q-8 -6 -9 -6h-12q-5 0 -5 2zM20 61q0 11 8.5 18t15.5 7q5 0 8.5 -0.5t7.5 -2t6 -2.5t5.5 -4t5 -4t5.5 -5.5t5 -5.5l13 -13.5l11.5 -12 t9.5 -8t12 -6t13 -1.5q30 0 50.5 20t20.5 53q0 20 -22.5 44t-49.5 42.5t-49.5 46.5t-22.5 56q0 47 39 81.5t92 34.5q31 0 52 -8t30 -20t12 -21t3 -15q0 -17 -18 -17q-29 0 -48 35q-15 27 -32 27q-27 0 -48 -15t-21 -48q0 -26 15 -47.5t36 -37l42.5 -31.5t36.5 -40t15 -54 q0 -45 -39 -78.5t-92 -33.5q-46 0 -87 21.5t-41 44.5z" />
<glyph unicode="&#x15e;" horiz-adv-x="505" d="M40 67q0 15 17 100q1 3 2.5 11.5t3 15t2.5 7.5t5 1q23 0 23 -10q0 -2 -7.5 -45.5t-7.5 -46.5q0 -18 64.5 -51t122.5 -33q56 0 93 35t37 88q0 42 -31.5 72.5t-76.5 52l-90 45t-76.5 65t-31.5 99.5q0 86 57.5 141t147.5 55q20 0 41 -6t37.5 -14t30 -16t21.5 -14l8 -6l8 32 q2 10 9 10h3q18 -3 18 -7q0 -3 -31 -167q-2 -12 -15 -12q-16 0 -16 12l4 14q4 14 7.5 31t3.5 24q0 2 -6 11.5t-18.5 22.5t-28.5 25t-39.5 20.5t-47.5 8.5q-57 0 -90.5 -36.5t-33.5 -95.5q0 -39 22.5 -67.5t55.5 -44l72.5 -35t72.5 -39t55.5 -57t22.5 -88.5q0 -85 -66 -136.5 t-144 -51.5h-2q-30 -53 -30 -54q0 -2 5 -2q8 2 24 2q35 0 56 -19t21 -45q0 -37 -32 -61.5t-80 -24.5q-22 0 -40.5 6t-26.5 12t-8 9q0 10 8 10l8 -4q8 -3 21 -6.5t27 -3.5q69 0 69 49q0 18 -11 31.5t-36 13.5q-8 0 -16 -1.5t-13.5 -3t-6.5 -1.5q-7 0 -7 4q0 1 49 90 q-50 3 -96.5 19.5t-69.5 33t-23 26.5z" />
<glyph unicode="&#x15f;" horiz-adv-x="336" d="M20 61q0 11 8.5 18t15.5 7q5 0 8.5 -0.5t7.5 -2t6 -2.5t5.5 -4t5 -4t5.5 -5.5t5 -5.5l13 -13.5l11.5 -12t9.5 -8t12 -6t13 -1.5q30 0 50.5 20t20.5 53q0 20 -22.5 44t-49.5 42.5t-49.5 46.5t-22.5 56q0 47 39 81.5t92 34.5q31 0 52 -8t30 -20t12 -21t3 -15q0 -17 -18 -17 q-29 0 -48 35q-15 27 -32 27q-27 0 -48 -15t-21 -48q0 -26 15 -47.5t36 -37l42.5 -31.5t36.5 -40t15 -54q0 -44 -38 -77.5t-91 -34.5q-34 -59 -34 -62q0 -2 5 -2q8 2 24 2q35 0 56 -19t21 -45q0 -37 -32 -61.5t-80 -24.5q-22 0 -40.5 6t-26.5 12t-8 9q0 10 8 10l8 -4 q8 -3 21 -6.5t27 -3.5q69 0 69 49q0 18 -11 31.5t-36 13.5q-8 0 -16 -1.5t-13.5 -3t-6.5 -1.5q-7 0 -7 4q0 1 10.5 19l24 42.5t19.5 36.5q-42 4 -77 24t-35 41z" />
<glyph unicode="&#x160;" horiz-adv-x="505" d="M225 837q0 2 5 2h12q1 0 7 -6l63 -52q3 -3 8 0l85 52q2 1 4 2.5t3 2.5l2 1h12q5 0 5 -2q0 -1 -4 -5l-91 -92q-11 -11 -20 -11h-20q-7 0 -9 1.5t-7 9.5l-53 92q-2 3 -2 5zM40 67q0 15 17 100q1 3 2.5 11.5t3 15t2.5 7.5t5 1q23 0 23 -10q0 -2 -7.5 -45.5t-7.5 -46.5 q0 -18 64.5 -51t122.5 -33q56 0 93 35t37 88q0 42 -31.5 72.5t-76.5 52l-90 45t-76.5 65t-31.5 99.5q0 86 57.5 141t147.5 55q20 0 41 -6t37.5 -14t30 -16t21.5 -14l8 -6l8 32q2 10 9 10h3q18 -3 18 -7q0 -3 -31 -167q-2 -12 -15 -12q-16 0 -16 12l4 14q4 14 7.5 31t3.5 24 q0 2 -6 11.5t-18.5 22.5t-28.5 25t-39.5 20.5t-47.5 8.5q-57 0 -90.5 -36.5t-33.5 -95.5q0 -39 22.5 -67.5t55.5 -44l72.5 -35t72.5 -39t55.5 -57t22.5 -88.5q0 -85 -66 -136.5t-144 -51.5q-55 0 -106.5 16.5t-77.5 35t-26 28.5z" />
<glyph unicode="&#x161;" horiz-adv-x="336" d="M131 582q0 2 5 2h12q1 0 7 -6l63 -62q3 -3 8 0l85 62q7 6 9 6h12q5 0 5 -2l-4 -6l-91 -104q-11 -12 -20 -12h-20q-7 0 -9 1.5t-7 10.5l-53 104q-2 3 -2 6zM20 61q0 11 8.5 18t15.5 7q5 0 8.5 -0.5t7.5 -2t6 -2.5t5.5 -4t5 -4t5.5 -5.5t5 -5.5l13 -13.5l11.5 -12t9.5 -8 t12 -6t13 -1.5q30 0 50.5 20t20.5 53q0 20 -22.5 44t-49.5 42.5t-49.5 46.5t-22.5 56q0 47 39 81.5t92 34.5q31 0 52 -8t30 -20t12 -21t3 -15q0 -17 -18 -17q-29 0 -48 35q-15 27 -32 27q-27 0 -48 -15t-21 -48q0 -26 15 -47.5t36 -37l42.5 -31.5t36.5 -40t15 -54 q0 -45 -39 -78.5t-92 -33.5q-46 0 -87 21.5t-41 44.5z" />
<glyph unicode="&#x162;" horiz-adv-x="681" d="M20 546q0 1 6 16.5t16.5 46.5l20.5 63q3 9 7 11.5t15 2.5q10 0 10 -12v-5q0 -8 106 -8h326q103 0 104 11q1 14 14 14q11 0 13.5 -2t2.5 -9q0 -8 -1.5 -23t-3.5 -44t-4 -63q0 -10 -19 -10q-8 0 -9.5 2.5t-1.5 11.5q0 2 3 38.5t3 39.5q0 6 -107 6h-106q-9 0 -13 -20 l-27 -188l-37 -262t-17 -122q0 -14 8 -14h64q8 0 9.5 -2t1.5 -11q0 -11 -2 -14t-9 -3q-8 0 -107 3q-37 -66 -37 -67q0 -2 5 -2q8 2 24 2q35 0 56 -19t21 -45q0 -37 -32 -61.5t-80 -24.5q-22 0 -40.5 6t-26.5 12t-8 9q0 10 8 10l8 -4q8 -3 21 -6.5t27 -3.5q69 0 69 49 q0 18 -11 31.5t-36 13.5q-8 0 -16 -1.5t-13.5 -3t-6.5 -1.5q-7 0 -7 4q0 1 11.5 21l25.5 45.5t19 35.5q-18 0 -59 -1.5t-46 -1.5q-10 0 -12 2.5t-2 15.5q0 9 3 10.5t15 1.5h54q10 0 94 569q3 24 3 26q0 11 -6 11h-137q-92 0 -95 -11l-24 -70q-4 -11 -6.5 -14t-9.5 -3 q-19 0 -19 11z" />
<glyph unicode="&#x163;" horiz-adv-x="284" d="M-17 -190q0 10 8 10l8 -4q8 -3 21 -6.5t27 -3.5q69 0 69 49q0 18 -11 31.5t-36 13.5q-8 0 -16 -1.5t-13.5 -3t-6.5 -1.5q-7 0 -7 4q0 1 11 20l24.5 44l19.5 36q-27 3 -27 34q0 10 26.5 153.5t26.5 145.5v4q1 5 -0.5 6t-8.5 1h-47q-16 0 -16 4q0 1 0.5 9t0.5 10q0 7 8 7 h61q9 0 11 8q10 55 16 101q2 10 4.5 13t13.5 4q5 1 21 1q28 0 28 -5q0 -1 -5.5 -25l-11.5 -51.5t-7 -35.5q-1 -7 0.5 -8.5t9.5 -1.5h73q9 0 9 -8q0 -22 -13 -22h-73h-7t-3.5 -1.5t-1.5 -2.5t-1 -6q-41 -220 -41 -247q0 -21 19 -21q11 0 37 22.5t48.5 45t23.5 22.5 q2 0 8 -4.5t6 -6.5q0 -4 -28 -35t-70 -66t-70 -42q-37 -66 -37 -67q0 -2 5 -2q8 2 24 2q35 0 56 -19t21 -45q0 -37 -32 -61.5t-80 -24.5q-22 0 -40.5 6t-26.5 12t-8 9z" />
<glyph unicode="&#x164;" horiz-adv-x="681" d="M279 834q0 2 5 2h12q1 0 7 -6l63 -52q3 -3 8 0l85 52q2 1 4 2.5t3 2.5l2 1h12q5 0 5 -2q0 -1 -4 -5l-91 -92q-11 -11 -20 -11h-20q-7 0 -9 1.5t-7 9.5l-53 92q-2 3 -2 5zM20 546q0 1 6 16.5t16.5 46.5l20.5 63q3 9 7 11.5t15 2.5q10 0 10 -12v-5q0 -8 106 -8h326 q103 0 104 11q1 14 14 14q11 0 13.5 -2t2.5 -9q0 -8 -1.5 -23t-3.5 -44t-4 -63q0 -10 -19 -10q-8 0 -9.5 2.5t-1.5 11.5q0 2 3 38.5t3 39.5q0 6 -107 6h-106q-9 0 -13 -20l-27 -188l-37 -262t-17 -122q0 -14 8 -14h64q8 0 9.5 -2t1.5 -11q0 -11 -2 -14t-9 -3 q-11 0 -57.5 1.5t-62.5 1.5q-17 0 -61 -1.5t-50 -1.5q-10 0 -12 2.5t-2 15.5q0 9 3 10.5t15 1.5h54q10 0 94 569q3 24 3 26q0 11 -6 11h-137q-92 0 -95 -11l-24 -70q-4 -11 -6.5 -14t-9.5 -3q-19 0 -19 11z" />
<glyph unicode="&#x165;" horiz-adv-x="284" d="M243 495q0 3 6 25.5l15 57.5l13 51q9 32 34 32q26 0 26 -23q0 -9 -13 -35l-55 -98q-6 -12 -9 -12h-15q-2 0 -2 2zM35 346q0 1 0.5 9t0.5 10q0 7 8 7h61q9 0 11 8q10 55 16 101q2 10 4.5 13t13.5 4q5 1 21 1q28 0 28 -5q0 -1 -5.5 -25l-11.5 -51.5t-7 -35.5 q-1 -7 0.5 -8.5t9.5 -1.5h73q9 0 9 -8q0 -22 -13 -22h-73h-7t-3.5 -1.5t-1.5 -2.5t-1 -6q-41 -220 -41 -247q0 -21 19 -21q11 0 37 22.5t48.5 45t23.5 22.5q2 0 8 -4.5t6 -6.5q0 -4 -31.5 -39t-76.5 -70.5t-72 -35.5q-35 0 -35 34q0 10 26.5 153.5t26.5 145.5v4q1 5 -0.5 6 t-8.5 1h-47q-16 0 -16 4z" />
<glyph unicode="&#x166;" horiz-adv-x="681" d="M20 546q0 1 6 16.5t16.5 46.5l20.5 63q3 9 7 11.5t15 2.5q10 0 10 -12v-5q0 -8 106 -8h326q103 0 104 11q1 14 14 14q11 0 13.5 -2t2.5 -9q0 -8 -1.5 -23t-3.5 -44t-4 -63q0 -10 -19 -10q-8 0 -9.5 2.5t-1.5 11.5q0 2 3 38.5t3 39.5q0 6 -107 6h-106q-9 0 -13 -20 l-35 -246q-1 -9 0.5 -10.5t10.5 -1.5h158q3 0 3 -12t-3 -12h-160q-10 0 -12 -1.5t-4 -11.5q-39 -273 -39 -277q0 -14 8 -14h64q8 0 9.5 -2t1.5 -11q0 -11 -2 -14t-9 -3q-11 0 -57.5 1.5t-62.5 1.5q-17 0 -61 -1.5t-50 -1.5q-10 0 -12 2.5t-2 15.5q0 9 3 10.5t15 1.5h54 q9 0 53 291q2 8 0.5 10.5t-9.5 2.5h-157q-2 0 -2.5 12t2.5 12h159h7.5t4 2t1.5 3t1 7l34 229q3 24 3 26q0 11 -6 11h-137q-92 0 -95 -11l-24 -70q-4 -11 -6.5 -14t-9.5 -3q-19 0 -19 11z" />
<glyph unicode="&#x167;" horiz-adv-x="284" d="M22 225q-1 0 -1.5 6t0.5 12t3 6h59q7 0 8.5 1t2.5 6q13 67 13 75v4q1 5 -0.5 6t-8.5 1h-47q-16 0 -16 4q0 1 0.5 9t0.5 10q0 7 8 7h61q9 0 11 8q10 55 16 101q2 10 4.5 13t13.5 4q5 1 21 1q28 0 28 -5q0 -1 -5.5 -25l-11.5 -51.5t-7 -35.5q-1 -7 0.5 -8.5t9.5 -1.5h73 q9 0 9 -8q0 -22 -13 -22h-73h-7t-3.5 -1.5t-1.5 -2.5t-1 -6l-14 -76q-1 -7 6 -7h86q2 0 2 -6t-1.5 -12t-3.5 -6h-87q-7 0 -8 -6v-2q-21 -126 -21 -132q0 -21 19 -21q11 0 37 22.5t48.5 45t23.5 22.5q2 0 8 -4.5t6 -6.5q0 -4 -31.5 -39t-76.5 -70.5t-72 -35.5q-35 0 -35 34 q0 14 32 185q1 6 0 7t-8 1h-56z" />
<glyph unicode="&#x168;" horiz-adv-x="759" d="M319 745q2 9 11 25q15 25 32.5 38.5t30.5 13.5q15 0 41 -18t39 -18q21 0 40 33q3 7 13 7q6 0 6 -2q-1 -6 -11 -26q-29 -55 -66 -55q-17 0 -41 17.5t-39 17.5q-22 0 -38 -29q-3 -6 -12 -6q-6 0 -6 2zM60 649q0 7 2 10.5t5 4t11 0.5q6 0 40.5 -1.5t51.5 -1.5q16 0 52.5 1.5 t47.5 1.5q10 0 12 -2.5t2 -15.5q0 -9 -3 -10.5t-15 -1.5h-32q-5 0 -23.5 -98.5t-35 -211.5t-16.5 -148q0 -37 15 -64.5t34.5 -40.5t46 -21t40.5 -9t27 -1q42 0 88.5 16t76.5 35q28 19 39 60q12 47 32 163q41 241 48 320h-67q-8 0 -11 0.5t-6 4t-3 10.5t2.5 10.5t6 4 t11.5 0.5q6 0 46.5 -1.5t57.5 -1.5t48 1.5t34 1.5q10 0 12 -2.5t2 -15.5q0 -9 -2.5 -10.5t-15.5 -1.5h-32q-8 -38 -22 -118q-62 -378 -95 -490q-7 -25 -19 -25h-5q-9 0 -11 11q-1 10 -2.5 23t-2 19.5t-1.5 13t-2.5 9t-4.5 2.5t-45 -24q-113 -62 -211 -62q-82 0 -137 42.5 t-55 115.5q0 46 33 248.5t33 229.5q0 5 -1 5h-63q-6 0 -8 0.5t-5 1.5t-4 4t-1 9z" />
<glyph unicode="&#x169;" horiz-adv-x="521" d="M210 495q2 9 11 25q15 25 32.5 38.5t30.5 13.5q16 0 42 -18t38 -18q21 0 40 33q3 7 13 7q6 0 6 -2q-1 -6 -11 -26q-29 -55 -66 -55q-17 0 -41 17.5t-39 17.5q-22 0 -38 -29q-3 -6 -12 -6q-6 0 -6 2zM15 256q0 2 12 19t32 41.5t38 43.5q31 31 71 31q22 0 38.5 -9t16.5 -27 q0 -13 -32 -132.5t-32 -145.5q0 -23 28 -23q33 0 88 78q72 104 101 199q6 24 12 55q1 4 27 7q15 2 26 3q9 0 9 -9q0 -5 -27.5 -145.5t-27.5 -152.5q0 -25 19 -25q11 0 31 22.5t36 45t17 22.5q8 0 8 -7q0 -6 -22 -40.5t-57 -70.5t-62 -36q-14 0 -23.5 7.5t-9.5 19.5 q0 22 22.5 122.5t26.5 130.5q-1 -3 -10 -22t-26 -50t-33 -55q-104 -158 -173 -158q-55 0 -55 42q0 11 30.5 125.5t30.5 152.5q0 29 -20 29q-11 0 -34 -24.5t-41.5 -49t-20.5 -24.5q-4 0 -9 3t-5 7z" />
<glyph unicode="&#x16a;" horiz-adv-x="759" d="M327 788l2 21q1 6 2 7t7 1h181q5 0 6.5 -1t1.5 -6l-2 -23q-5 -8 -8 -8h-181q-7 0 -8.5 1t-0.5 8zM60 649q0 7 2 10.5t5 4t11 0.5q6 0 40.5 -1.5t51.5 -1.5q16 0 52.5 1.5t47.5 1.5q10 0 12 -2.5t2 -15.5q0 -9 -3 -10.5t-15 -1.5h-32q-5 0 -23.5 -98.5t-35 -211.5 t-16.5 -148q0 -37 15 -64.5t34.5 -40.5t46 -21t40.5 -9t27 -1q42 0 88.5 16t76.5 35q28 19 39 60q12 47 32 163q41 241 48 320h-67q-8 0 -11 0.5t-6 4t-3 10.5t2.5 10.5t6 4t11.5 0.5q6 0 46.5 -1.5t57.5 -1.5t48 1.5t34 1.5q10 0 12 -2.5t2 -15.5q0 -9 -2.5 -10.5 t-15.5 -1.5h-32q-8 -38 -22 -118q-62 -378 -95 -490q-7 -25 -19 -25h-5q-9 0 -11 11q-1 10 -2.5 23t-2 19.5t-1.5 13t-2.5 9t-4.5 2.5t-45 -24q-113 -62 -211 -62q-82 0 -137 42.5t-55 115.5q0 46 33 248.5t33 229.5q0 5 -1 5h-63q-6 0 -8 0.5t-5 1.5t-4 4t-1 9z" />
<glyph unicode="&#x16b;" horiz-adv-x="521" d="M218 518l2 21q1 6 2 7t7 1h181q6 0 7 -1t1 -6l-2 -23q-5 -8 -8 -8h-181q-7 0 -8.5 1t-0.5 8zM15 256q0 2 12 19t32 41.5t38 43.5q31 31 71 31q22 0 38.5 -9t16.5 -27q0 -13 -32 -132.5t-32 -145.5q0 -23 28 -23q33 0 88 78q72 104 101 199q6 24 12 55q1 4 27 7q15 2 26 3 q9 0 9 -9q0 -5 -27.5 -145.5t-27.5 -152.5q0 -25 19 -25q11 0 31 22.5t36 45t17 22.5q8 0 8 -7q0 -6 -22 -40.5t-57 -70.5t-62 -36q-14 0 -23.5 7.5t-9.5 19.5q0 22 22.5 122.5t26.5 130.5q-1 -3 -10 -22t-26 -50t-33 -55q-104 -158 -173 -158q-55 0 -55 42q0 11 30.5 125.5 t30.5 152.5q0 29 -20 29q-11 0 -34 -24.5t-41.5 -49t-20.5 -24.5q-4 0 -9 3t-5 7z" />
<glyph unicode="&#x16c;" horiz-adv-x="759" d="M341 810q0 28 4 28h13q1 0 1 -2q0 -31 15.5 -45t52.5 -14q53 0 77 32q4 6 7.5 13.5l5.5 11.5t3 4h13q-6 -46 -37.5 -77.5t-76.5 -31.5q-41 0 -59.5 23t-18.5 58zM60 649q0 7 2 10.5t5 4t11 0.5q6 0 40.5 -1.5t51.5 -1.5q16 0 52.5 1.5t47.5 1.5q10 0 12 -2.5t2 -15.5 q0 -9 -3 -10.5t-15 -1.5h-32q-5 0 -23.5 -98.5t-35 -211.5t-16.5 -148q0 -37 15 -64.5t34.5 -40.5t46 -21t40.5 -9t27 -1q42 0 88.5 16t76.5 35q28 19 39 60q12 47 32 163q41 241 48 320h-67q-8 0 -11 0.5t-6 4t-3 10.5t2.5 10.5t6 4t11.5 0.5q6 0 46.5 -1.5t57.5 -1.5 t48 1.5t34 1.5q10 0 12 -2.5t2 -15.5q0 -9 -2.5 -10.5t-15.5 -1.5h-32q-8 -38 -22 -118q-62 -378 -95 -490q-7 -25 -19 -25h-5q-9 0 -11 11q-1 10 -2.5 23t-2 19.5t-1.5 13t-2.5 9t-4.5 2.5t-45 -24q-113 -62 -211 -62q-82 0 -137 42.5t-55 115.5q0 46 33 248.5t33 229.5 q0 5 -1 5h-63q-6 0 -8 0.5t-5 1.5t-4 4t-1 9z" />
<glyph unicode="&#x16d;" horiz-adv-x="521" d="M234 552q0 32 4 32h13q1 0 1 -3q0 -9 2 -21q9 -49 66 -49q52 0 78 40q4 7 7.5 15.5t5 13t2.5 4.5h13q-6 -53 -37.5 -89t-76.5 -36q-41 0 -59.5 26.5t-18.5 66.5zM15 256q0 2 12 19t32 41.5t38 43.5q31 31 71 31q22 0 38.5 -9t16.5 -27q0 -13 -32 -132.5t-32 -145.5 q0 -23 28 -23q33 0 88 78q72 104 101 199q6 24 12 55q1 4 27 7q15 2 26 3q9 0 9 -9q0 -5 -27.5 -145.5t-27.5 -152.5q0 -25 19 -25q11 0 31 22.5t36 45t17 22.5q8 0 8 -7q0 -6 -22 -40.5t-57 -70.5t-62 -36q-14 0 -23.5 7.5t-9.5 19.5q0 22 22.5 122.5t26.5 130.5 q-1 -3 -10 -22t-26 -50t-33 -55q-104 -158 -173 -158q-55 0 -55 42q0 11 30.5 125.5t30.5 152.5q0 29 -20 29q-11 0 -34 -24.5t-41.5 -49t-20.5 -24.5q-4 0 -9 3t-5 7z" />
<glyph unicode="&#x16e;" horiz-adv-x="759" d="M359 781q0 28 20 48t48 20t48 -20t20 -48t-20 -48t-48 -20t-48 20t-20 48zM387 781q0 -17 11.5 -28.5t28.5 -11.5t28.5 11.5t11.5 28.5t-11.5 28.5t-28.5 11.5t-28.5 -11.5t-11.5 -28.5zM60 649q0 7 2 10.5t5 4t11 0.5q6 0 40.5 -1.5t51.5 -1.5q16 0 52.5 1.5t47.5 1.5 q10 0 12 -2.5t2 -15.5q0 -9 -3 -10.5t-15 -1.5h-32q-5 0 -23.5 -98.5t-35 -211.5t-16.5 -148q0 -37 15 -64.5t34.5 -40.5t46 -21t40.5 -9t27 -1q42 0 88.5 16t76.5 35q28 19 39 60q12 47 32 163q41 241 48 320h-67q-8 0 -11 0.5t-6 4t-3 10.5t2.5 10.5t6 4t11.5 0.5 q6 0 46.5 -1.5t57.5 -1.5t48 1.5t34 1.5q10 0 12 -2.5t2 -15.5q0 -9 -2.5 -10.5t-15.5 -1.5h-32q-8 -38 -22 -118q-62 -378 -95 -490q-7 -25 -19 -25h-5q-9 0 -11 11q-1 10 -2.5 23t-2 19.5t-1.5 13t-2.5 9t-4.5 2.5t-45 -24q-113 -62 -211 -62q-82 0 -137 42.5t-55 115.5 q0 46 33 248.5t33 229.5q0 5 -1 5h-63q-6 0 -8 0.5t-5 1.5t-4 4t-1 9z" />
<glyph unicode="&#x16f;" horiz-adv-x="521" d="M250 531q0 28 20 48t48 20t48 -20t20 -48t-20 -48t-48 -20t-48 20t-20 48zM278 531q0 -17 11.5 -28.5t28.5 -11.5t28.5 11.5t11.5 28.5t-11.5 28.5t-28.5 11.5t-28.5 -11.5t-11.5 -28.5zM15 256q0 2 12 19t32 41.5t38 43.5q31 31 71 31q22 0 38.5 -9t16.5 -27 q0 -13 -32 -132.5t-32 -145.5q0 -23 28 -23q33 0 88 78q72 104 101 199q6 24 12 55q1 4 27 7q15 2 26 3q9 0 9 -9q0 -5 -27.5 -145.5t-27.5 -152.5q0 -25 19 -25q11 0 31 22.5t36 45t17 22.5q8 0 8 -7q0 -6 -22 -40.5t-57 -70.5t-62 -36q-14 0 -23.5 7.5t-9.5 19.5 q0 22 22.5 122.5t26.5 130.5q-1 -3 -10 -22t-26 -50t-33 -55q-104 -158 -173 -158q-55 0 -55 42q0 11 30.5 125.5t30.5 152.5q0 29 -20 29q-11 0 -34 -24.5t-41.5 -49t-20.5 -24.5q-4 0 -9 3t-5 7z" />
</font>
</defs>
</svg>
