<?xml version="1.0" standalone="no"?>
<!DOCTYPE svg PUBLIC "-//W3C//DTD SVG 1.1//EN" "http://www.w3.org/Graphics/SVG/1.1/DTD/svg11.dtd" >
<svg xmlns="http://www.w3.org/2000/svg">
<metadata>
This is a custom SVG webfont generated by Font Squirrel.
Copyright   : Copyright c 2011 Barry Schwartz
</metadata>
<defs>
<font id="FanwoodRegular" horiz-adv-x="500" >
<font-face units-per-em="1000" ascent="690" descent="-310" />
<missing-glyph horiz-adv-x="200" />
<glyph unicode="fi" horiz-adv-x="499" d="M35 12q0 13 12 13h40q4 0 4 63q0 20 -0.5 51t-0.5 33v80q0 94 -2 94h-33q-9 0 -11.5 2t-2.5 11t2 11t9 2h29q6 0 7.5 1t1.5 7q0 66 6 125q8 82 53.5 127.5t113.5 45.5q57 0 92 -29t35 -59q0 -16 -17 -30.5t-29 -14.5t-13 9q-4 62 -22 82t-51 20t-54.5 -22t-30.5 -63 t-12 -76.5t-3 -85.5v-24q0 -9 3 -11t16 -2h117q11 0 59 2.5t54 2.5q7 0 7 -6v-170q0 -107 3 -164q0 -5 0.5 -7t2.5 -3.5t7 -1.5h31q11 0 11 -13q0 -8 -1.5 -11t-9.5 -3q-9 0 -37.5 1t-41.5 1t-44 -1t-40 -1q-8 0 -9.5 2.5t-1.5 11.5q0 7 2.5 10t11.5 3h36q8 0 9.5 2t1.5 10 q1 29 1 82q0 117 -4 214q-1 9 -2.5 11.5t-7.5 2.5h-157q-11 0 -14 -2t-3 -10v-166q0 -144 10 -144h59q8 0 10.5 -3t2.5 -10q0 -6 -0.5 -8t-3.5 -4t-9 -2q-8 0 -44 1t-52 1q-12 0 -39.5 -1t-43.5 -1q-9 0 -11 2.5t-2 11.5z" />
<glyph unicode="fl" horiz-adv-x="501" d="M33 12q0 13 12 13h40q6 0 6 63q0 20 -0.5 51t-0.5 33v60q0 114 -2 114h-35q-9 0 -11.5 2t-2.5 11t2 11t9 2h27q7 0 9.5 2t2.5 10q0 24 -0.5 47t-0.5 50q0 84 45.5 140.5t132.5 56.5q36 0 74 -22q12 -7 27 -5q9 1 18.5 3t15 3t6.5 1q5 0 6 -2.5t1 -12.5q-4 -181 -4 -348 q0 -270 4 -270h48q8 0 10.5 -3t2.5 -10q0 -6 -0.5 -8t-3.5 -4t-9 -2q-8 0 -38 1t-46 1q-12 0 -42 -1t-46 -1q-9 0 -11 2.5t-2 11.5q0 13 12 13h47q4 0 4 85v219q0 12 -2.5 15t-11.5 3h-150q-11 0 -15 -2.5t-4 -9.5v-226q0 -84 8 -84h55q8 0 10.5 -3t2.5 -10q0 -6 -0.5 -8 t-3.5 -4t-9 -2q-8 0 -41.5 1t-49.5 1q-12 0 -39.5 -1t-43.5 -1q-9 0 -11 2.5t-2 11.5zM155 389q0 -12 3 -14.5t18 -2.5h148q10 0 13 3.5t3 16.5q0 61 -2 157q0 13 -13 33q-5 7 -13.5 23.5t-14.5 25.5t-19 17t-32 8q-29 0 -48.5 -15.5t-28 -45.5t-11.5 -59t-3 -69v-78z" />
<glyph unicode="ff" horiz-adv-x="558" d="M38 12q0 13 12 13h37q4 0 4 63q0 20 -0.5 51t-0.5 33v60q0 114 -2 114h-35q-9 0 -11.5 2t-2.5 11t2 11t9 2h29q7 0 8.5 2t1.5 10q0 40 2.5 69t11.5 71t32.5 73.5t59.5 48.5q37 18 74 18q55 0 98 -41q7 -5 10 -1q38 56 112 56q37 0 63 -18.5t26 -48.5q0 -16 -18 -31.5 t-30 -15.5t-13 9q-3 23 -5 33t-7 24.5t-13.5 20t-21.5 5.5q-17 0 -28.5 -8t-17.5 -19t-9.5 -31.5t-4 -36t-0.5 -42.5v-130v-7.5t1 -5t3.5 -3t6 -1t9.5 -0.5h116q7 0 7 -5t-2.5 -12.5t-5.5 -7.5h-115q-11 0 -14 -2t-3 -10v-166q0 -144 10 -144h66q8 0 10.5 -3t2.5 -10 q0 -6 -0.5 -8t-3.5 -4t-9 -2q-8 0 -49 1t-57 1q-12 0 -37 -1t-41 -1q-9 0 -11 2.5t-2 11.5q0 13 12 13h37q4 0 4 63q0 20 -0.5 51t-0.5 33v60q0 26 -0.5 62t-0.5 40q0 8 -3.5 10.5t-14.5 2.5h-149q-11 0 -14 -2t-3 -10v-166q0 -144 10 -144h56q8 0 10.5 -3t2.5 -10 q0 -6 -0.5 -8t-3.5 -4t-9 -2q-8 0 -44 1t-52 1q-12 0 -37 -1t-41 -1q-9 0 -11 2.5t-2 11.5zM156 386q0 -9 3.5 -11.5t16.5 -2.5h147q13 0 15.5 2t2.5 11q0 19 -0.5 39t-0.5 40q0 24 2 46.5t4 35.5l3 12q0 4 -3 7q-16 13 -24 27q-9 15 -15.5 24t-20 17t-29.5 8q-24 0 -42 -10 t-28.5 -30t-17.5 -39t-9.5 -48t-3 -46t-0.5 -43v-39z" />
<glyph unicode="ffi" horiz-adv-x="753" d="M38 12q0 13 12 13h37q4 0 4 63q0 20 -0.5 51t-0.5 33v66q0 108 -2 108h-35q-9 0 -11.5 2t-2.5 11t2 11t9 2h29q7 0 8.5 2t1.5 10q0 36 1 59.5t6.5 58.5t16.5 59t31.5 47.5t50.5 37.5q37 18 74 18q33 0 63.5 -16t49.5 -43q47 73 135 73q57 0 92 -29t35 -59 q0 -16 -17 -30.5t-29 -14.5t-13 9q-4 62 -22 82t-51 20t-54.5 -22t-30.5 -63t-12 -76.5t-3 -85.5v-24q0 -9 3 -11t16 -2h117q11 0 59 2.5t54 2.5q7 0 7 -6v-170q0 -107 3 -164q0 -5 0.5 -7t2.5 -3.5t7 -1.5h31q11 0 11 -13q0 -8 -1.5 -11t-9.5 -3q-9 0 -37.5 1t-41.5 1 t-44 -1t-40 -1q-8 0 -9.5 2.5t-1.5 11.5q0 7 2.5 10t11.5 3h36q8 0 9.5 2t1.5 10q1 29 1 82q0 117 -4 214q-1 9 -2.5 11.5t-7.5 2.5h-157q-11 0 -14 -2t-3 -10v-166q0 -144 10 -144h49q8 0 10.5 -3t2.5 -10q0 -6 -0.5 -8t-3.5 -4t-9 -2q-8 0 -39 1t-47 1q-12 0 -39.5 -1 t-43.5 -1q-9 0 -11 2.5t-2 11.5q0 13 12 13h40q4 0 4 63q0 20 -0.5 51t-0.5 33v80q0 94 -2 94q-6 0 -21.5 0.5t-20.5 0.5h-124q-11 0 -14 -2t-3 -10v-166q0 -144 10 -144h56q8 0 10.5 -3t2.5 -10q0 -6 -0.5 -8t-3.5 -4t-9 -2q-8 0 -44 1t-52 1q-12 0 -37 -1t-41 -1 q-9 0 -11 2.5t-2 11.5zM155 389q0 -12 3 -14.5t18 -2.5h159q6 0 7.5 1t1.5 7q0 105 10 150q4 18 4 19q0 4 -9 10q-13 9 -30 38q-25 44 -62 44q-20 0 -36 -7t-26.5 -16.5t-18 -28t-11.5 -33t-6 -40.5t-2.5 -41t-1 -44.5t-0.5 -41.5z" />
<glyph unicode="ffl" horiz-adv-x="754" d="M38 12q0 13 12 13h37q4 0 4 63q0 20 -0.5 51t-0.5 33v60q0 114 -2 114h-35q-9 0 -11.5 2t-2.5 11t2 11t9 2h29q7 0 8.5 2t1.5 10q0 213 106 262q37 18 74 18q66 0 106 -50q3 -4 7 1q50 63 138 63q36 0 74 -22q12 -7 27 -5q9 1 18.5 3t15 3t6.5 1q5 0 6 -2.5t1 -12.5 q-4 -181 -4 -375q0 -243 4 -243h48q8 0 10.5 -3t2.5 -10q0 -6 -0.5 -8t-3.5 -4t-9 -2q-8 0 -38 1t-46 1q-12 0 -42 -1t-46 -1q-9 0 -11 2.5t-2 11.5q0 13 12 13h47q4 0 4 85v219q0 12 -2.5 15t-11.5 3h-150q-11 0 -15 -2.5t-4 -9.5v-226q0 -84 8 -84h50q8 0 10.5 -3t2.5 -10 q0 -6 -0.5 -8t-3.5 -4t-9 -2q-8 0 -39 1t-47 1q-12 0 -39.5 -1t-43.5 -1q-9 0 -11 2.5t-2 11.5q0 13 12 13h40q6 0 6 63q0 20 -0.5 51t-0.5 33v165q0 7 -2.5 8.5t-11.5 1.5h-154q-11 0 -14 -2t-3 -10v-166q0 -144 10 -144h56q8 0 10.5 -3t2.5 -10q0 -6 -0.5 -8t-3.5 -4 t-9 -2q-8 0 -44 1t-52 1q-12 0 -37 -1t-41 -1q-9 0 -11 2.5t-2 11.5zM156 384q0 -8 3.5 -10t16.5 -2h157q7 0 8.5 2t1.5 13q0 21 -0.5 44.5t-0.5 49.5q0 47 8 73q1 3 1 5t-5 6q-16 13 -24 27q-9 15 -15.5 24t-20 17t-29.5 8q-27 0 -47 -15t-30 -36t-16 -54t-7 -57t-1 -58 v-37zM409 389q0 -12 3 -14.5t18 -2.5h148q10 0 13 3.5t3 16.5q0 61 -2 157q0 13 -13 33q-5 7 -13.5 23.5t-14.5 25.5t-19 17t-32 8q-29 0 -48.5 -15.5t-28 -45.5t-11.5 -59t-3 -69v-78z" />
<glyph unicode="fj" horiz-adv-x="506" d="M35 12q0 13 12 13h40q4 0 4 63q0 20 -0.5 51t-0.5 33v80q0 94 -2 94h-33q-9 0 -11.5 2t-2.5 11t2 11t9 2h29q6 0 7.5 1t1.5 7q0 66 6 125q8 82 53.5 127.5t113.5 45.5q57 0 92 -29t35 -59q0 -16 -17 -30.5t-29 -14.5t-13 9q-4 62 -22 82t-51 20t-54.5 -22t-30.5 -63 t-12 -76.5t-3 -85.5v-24q0 -9 3 -11t16 -2h117q11 0 57.5 3t52.5 3q7 0 7 -23q0 -20 2.5 -136.5t2.5 -191.5q0 -90 -10.5 -145t-43.5 -98q-13 -17 -57.5 -38t-66.5 -21q-19 0 -19 20q0 16 14.5 34.5t26.5 18.5t31.5 -2t23.5 -2q19 0 28.5 9.5t9.5 23.5q0 9 -2.5 56.5 t-4.5 145t-2 229.5q0 49 -2 76q-1 13 -10 13h-157q-11 0 -14 -2t-3 -10v-166q0 -144 10 -144h59q8 0 10.5 -3t2.5 -10q0 -6 -0.5 -8t-3.5 -4t-9 -2q-8 0 -44 1t-52 1q-12 0 -39.5 -1t-43.5 -1q-9 0 -11 2.5t-2 11.5z" />
<glyph unicode="ffj" horiz-adv-x="760" d="M38 12q0 13 12 13h37q4 0 4 63q0 20 -0.5 51t-0.5 33v66q0 108 -2 108h-35q-9 0 -11.5 2t-2.5 11t2 11t9 2h29q7 0 8.5 2t1.5 10q0 36 1 59.5t6.5 58.5t16.5 59t31.5 47.5t50.5 37.5q37 18 74 18q33 0 63.5 -16t49.5 -43q47 73 135 73q57 0 92 -29t35 -59 q0 -16 -17 -30.5t-29 -14.5t-13 9q-4 62 -22 82t-51 20t-54.5 -22t-30.5 -63t-12 -76.5t-3 -85.5v-24q0 -9 3 -11t16 -2h117q11 0 57.5 3t52.5 3q7 0 7 -23q0 -20 2.5 -136.5t2.5 -191.5q0 -90 -10.5 -145t-43.5 -98q-13 -17 -57.5 -38t-66.5 -21q-19 0 -19 20 q0 16 14.5 34.5t26.5 18.5t31.5 -2t23.5 -2q19 0 28.5 9.5t9.5 23.5q0 9 -2.5 56.5t-4.5 145t-2 229.5q0 49 -2 76q-1 13 -10 13h-157q-11 0 -14 -2t-3 -10v-166q0 -144 10 -144h49q8 0 10.5 -3t2.5 -10q0 -6 -0.5 -8t-3.5 -4t-9 -2q-8 0 -39 1t-47 1q-12 0 -39.5 -1 t-43.5 -1q-9 0 -11 2.5t-2 11.5q0 13 12 13h40q4 0 4 63q0 20 -0.5 51t-0.5 33v80q0 94 -2 94q-6 0 -21.5 0.5t-20.5 0.5h-124q-11 0 -14 -2t-3 -10v-166q0 -144 10 -144h56q8 0 10.5 -3t2.5 -10q0 -6 -0.5 -8t-3.5 -4t-9 -2q-8 0 -44 1t-52 1q-12 0 -37 -1t-41 -1 q-9 0 -11 2.5t-2 11.5zM155 389q0 -12 3 -14.5t18 -2.5h159q6 0 7.5 1t1.5 7q0 105 10 150q4 18 4 19q0 4 -9 10q-13 9 -30 38q-25 44 -62 44q-20 0 -36 -7t-26.5 -16.5t-18 -28t-11.5 -33t-6 -40.5t-2.5 -41t-1 -44.5t-0.5 -41.5z" />
<glyph unicode="fb" horiz-adv-x="739" d="M33 12q0 13 12 13h40q6 0 6 63q0 20 -0.5 51t-0.5 33v60q0 114 -2 114h-35q-9 0 -11.5 2t-2.5 11t2 11t9 2h27q7 0 9.5 2t2.5 10q0 24 -0.5 47t-0.5 50q0 84 45.5 140.5t132.5 56.5q36 0 74 -22q12 -7 27 -5q9 1 18.5 3t15 3t6.5 1q5 0 6 -2.5t1 -12.5q0 -3 -1 -48 t-2.5 -104t-1.5 -97t1 -38t7.5 3t17.5 7.5t23.5 9t28.5 7.5t30 3q83 0 137.5 -57.5t54.5 -140.5q0 -92 -65 -146.5t-156 -54.5q-19 0 -47.5 9.5t-41.5 9.5q-11 0 -28 -9t-21 -9q-12 0 -12 13q0 1 1 36.5t1.5 82.5t0.5 77q0 304 -1 352q0 6 -1.5 11t-3 8t-5 7t-5.5 7 q-5 7 -13.5 23.5t-14.5 25.5t-19 17t-32 8q-29 0 -48.5 -15.5t-28 -45.5t-11.5 -59t-3 -69v-78q0 -12 3 -14.5t18 -2.5h116q7 0 7 -5t-2.5 -12.5t-5.5 -7.5h-115q-11 0 -15 -2.5t-4 -9.5v-226q0 -84 8 -84h55q8 0 10.5 -3t2.5 -10q0 -6 -0.5 -8t-3.5 -4t-9 -2q-8 0 -41.5 1 t-49.5 1q-12 0 -39.5 -1t-43.5 -1q-9 0 -11 2.5t-2 11.5zM407 64q0 -50 84 -50q67 0 106.5 51t39.5 122q0 67 -47.5 118.5t-112.5 51.5q-16 0 -32.5 -5.5t-26 -11t-9.5 -8.5q0 -59 -1 -159.5t-1 -108.5z" />
<glyph unicode="fh" horiz-adv-x="755" d="M33 12q0 13 12 13h40q6 0 6 63q0 20 -0.5 51t-0.5 33v60q0 114 -2 114h-35q-9 0 -11.5 2t-2.5 11t2 11t9 2h27q7 0 9.5 2t2.5 10q0 24 -0.5 47t-0.5 50q0 84 45.5 140.5t132.5 56.5q36 0 74 -22q12 -7 27 -5q9 1 18.5 3t15 3t6.5 1q5 0 6 -2.5t1 -12.5q-4 -83 -4 -289 v-10t2 -3t3 0.5t6 3.5q73 40 133 40q40 0 66.5 -16t38.5 -47t16 -63t4 -79v-143q0 -8 1.5 -10t9.5 -2h26q14 0 14 -13q0 -14 -14 -14q-8 0 -31.5 1t-39.5 1q-12 0 -41 -1t-45 -1q-9 0 -11 2.5t-2 11.5q0 13 13 13h39q8 0 9 1.5t2 9.5q2 40 2 176q0 58 -24 95t-72 37 q-47 0 -89 -21q-16 -8 -16 -15l1 -150q0 -89 1 -115q1 -10 1.5 -13t2 -4t7.5 -1h38q8 0 10.5 -3t2.5 -10q0 -6 -0.5 -8t-3.5 -4t-9 -2q-8 0 -37.5 1t-45.5 1q-12 0 -41 -1t-45 -1q-9 0 -11 2.5t-2 11.5q0 13 12 13h39q7 0 8.5 3t1.5 15q1 94 1 220q0 238 -1 286q0 6 -1.5 11 t-3 8t-5 7t-5.5 7q-5 7 -13.5 23.5t-14.5 25.5t-19 17t-32 8q-29 0 -48.5 -15.5t-28 -45.5t-11.5 -59t-3 -69v-78q0 -12 3 -14.5t18 -2.5h116q7 0 7 -5t-2.5 -12.5t-5.5 -7.5h-115q-11 0 -15 -2.5t-4 -9.5v-226q0 -84 8 -84h55q8 0 10.5 -3t2.5 -10q0 -6 -0.5 -8t-3.5 -4 t-9 -2q-8 0 -41.5 1t-49.5 1q-12 0 -39.5 -1t-43.5 -1q-9 0 -11 2.5t-2 11.5z" />
<glyph unicode="fk" horiz-adv-x="705" d="M33 12q0 13 12 13h40q6 0 6 63q0 20 -0.5 51t-0.5 33v60q0 114 -2 114h-35q-9 0 -11.5 2t-2.5 11t2 11t9 2h27q7 0 9.5 2t2.5 10q0 24 -0.5 47t-0.5 50q0 84 45.5 140.5t132.5 56.5q36 0 74 -22q12 -7 27 -5q9 1 18.5 3t15 3t6.5 1q5 0 6 -2.5t1 -12.5l-9 -423 q0 -8 2.5 -9.5t13.5 -1.5h22q4 0 7.5 1t7 4.5l5 5t5.5 6t4 5.5q53 70 79 113q3 5 3.5 6.5t1.5 4t-0.5 3.5t-5 1.5t-9.5 0.5h-20q-8 0 -10.5 3t-2.5 10q0 14 14 14q4 0 25 -1t33 -1q10 0 30 1t27 1q13 0 13 -14q0 -13 -12 -13h-32q-11 0 -107 -123q-2 -2 -5 -6q-3 -3 -4 -4.5 t0.5 -4t3.5 -4.5l5 -5l151 -175q11 -13 22 -13h10q8 0 10.5 -3t2.5 -10q0 -6 -0.5 -8t-3.5 -4t-9 -2t-29.5 1t-37.5 1t-38 -1t-30 -1q-9 0 -11 2.5t-2 11.5q0 13 12 13h11q17 0 5 15l-110 136q-2 2 -4 5q-9 12 -18 12h-14q-8 0 -9.5 -3t-1.5 -13v-134q0 -13 1.5 -15.5 t9.5 -2.5h23q8 0 10.5 -3t2.5 -10q0 -6 -0.5 -8t-3.5 -4t-9 -2q-8 0 -30 1t-38 1q-19 0 -48 -1t-32 -1q-9 0 -11 2.5t-2 11.5q0 13 12 13h41q7 0 8.5 3t1.5 15v193q0 265 -1 313q0 6 -1.5 11t-3 8t-5 7t-5.5 7q-5 7 -13.5 23.5t-14.5 25.5t-19 17t-32 8q-29 0 -48.5 -15.5 t-28 -45.5t-11.5 -59t-3 -69v-78q0 -12 3 -14.5t18 -2.5h116q7 0 7 -5t-2.5 -12.5t-5.5 -7.5h-115q-11 0 -15 -2.5t-4 -9.5v-226q0 -84 8 -84h55q8 0 10.5 -3t2.5 -10q0 -6 -0.5 -8t-3.5 -4t-9 -2q-8 0 -41.5 1t-49.5 1q-12 0 -39.5 -1t-43.5 -1q-9 0 -11 2.5t-2 11.5z" />
<glyph unicode="ffb" horiz-adv-x="992" d="M38 12q0 13 12 13h37q4 0 4 63q0 20 -0.5 51t-0.5 33v60q0 114 -2 114h-35q-9 0 -11.5 2t-2.5 11t2 11t9 2h29q7 0 8.5 2t1.5 10q0 40 2.5 69t11.5 71t32.5 73.5t59.5 48.5q37 18 74 18q66 0 106 -50q3 -4 7 1q50 63 138 63q36 0 74 -22q12 -7 27 -5q9 1 18.5 3t15 3 t6.5 1q5 0 6 -2.5t1 -12.5q0 -4 -3 -104.5t-3 -144.5q0 -38 1 -38t7.5 3t17.5 7.5t23.5 9t28.5 7.5t30 3q83 0 137.5 -57.5t54.5 -140.5q0 -92 -65 -146.5t-156 -54.5q-19 0 -47.5 9.5t-41.5 9.5q-11 0 -28 -9t-21 -9q-12 0 -12 13q0 1 0.5 36.5t1.5 82.5t1 77q0 256 -2 352 q0 13 -13 33q-5 7 -13.5 23.5t-14.5 25.5t-19 17t-32 8q-29 0 -48.5 -15.5t-28 -45.5t-11.5 -59t-3 -69v-78q0 -12 3 -14.5t18 -2.5h116q7 0 7 -5t-2.5 -12.5t-5.5 -7.5h-115q-11 0 -15 -2.5t-4 -9.5v-226q0 -84 8 -84h50q8 0 10.5 -3t2.5 -10q0 -6 -0.5 -8t-3.5 -4t-9 -2 q-8 0 -39 1t-47 1q-12 0 -39.5 -1t-43.5 -1q-9 0 -11 2.5t-2 11.5q0 13 12 13h40q6 0 6 63q0 20 -0.5 51t-0.5 33v165q0 7 -2.5 8.5t-11.5 1.5h-154q-11 0 -14 -2t-3 -10v-166q0 -144 10 -144h56q8 0 10.5 -3t2.5 -10q0 -6 -0.5 -8t-3.5 -4t-9 -2q-8 0 -44 1t-52 1 q-12 0 -37 -1t-41 -1q-9 0 -11 2.5t-2 11.5zM156 384q0 -8 3 -10t17 -2h157q7 0 8.5 2t1.5 13q0 21 -0.5 44.5t-0.5 49.5q0 47 8 73q1 3 1 5t-5 6q-16 13 -24 27q-9 15 -15.5 24t-20 17t-29.5 8q-28 0 -48 -15.5t-30 -36.5t-15.5 -55t-6.5 -57.5t-1 -57.5v-35zM660 64 q0 -50 84 -50q67 0 106.5 51t39.5 122q0 67 -47.5 118.5t-112.5 51.5q-16 0 -32.5 -5.5t-26 -11t-9.5 -8.5q0 -59 -1 -159.5t-1 -108.5z" />
<glyph unicode="ffh" horiz-adv-x="1008" d="M38 12q0 13 12 13h37q4 0 4 63q0 20 -0.5 51t-0.5 33v60q0 114 -2 114h-35q-9 0 -11.5 2t-2.5 11t2 11t9 2h29q7 0 8.5 2t1.5 10q0 39 2.5 68t11.5 71.5t32.5 74t59.5 48.5q37 18 74 18q66 0 106 -50q3 -4 7 1q50 63 138 63q36 0 74 -22q12 -7 27 -5q9 1 18.5 3t15 3 t6.5 1q5 0 6 -2.5t1 -12.5q-5 -104 -5 -289v-10t2 -3t3 0.5t6 3.5q73 40 133 40q40 0 66.5 -16t38.5 -47t16 -63t4 -79v-143q0 -8 1.5 -10t9.5 -2h26q14 0 14 -13q0 -14 -14 -14q-8 0 -31.5 1t-39.5 1q-12 0 -41 -1t-45 -1q-9 0 -11 2.5t-2 11.5q0 13 13 13h39q7 0 8.5 1.5 t2.5 9.5q2 40 2 176q0 58 -24 95t-72 37q-47 0 -89 -21q-16 -8 -16 -15l1 -150q0 -89 1 -115q1 -13 2 -15.5t9 -2.5h38q8 0 10.5 -3t2.5 -10q0 -6 -0.5 -8t-3.5 -4t-9 -2q-8 0 -37.5 1t-45.5 1q-12 0 -41 -1t-45 -1q-9 0 -11 2.5t-2 11.5q0 13 12 13h39q7 0 8.5 3t1.5 15 q1 94 1 220q0 190 -2 286q0 13 -13 33q-5 7 -13.5 23.5t-14.5 25.5t-19 17t-32 8q-29 0 -48.5 -15.5t-28 -45.5t-11.5 -59t-3 -69v-78q0 -12 3 -14.5t18 -2.5h116q7 0 7 -5t-2.5 -12.5t-5.5 -7.5h-115q-11 0 -15 -2.5t-4 -9.5v-226q0 -84 8 -84h50q8 0 10.5 -3t2.5 -10 q0 -6 -0.5 -8t-3.5 -4t-9 -2q-8 0 -39 1t-47 1q-12 0 -39.5 -1t-43.5 -1q-9 0 -11 2.5t-2 11.5q0 13 12 13h40q6 0 6 63q0 20 -0.5 51t-0.5 33v165q0 7 -2.5 8.5t-11.5 1.5h-154q-11 0 -14 -2t-3 -10v-166q0 -144 10 -144h56q8 0 10.5 -3t2.5 -10q0 -6 -0.5 -8t-3.5 -4 t-9 -2q-8 0 -44 1t-52 1q-12 0 -37 -1t-41 -1q-9 0 -11 2.5t-2 11.5zM156 385q0 -8 3.5 -10.5t16.5 -2.5h157q7 0 8.5 2t1.5 13q0 21 -0.5 44.5t-0.5 49.5q0 47 8 73q1 3 1 5t-5 6q-16 13 -24 27q-9 15 -15.5 24t-20 17t-29.5 8q-34 0 -56 -20t-31 -57t-11.5 -67.5 t-2.5 -74.5v-37z" />
<glyph unicode="ffk" horiz-adv-x="957" d="M38 12q0 13 12 13h37q4 0 4 63q0 20 -0.5 51t-0.5 33v60q0 114 -2 114h-35q-9 0 -11.5 2t-2.5 11t2 11t9 2h29q7 0 8.5 2t1.5 10q0 39 2.5 68t11.5 71.5t32.5 74t59.5 48.5q37 18 74 18q66 0 106 -50q3 -4 7 1q50 63 138 63q36 0 74 -22q12 -7 27 -5q9 1 18.5 3t15 3 t6.5 1q5 0 6 -2.5t1 -12.5l-11 -423q0 -8 2.5 -9.5t13.5 -1.5h22q4 0 7.5 1t7 4.5l5 5t5.5 6t4 5.5q53 70 79 113q3 5 3.5 6.5t1.5 4t-0.5 3.5t-5 1.5t-9.5 0.5h-20q-8 0 -10.5 3t-2.5 10q0 14 14 14q4 0 25 -1t33 -1q10 0 30 1t27 1q13 0 13 -14q0 -13 -12 -13h-32 q-11 0 -107 -123q-2 -2 -5 -6q-3 -3 -4 -4.5t0.5 -4t3.5 -4.5l5 -5l151 -175q11 -13 22 -13h10q8 0 10.5 -3t2.5 -10q0 -6 -0.5 -8t-3.5 -4t-9 -2t-29.5 1t-37.5 1t-38 -1t-30 -1q-9 0 -11 2.5t-2 11.5q0 13 12 13h11q17 0 5 15l-110 136q-2 2 -4 5q-9 12 -18 12h-14 q-8 0 -9.5 -3t-1.5 -13v-134q0 -13 1.5 -15.5t9.5 -2.5h23q8 0 10.5 -3t2.5 -10q0 -6 -0.5 -8t-3.5 -4t-9 -2q-8 0 -30 1t-38 1q-19 0 -48 -1t-32 -1q-9 0 -11 2.5t-2 11.5q0 13 12 13h41q7 0 8.5 3t1.5 15v193q0 265 -1 313q0 13 -13 33q-5 7 -13.5 23.5t-14.5 25.5t-19 17 t-32 8q-29 0 -48.5 -15.5t-28 -45.5t-11.5 -59t-3 -69v-78q0 -12 3 -14.5t18 -2.5h116q7 0 7 -5t-2.5 -12.5t-5.5 -7.5h-115q-11 0 -15 -2.5t-4 -9.5v-226q0 -84 8 -84h50q8 0 10.5 -3t2.5 -10q0 -6 -0.5 -8t-3.5 -4t-9 -2q-8 0 -39 1t-47 1q-12 0 -39.5 -1t-43.5 -1 q-9 0 -11 2.5t-2 11.5q0 13 12 13h40q6 0 6 63q0 20 -0.5 51t-0.5 33v165q0 7 -2.5 8.5t-11.5 1.5h-154q-11 0 -14 -2t-3 -10v-166q0 -144 10 -144h56q8 0 10.5 -3t2.5 -10q0 -6 -0.5 -8t-3.5 -4t-9 -2q-8 0 -44 1t-52 1q-12 0 -37 -1t-41 -1q-9 0 -11 2.5t-2 11.5zM156 387 q0 -10 3 -12.5t17 -2.5h157q7 0 8.5 2t1.5 13q0 21 -1.5 44.5t-1.5 49.5q0 40 10 73q1 3 1 5t-5 6q-16 13 -24 27q-9 15 -15.5 24t-20 17t-29.5 8q-29 0 -49.5 -17t-30 -38t-15 -57.5t-6 -57t-0.5 -55.5v-29z" />
<glyph unicode="f&#x125;" horiz-adv-x="755" d="M330 731l4 6l79 89q12 13 16 13h24q4 0 16 -13l79 -89q4 -4 4 -6t-6 -2h-9q-1 0 -11 6l-81 45q-4 2 -8 0l-81 -45q-10 -6 -11 -6h-9q-6 0 -6 2zM33 12q0 13 12 13h40q6 0 6 63q0 20 -0.5 51t-0.5 33v60q0 114 -2 114h-35q-9 0 -11.5 2t-2.5 11t2 11t9 2h27q7 0 9.5 2 t2.5 10q0 24 -0.5 47t-0.5 50q0 84 45.5 140.5t132.5 56.5q36 0 74 -22q12 -7 27 -5q9 1 18.5 3t15 3t6.5 1q5 0 6 -2.5t1 -12.5q-4 -83 -4 -289v-10t2 -3t3 0.5t6 3.5q73 40 133 40q40 0 66.5 -16t38.5 -47t16 -63t4 -79v-143q0 -8 1.5 -10t9.5 -2h26q14 0 14 -13 q0 -14 -14 -14q-8 0 -31.5 1t-39.5 1q-12 0 -41 -1t-45 -1q-9 0 -11 2.5t-2 11.5q0 13 13 13h39q8 0 9 1.5t2 9.5q2 40 2 176q0 58 -24 95t-72 37q-47 0 -89 -21q-16 -8 -16 -15l1 -150q0 -89 1 -115q1 -10 1.5 -13t2 -4t7.5 -1h38q8 0 10.5 -3t2.5 -10q0 -6 -0.5 -8 t-3.5 -4t-9 -2q-8 0 -37.5 1t-45.5 1q-12 0 -41 -1t-45 -1q-9 0 -11 2.5t-2 11.5q0 13 12 13h39q7 0 8.5 3t1.5 15q1 94 1 220q0 238 -1 286q0 6 -1.5 11t-3 8t-5 7t-5.5 7q-5 7 -13.5 23.5t-14.5 25.5t-19 17t-32 8q-29 0 -48.5 -15.5t-28 -45.5t-11.5 -59t-3 -69v-78 q0 -12 3 -14.5t18 -2.5h116q7 0 7 -5t-2.5 -12.5t-5.5 -7.5h-115q-11 0 -15 -2.5t-4 -9.5v-226q0 -84 8 -84h55q8 0 10.5 -3t2.5 -10q0 -6 -0.5 -8t-3.5 -4t-9 -2q-8 0 -41.5 1t-49.5 1q-12 0 -39.5 -1t-43.5 -1q-9 0 -11 2.5t-2 11.5z" />
<glyph unicode="ff&#x125;" horiz-adv-x="1008" d="M583 731l4 6l79 89q12 13 16 13h24q4 0 16 -13l79 -89q4 -4 4 -6t-6 -2h-9q-1 0 -11 6l-81 45q-4 2 -8 0l-81 -45q-10 -6 -11 -6h-9q-6 0 -6 2zM38 12q0 13 12 13h37q4 0 4 63q0 20 -0.5 51t-0.5 33v60q0 114 -2 114h-35q-9 0 -11.5 2t-2.5 11t2 11t9 2h29q7 0 8.5 2 t1.5 10q0 39 2.5 68t11.5 71.5t32.5 74t59.5 48.5q37 18 74 18q66 0 106 -50q3 -4 7 1q50 63 138 63q36 0 74 -22q12 -7 27 -5q9 1 18.5 3t15 3t6.5 1q5 0 6 -2.5t1 -12.5q-5 -104 -5 -289v-10t2 -3t3 0.5t6 3.5q73 40 133 40q40 0 66.5 -16t38.5 -47t16 -63t4 -79v-143 q0 -8 1.5 -10t9.5 -2h26q14 0 14 -13q0 -14 -14 -14q-8 0 -31.5 1t-39.5 1q-12 0 -41 -1t-45 -1q-9 0 -11 2.5t-2 11.5q0 13 13 13h39q7 0 8.5 1.5t2.5 9.5q2 40 2 176q0 58 -24 95t-72 37q-47 0 -89 -21q-16 -8 -16 -15l1 -150q0 -89 1 -115q1 -13 2 -15.5t9 -2.5h38 q8 0 10.5 -3t2.5 -10q0 -6 -0.5 -8t-3.5 -4t-9 -2q-8 0 -37.5 1t-45.5 1q-12 0 -41 -1t-45 -1q-9 0 -11 2.5t-2 11.5q0 13 12 13h39q7 0 8.5 3t1.5 15q1 94 1 220q0 190 -2 286q0 13 -13 33q-5 7 -13.5 23.5t-14.5 25.5t-19 17t-32 8q-29 0 -48.5 -15.5t-28 -45.5t-11.5 -59 t-3 -69v-78q0 -12 3 -14.5t18 -2.5h116q7 0 7 -5t-2.5 -12.5t-5.5 -7.5h-115q-11 0 -15 -2.5t-4 -9.5v-226q0 -84 8 -84h50q8 0 10.5 -3t2.5 -10q0 -6 -0.5 -8t-3.5 -4t-9 -2q-8 0 -39 1t-47 1q-12 0 -39.5 -1t-43.5 -1q-9 0 -11 2.5t-2 11.5q0 13 12 13h40q6 0 6 63 q0 20 -0.5 51t-0.5 33v165q0 7 -2.5 8.5t-11.5 1.5h-154q-11 0 -14 -2t-3 -10v-166q0 -144 10 -144h56q8 0 10.5 -3t2.5 -10q0 -6 -0.5 -8t-3.5 -4t-9 -2q-8 0 -44 1t-52 1q-12 0 -37 -1t-41 -1q-9 0 -11 2.5t-2 11.5zM156 385q0 -8 3.5 -10.5t16.5 -2.5h157q7 0 8.5 2 t1.5 13q0 21 -0.5 44.5t-0.5 49.5q0 47 8 73q1 3 1 5t-5 6q-16 13 -24 27q-9 15 -15.5 24t-20 17t-29.5 8q-34 0 -56 -20t-31 -57t-11.5 -67.5t-2.5 -74.5v-37z" />
<glyph unicode="f&#xfe;" horiz-adv-x="747" d="M33 12q0 13 12 13h40q6 0 6 63q0 20 -0.5 51t-0.5 33v60q0 114 -2 114h-35q-9 0 -11.5 2t-2.5 11t2 11t9 2h27q7 0 9.5 2t2.5 10q0 24 -0.5 47t-0.5 50q0 84 45.5 140.5t132.5 56.5q36 0 74 -22q12 -7 27 -5q9 1 18.5 3t15 3t6.5 1q5 0 6 -2.5t1 -12.5q-2 -42 -2 -173 v-128q0 -10 2 -10q1 0 19 14q50 37 108 37q83 0 127 -53t44 -136q0 -81 -57.5 -142t-151.5 -61q-31 0 -66 11l-7.5 2.5t-6.5 2.5t-5 1t-4 -1.5t-1 -4.5l3 -189q2 -67 6 -67h70q8 0 10.5 -3t2.5 -10q0 -6 -0.5 -8t-3.5 -4t-9 -2q-8 0 -49 1t-57 1q-12 0 -46.5 -1t-50.5 -1 q-9 0 -11 2.5t-2 11.5q0 13 12 13h55q3 0 3 160l-1 204q0 322 -5 439q0 6 -2 11t-3.5 7.5t-4.5 7l-5 7.5q-5 7 -13.5 23.5t-14.5 25.5t-19 17t-32 8q-29 0 -48.5 -15.5t-28 -45.5t-11.5 -59t-3 -69v-78q0 -12 3 -14.5t18 -2.5h116q7 0 7 -5t-2.5 -12.5t-5.5 -7.5h-115 q-11 0 -15 -2.5t-4 -9.5v-226q0 -84 8 -84h55q8 0 10.5 -3t2.5 -10q0 -6 -0.5 -8t-3.5 -4t-9 -2q-8 0 -41.5 1t-49.5 1q-12 0 -39.5 -1t-43.5 -1q-9 0 -11 2.5t-2 11.5zM413 52q0 -17 30 -29.5t57 -12.5q66 0 103 55t37 122q0 72 -37 116.5t-93 44.5q-36 0 -64 -13 q-33 -17 -33 -33v-250z" />
<glyph unicode="ff&#xfe;" horiz-adv-x="1001" d="M38 12q0 13 12 13h37q4 0 4 63q0 20 -0.5 51t-0.5 33v60q0 114 -2 114h-35q-9 0 -11.5 2t-2.5 11t2 11t9 2h29q7 0 8.5 2t1.5 10q0 39 2.5 68t11.5 71.5t32.5 74t59.5 48.5q37 18 74 18q66 0 106 -50q3 -4 7 1q50 63 138 63q36 0 74 -22q12 -7 27 -5q9 1 18.5 3t15 3 t6.5 1q5 0 6 -2.5t1 -12.5q-2 -42 -2 -173v-128q0 -10 2 -10q1 0 19 14q50 37 108 37q83 0 127 -53t44 -136q0 -81 -57.5 -142t-151.5 -61q-31 0 -66 11l-7.5 2.5t-6.5 2.5t-5 1t-4 -1.5t-1 -4.5l3 -189q2 -67 6 -67h70q8 0 10.5 -3t2.5 -10q0 -6 -0.5 -8t-3.5 -4t-9 -2 q-8 0 -49 1t-57 1q-12 0 -46.5 -1t-50.5 -1q-9 0 -11 2.5t-2 11.5q0 13 12 13h55q3 0 3 160l-1 204q0 322 -5 439q0 6 -2 11t-3.5 7.5t-4.5 7l-5 7.5q-5 7 -13.5 23.5t-14.5 25.5t-19 17t-32 8q-29 0 -48.5 -15.5t-28 -45.5t-11.5 -59t-3 -69v-78q0 -12 3 -14.5t18 -2.5h116 q7 0 7 -5t-2.5 -12.5t-5.5 -7.5h-115q-11 0 -15 -2.5t-4 -9.5v-226q0 -84 8 -84h50q8 0 10.5 -3t2.5 -10q0 -6 -0.5 -8t-3.5 -4t-9 -2q-8 0 -39 1t-47 1q-12 0 -39.5 -1t-43.5 -1q-9 0 -11 2.5t-2 11.5q0 13 12 13h40q6 0 6 63q0 20 -0.5 51t-0.5 33v165q0 7 -2.5 8.5 t-11.5 1.5h-154q-11 0 -14 -2t-3 -10v-166q0 -144 10 -144h56q8 0 10.5 -3t2.5 -10q0 -6 -0.5 -8t-3.5 -4t-9 -2q-8 0 -44 1t-52 1q-12 0 -37 -1t-41 -1q-9 0 -11 2.5t-2 11.5zM156 385q0 -8 3.5 -10.5t16.5 -2.5h157q7 0 8.5 2t1.5 13q0 21 -0.5 44.5t-0.5 49.5q0 47 8 73 q1 3 1 5t-5 6q-16 13 -24 27q-9 15 -15.5 24t-20 17t-29.5 8q-34 0 -56 -20t-31 -57t-11.5 -67.5t-2.5 -74.5v-37zM667 52q0 -17 30 -29.5t57 -12.5q66 0 103 55t37 122q0 72 -37 116.5t-93 44.5q-36 0 -64 -13q-33 -17 -33 -33v-250z" />
<glyph unicode=" "  horiz-adv-x="200" />
<glyph unicode="&#x09;" horiz-adv-x="200" />
<glyph unicode="&#xa0;" horiz-adv-x="200" />
<glyph unicode="!" horiz-adv-x="261" d="M80 38q0 16 16 37.5t28 21.5q16 0 36.5 -15t20.5 -32q0 -21 -16 -39.5t-26 -18.5q-20 0 -39.5 17t-19.5 29zM97 648q0 25 41 25q18 0 24.5 -4t6.5 -17q0 -3 -4 -63t-10.5 -175.5t-11.5 -231.5q0 -10 -14 -10q-13 0 -13 10q-3 95 -7.5 202t-8 175t-3.5 89z" />
<glyph unicode="&#x22;" horiz-adv-x="261" d="M30 511q0 1 2 32.5l4.5 68.5t3.5 47q4 29 32 29q29 0 29 -25q0 -4 -2 -14l-12.5 -43l-17.5 -57.5t-10 -32.5q-1 -3 -2 -7t-1.5 -5l-1.5 -3t-2.5 -2.5t-3.5 -1t-6 -0.5q-12 0 -12 14zM160 511q0 1 2 32.5l4.5 68.5t3.5 47q4 29 32 29q29 0 29 -25q0 -4 -2 -14l-12.5 -43 l-17.5 -57.5t-10 -32.5q-1 -3 -2 -7t-1.5 -5l-1.5 -3t-2.5 -2.5t-3.5 -1t-6 -0.5q-12 0 -12 14z" />
<glyph unicode="#" horiz-adv-x="442" d="M30 169v4q0 8 2 10.5t9 2.5h73q5 0 5.5 1t1.5 6q16 115 16 126q0 4 -5 4h-95q-7 0 -7 13v6q0 11 7 11h100q9 0 9 6l21 148q2 16 3 18q4 6 6.5 6.5t14.5 0.5q19 0 19 -11q0 -3 -12.5 -81t-12.5 -82q0 -5 6 -5h90q7 0 8 7q25 161 26 165q3 7 14 7q24 0 24 -10 q0 -5 -12 -82.5t-12 -81.5q0 -5 4 -5h64q10 0 12.5 -2.5t2.5 -13.5q0 -10 -3 -12t-10 -2h-72q-6 0 -6 -5q-19 -120 -19 -126t7 -6h92q7 0 9 -3t2 -14q0 -10 -2.5 -12t-11.5 -2h-86q-15 -2 -15 -5q-21 -150 -22 -152q0 -1 -1 -3q-1 -5 -21 -5h-10.5t-5 1.5l-2 2t0 4t0.5 5.5 q0 4 11 74.5t11 73.5q0 4 -7 4h-86q-11 -2 -12 -5q-21 -150 -22 -152q-4 -7 -9 -8h-13q-11 0 -14.5 2.5t-3.5 10.5q0 4 11 74.5t11 73.5q0 4 -3 4h-68q-8 0 -10 3t-2 11zM158 193q0 -5 9 -5h90q7 0 7 6l9.5 67t7 44t2.5 16q0 4 -7 4h-90q-6 0 -8 -5v-1q-2 -16 -7.5 -47.5 t-9 -53.5t-3.5 -25z" />
<glyph unicode="$" d="M58 92q0 7 12.5 12.5t22.5 5.5q5 0 10 -4t13 -15.5t13 -17.5q39 -47 97 -52q8 -1 10.5 0.5t2.5 8.5v240q0 11 -2.5 15.5t-11.5 8.5q-37 16 -60 29t-49.5 34.5t-40 49.5t-13.5 63q0 63 49.5 107t119.5 50q6 1 7 2t1 8v36q0 9 7 9h9q7 0 7 -9v-36q0 -7 1 -7.5t7 -1.5 q65 -5 106.5 -37t41.5 -59q0 -10 -14 -18.5t-21 -8.5q-9 0 -14 14.5t-9.5 32.5t-26.5 35t-60 21q-11 2 -11 -6v-237q0 -13 2 -16t10 -7q31 -14 48.5 -23t43.5 -26t40 -33t25 -40t11 -51q0 -72 -43.5 -117t-122.5 -52q-13 -1 -13 -5q-1 -3 -1 -9v-122q0 -9 -1.5 -10.5 t-10.5 -1.5q-8 0 -9.5 2t-1.5 10v122q0 10 -1.5 11.5t-11.5 2.5q-67 4 -117.5 33t-50.5 59zM117 480q0 -45 28.5 -70.5t80.5 -47.5l6 -3t4.5 -1.5t1.5 2.5t1 8v234q0 6 -5 6q-25 0 -58 -19q-59 -35 -59 -109zM262 38q0 -16 6 -16q4 0 8 1q47 10 78 46t31 78q0 46 -29.5 75 t-81.5 52q-6 3 -9 3t-3 -12v-227z" />
<glyph unicode="%" horiz-adv-x="657" d="M50 362q0 62 52.5 131.5t124.5 69.5q40 0 71 -31q24 -24 58 -24q46 0 93 28q17 10 31.5 22t35.5 33.5l22 22.5t4.5 5t7.5 8l3 4q6 0 12 -4t6 -8q0 -3 -5 -11q-360 -527 -434 -643q-4 -6 -19 -6q-16 0 -16 10q0 2 2 6l80 114l169.5 245.5t112.5 170.5q9 15 8 16 q-2 1 -8 -2q-47 -28 -105 -28q-16 0 -35 3v-16v-14q0 -17 -1 -25q-6 -72 -57.5 -130.5t-112.5 -58.5q-47 0 -73.5 32t-26.5 80zM99 336q0 -29 13.5 -50t40.5 -21q51 0 95 58.5t44 137.5q0 70 -52 70q-46 0 -93.5 -64t-47.5 -131zM336 103q0 71 56 137t125 66q42 0 66 -29.5 t24 -79.5q0 -79 -53 -142.5t-118 -63.5q-47 0 -73.5 31.5t-26.5 80.5zM385 78q0 -30 13 -50.5t41 -20.5q51 0 95 58.5t44 136.5q0 71 -53 71q-45 0 -92.5 -64t-47.5 -131z" />
<glyph unicode="&#x26;" horiz-adv-x="657" d="M40 155q0 98 124 185q14 10 14 12l-16 18q-56 64 -56 116q0 65 47.5 110.5t112.5 45.5q55 0 97 -26t42 -74q0 -74 -125 -160q-14 -9 -14 -11q0 -3 13 -14q58 -49 156 -154q11 -12 13 -12t10 14l18 31.5l21 36.5t15 30t7 24q0 5 -19 5h-60q-9 0 -11 2t-2 13t1.5 13t11.5 2 q6 0 48.5 -1.5t59.5 -1.5q16 0 41.5 1.5t28.5 1.5q10 0 12 -2.5t2 -15.5q0 -9 -3 -10.5t-15 -1.5h-30q-8 0 -20 -18q-97 -139 -97 -144q0 -3 10 -16q31 -39 64 -98q7 -13 11.5 -17.5t18.5 -8t41 -3.5q7 0 8 -1.5t1 -10.5q0 -11 -2.5 -13t-13.5 -2q-40 -1 -77 -5.5t-38 -4.5 q-12 0 -15 10q-15 51 -48 98q-8 10 -10 10t-10 -9q-99 -109 -188 -109q-81 0 -130 46.5t-49 118.5zM102 197q0 -59 45.5 -102t103.5 -43q77 0 144 67q7 8 7 11l-9 13q-27 37 -78 89t-96 89q-13 12 -18 12q-6 0 -26 -15q-73 -54 -73 -121zM171 518q0 -46 51 -107 q16 -19 22 -19q4 0 22 13q71 53 71 121q0 34 -23 60t-57 26q-42 0 -64 -27.5t-22 -66.5z" />
<glyph unicode="'" horiz-adv-x="131" d="M30 511q0 1 2 32.5l4.5 68.5t3.5 47q4 29 32 29q29 0 29 -25q0 -4 -2 -14l-12.5 -43l-17.5 -57.5t-10 -32.5q-1 -3 -2 -7t-1.5 -5l-1.5 -3t-2.5 -2.5t-3.5 -1t-6 -0.5q-12 0 -12 14z" />
<glyph unicode="(" horiz-adv-x="279" d="M40 285q0 73 19 142t45 114.5t53.5 80.5t45.5 51t20 16q6 0 11 -4t5 -9l-8 -8q-8 -9 -20.5 -25.5t-27.5 -39t-30 -54.5t-27.5 -68.5t-20.5 -84.5t-8 -99q0 -79 14 -150t34.5 -117.5t41 -80.5t34.5 -53t14 -22q0 -14 -16 -14q-4 0 -22.5 21.5t-45 62.5t-51.5 91.5 t-42.5 117.5t-17.5 132z" />
<glyph unicode=")" horiz-adv-x="279" d="M40 -127l8 9q8 8 20.5 24.5t27.5 39t30 54.5t27.5 68.5t20.5 84.5t8 99q0 79 -14 150t-34.5 117.5t-41 80.5t-34.5 53t-14 22q0 14 16 14q4 0 22.5 -21.5t45 -62.5t51.5 -91.5t42.5 -117.5t17.5 -132q0 -73 -19 -142t-45 -114.5t-53.5 -80.5t-45.5 -51t-20 -16 q-6 0 -11 4t-5 9z" />
<glyph unicode="*" horiz-adv-x="391" d="M30 447q0 21 23 31q10 4 48.5 17.5t52.5 19.5q19 7 19 13q0 4 -15 15q-6 5 -42.5 28t-45.5 32q-13 15 -13 29q0 11 7.5 19t20.5 8q18 0 31 -15q7 -8 18 -25l24 -39l18 -30q8 -13 11 -13q2 0 8 13q4 9 12.5 34t16 45t12.5 27q13 19 32 19q11 0 19 -9t8 -19q0 -13 -9 -26 q-8 -12 -39 -39.5t-39 -35.5q-10 -12 -10 -15q0 -6 18 -7q8 -1 56 -2t60 -5q29 -10 29 -31q0 -14 -9.5 -21.5t-22.5 -7.5q-7 0 -15 3t-46.5 22.5t-51.5 25.5q-12 6 -16 6q-5 0 -5 -4t3 -14q2 -10 15.5 -52.5t13.5 -56.5q0 -15 -7.5 -27t-22.5 -12q-16 0 -24.5 12t-8.5 26 q0 11 8 52.5t10 53.5q1 4 1 10q0 11 -4 11q-6 0 -17 -11l-36 -37.5t-41 -37.5q-12 -7 -25 -7t-21.5 7.5t-8.5 19.5z" />
<glyph unicode="+" horiz-adv-x="527" d="M31 212q0 8 0.5 11.5t4.5 6t13 2.5h170q22 0 22 19v176q0 7 2.5 10.5t6 4t12.5 0.5t13 -0.5t7.5 -5.5t3.5 -14v-163q0 -27 17 -27h177q8 0 11.5 -2.5t4 -6t0.5 -12.5q0 -14 -3 -18.5t-18 -4.5h-172q-12 0 -14.5 -4t-2.5 -14v-175q0 -11 -5 -14t-15 -3q-16 0 -20.5 2.5 t-4.5 15.5v174q0 12 -4.5 15t-19.5 3h-169q-12 0 -14.5 5t-2.5 19z" />
<glyph unicode="," horiz-adv-x="203" d="M40 -139l18 16q17 16 34.5 41t17.5 48q0 16 -10 30.5t-22.5 22.5t-22.5 15.5t-10 12.5q0 14 19.5 27.5t27.5 13.5q14 0 42.5 -23t28.5 -40q0 -38 -26.5 -83t-53 -71.5t-32.5 -26.5q-4 0 -7.5 5.5t-3.5 11.5z" />
<glyph unicode="-" horiz-adv-x="258" d="M25 201q0 12 6 25.5t12 14.5t91.5 4t91.5 3q2 0 2 -9q0 -33 -8 -33q-104 -8 -191 -8q-4 0 -4 3z" />
<glyph unicode="." horiz-adv-x="221" d="M60 38q0 16 16 37.5t28 21.5q16 0 36.5 -15t20.5 -32q0 -21 -16 -39.5t-26 -18.5q-20 0 -39.5 17t-19.5 29z" />
<glyph unicode="/" horiz-adv-x="406" d="M10 -220q0 2 19 57q315 843 317 850q4 11 9.5 14.5t19.5 3.5q21 0 21 -12q0 -8 -14 -44l-314 -851q-8 -22 -13.5 -26.5t-18.5 -4.5q-26 0 -26 13z" />
<glyph unicode="0" d="M58 189q0 82 56 136.5t137 54.5q88 0 139.5 -55.5t51.5 -136.5q0 -84 -57 -138.5t-140 -54.5q-77 0 -132 57.5t-55 136.5zM91 189q0 -65 44.5 -105.5t108.5 -40.5q80 0 120.5 45t40.5 114q0 59 -47.5 98.5t-110.5 39.5t-109.5 -44.5t-46.5 -106.5z" />
<glyph unicode="1" d="M150 12q0 7 2.5 10t11.5 3h42q8 0 9.5 2t1.5 10q1 29 1 88v89q0 93 -2 137q0 5 -0.5 7t-2.5 3.5t-7 1.5h-42q-11 0 -11 13q0 8 1.5 11t9.5 3q9 0 43.5 -1t47.5 -1t47 1t43 1q8 0 9.5 -2.5t1.5 -11.5q0 -7 -2.5 -10t-11.5 -3h-39q-7 0 -9 -1.5t-2 -7.5v-3q-3 -58 -3 -234 q0 -53 1 -80q0 -12 12 -12h40q11 0 11 -13q0 -8 -1.5 -11t-9.5 -3q-9 0 -43.5 1t-47.5 1t-47 -1t-43 -1q-8 0 -9.5 2.5t-1.5 11.5z" />
<glyph unicode="2" d="M60 323q0 8 26 27.5t68 37.5t76 18q55 0 91.5 -36t36.5 -90q0 -39 -35 -83t-71 -70.5t-75 -49.5q-28 -16 -28 -18q0 -1 7 -1h232q4 0 19.5 33t17.5 33q4 0 11 -2.5t7 -4.5q0 -15 -27 -111q-2 -6 -11 -6h-326q-15 0 -15 11q0 7 12 17q13 12 54.5 41t73.5 53.5t59 65 t27 82.5q0 44 -23 69t-61 25q-30 0 -61 -15t-49 -31l-19 -15q-4 0 -10.5 7.5t-6.5 12.5z" />
<glyph unicode="3" d="M80 -164q0 8 11.5 14t26.5 6q16 0 41 -15q4 -2 14 -9t15.5 -10.5t18 -6.5t26.5 -3q48 0 87 45.5t39 103.5q0 70 -36.5 100.5t-114.5 30.5q-12 0 -32 -1.5t-21 -1.5q-3 0 -5.5 1t-3.5 3t-2 3.5t-1.5 5t-1.5 5.5q-2 6 -2 9q0 11 21 17q78 22 114.5 54t36.5 85 q0 40 -24 68.5t-61 28.5q-33 0 -59.5 -12.5t-39 -25t-13.5 -12.5q-6 0 -12 5.5t-6 11.5q0 7 19.5 23.5t54.5 32t68 15.5q61 0 97.5 -33.5t36.5 -89.5q0 -82 -91 -122q-48 -20 -48 -23q0 -2 42 -5q147 -12 147 -161q0 -80 -60.5 -133t-138.5 -53q-42 0 -92.5 15t-50.5 34z " />
<glyph unicode="4" d="M40 8q0 32 84 130l133 160q85 96 96 96q13 0 13 -26v-296q0 -13 2 -15.5t13 -2.5h58q7 0 7 -10v-34q0 -8 -1.5 -9t-10.5 -1h-52q-11 0 -13 -2t-1 -12q9 -183 9 -185q0 -10 -16 -11l-45 -4q-11 0 -11 13v186q0 11 -2.5 13t-13.5 2h-231q-18 0 -18 8zM93 60q0 -6 25 -6h168 q14 0 16.5 3t2.5 17v216q0 26 -3 26q-1 0 -18 -21l-174 -210q-17 -21 -17 -25z" />
<glyph unicode="5" d="M100 158q0 6 8.5 44.5l20.5 94t18 88.5q1 6 15 6q2 0 41 -2.5t88.5 -4.5t77.5 -2q22 0 24 5q8 24 10 24h4q13 0 13 -6q-3 -45 -4 -69q-1 -17 -37 -17q-35 0 -64.5 1.5t-66 4.5t-65.5 4q-19 0 -21 -10q-20 -100 -20 -107q0 -4 1.5 -5.5t5.5 -1.5h4q107 -10 167 -52 t60 -134q0 -60 -36 -109.5t-85 -76t-88.5 -40.5t-57.5 -14q-8 0 -8 18q0 13 8 14q22 4 46 13t51.5 25t49 37t35.5 51.5t14 65.5q0 73 -54.5 108t-139.5 35q-15 0 -15 12z" />
<glyph unicode="6" d="M48 231q0 65 21.5 126.5t55.5 106t73 82t75 61t61 36t33 12.5q5 0 10 -7t5 -13q0 -4 -5 -6q-49 -20 -91.5 -54.5t-70.5 -73.5t-44.5 -69t-26.5 -57q-9 -25 -9 -27q3 -3 4.5 -3t10.5 2t12 3q43 8 91 8q79 0 133.5 -47.5t54.5 -121.5q0 -89 -56.5 -141.5t-140.5 -52.5 q-88 0 -142 61.5t-54 174.5zM115 201q0 -69 36.5 -122t106.5 -53q49 0 82 44t33 98q0 75 -40 121.5t-116 46.5q-30 0 -66 -6q-9 -2 -13 -3t-7 -6.5t-3.5 -7.5t-3.5 -15q-9 -43 -9 -97z" />
<glyph unicode="7" d="M84 278q0 4 1.5 19.5t5 45.5t5.5 56q1 13 4.5 15.5t11.5 2.5q13 0 13 -20q0 -4 164 -4h166q17 0 17 -9q0 -2 -4 -10l-129 -246.5l-128 -248.5t-52 -95q-13 0 -24.5 9t-11.5 19q0 1 288 502q9 16 9 17q0 4 -18 4h-199q-84 0 -85 -9l-9 -51q-1 -6 -13 -5t-12 8z" />
<glyph unicode="8" d="M71 154q0 37 11.5 66.5t32.5 49t35 28.5t34 19q5 3 9.5 4.5t6.5 2.5h2l-2 2q-3 1 -8 4t-11 7q-101 69 -101 158q0 68 49.5 115.5t120.5 47.5q67 0 112.5 -42t45.5 -108q0 -16 -2 -30t-7 -26.5t-9.5 -22.5t-13.5 -20t-14 -16.5t-15.5 -15t-14.5 -12t-15 -11t-12 -8.5 q-9 -7 -9 -8t9 -6q1 -1 17 -9.5t23 -14l22.5 -17t24 -24t19 -29.5t15 -38.5t4.5 -45.5q0 -72 -50 -116t-132 -44q-73 0 -125 45t-52 115zM124 164q0 -63 35 -102.5t93 -39.5q50 0 81.5 39t31.5 92q0 40 -19.5 70.5t-40 45t-59.5 35.5q-22 12 -27 12q-3 0 -33 -21 q-62 -46 -62 -131zM138 507q0 -64 69 -118q34 -26 54 -35l16 -7q3 0 14 10q26 23 49 65t23 78q0 64 -32 100t-83 36q-50 0 -80 -37.5t-30 -91.5z" />
<glyph unicode="9" d="M60 204q0 89 55 141.5t138 52.5q87 0 143.5 -62t56.5 -174q0 -70 -26.5 -130t-68 -99.5t-88.5 -70.5t-91 -47.5t-71.5 -24.5t-34.5 -8q-4 0 -7 9t-3 16q0 2 24 9.5t62 24t79 42t80 71t59 102.5l3 7l3 10.5t0 3.5q-2 0 -20 -12q-54 -33 -125 -33q-77 0 -122.5 47.5 t-45.5 124.5zM125 214q0 -60 35 -105.5t95 -45.5q96 0 126 52q6 11 6 57q0 50 -13 92.5t-43.5 73t-74.5 30.5q-64 0 -97.5 -43.5t-33.5 -110.5z" />
<glyph unicode=":" horiz-adv-x="221" d="M60 38q0 16 16 37.5t28 21.5q16 0 36.5 -15t20.5 -32q0 -21 -16 -39.5t-26 -18.5q-20 0 -39.5 17t-19.5 29zM60 313q0 16 16 37.5t28 21.5q16 0 36.5 -15t20.5 -32q0 -21 -16 -39.5t-26 -18.5q-20 0 -39.5 17t-19.5 29z" />
<glyph unicode=";" horiz-adv-x="223" d="M50 -139l18 16q17 16 34.5 41t17.5 48q0 16 -10 30.5t-22.5 22.5t-22.5 15.5t-10 12.5q0 14 19.5 27.5t27.5 13.5q14 0 42.5 -23t28.5 -40q0 -38 -26.5 -83t-53 -71.5t-32.5 -26.5q-4 0 -7.5 5.5t-3.5 11.5zM61 313q0 16 16 37.5t28 21.5q16 0 36.5 -15t20.5 -32 q0 -21 -16 -39.5t-26 -18.5q-20 0 -39.5 17t-19.5 29z" />
<glyph unicode="&#x3c;" horiz-adv-x="527" d="M41 211q0 6 0.5 8.5t4 5.5t10.5 6l361 132q48 18 51 18q19 0 19 -25q0 -10 -16 -16l-315 -111q-42 -15 -42 -21q0 -3 42 -18l320 -112q11 -4 11 -13q0 -8 -6 -16t-18 -8q-3 0 -408 147q-10 4 -12 8t-2 15z" />
<glyph unicode="=" horiz-adv-x="527" d="M31 134q0 8 0.5 11.5t4.5 6.5t13 3h431q8 0 11.5 -2.5t4 -6t0.5 -12.5q0 -14 -3 -19t-18 -5h-427q-9 0 -12.5 3t-4 6.5t-0.5 14.5zM31 290q0 8 0.5 11.5t4.5 6t13 2.5h431q8 0 11.5 -2.5t4 -6t0.5 -12.5q0 -14 -3 -18.5t-18 -4.5h-427q-9 0 -12.5 3t-4 6.5t-0.5 14.5z " />
<glyph unicode="&#x3e;" horiz-adv-x="527" d="M41 65q0 10 10 13l321 112q42 15 42 18q0 6 -42 21l-316 111q-15 6 -15 16q0 25 18 25q3 0 51 -18l361 -132q16 -6 16 -20q0 -11 -2.5 -15t-12.5 -8q-405 -147 -408 -147q-12 0 -17.5 8t-5.5 16z" />
<glyph unicode="?" horiz-adv-x="364" d="M60 605v45q0 17 9 17q6 0 10 -12t9 -13q24 -4 37.5 -6.5t42.5 -10.5t48 -17.5t43.5 -27t39 -39t25 -53t10.5 -69.5q0 -79 -29 -126t-106 -48q-15 0 -20 -4t-6 -13q-1 -16 -4 -45t-4 -45q0 -9 -12 -9q-10 0 -13 4.5t-3 17.5q0 119 2 147q1 12 7 15t21 3h57q87 0 87 88 q0 72 -57.5 122t-170.5 64q-2 0 -5.5 0.5t-5 1t-4 1t-3.5 1.5l-2.5 2.5t-2 3.5t-0.5 5zM96 38q0 16 16 37.5t28 21.5q16 0 36.5 -15t20.5 -32q0 -21 -16 -39.5t-26 -18.5q-20 0 -39.5 17t-19.5 29z" />
<glyph unicode="@" horiz-adv-x="795" d="M50 187q0 110 61 203.5t157 145.5t200 52q56 0 103.5 -13t87.5 -41t63 -76.5t23 -113.5q0 -69 -31.5 -126t-81.5 -91.5t-108 -53.5t-115 -19q-35 0 -35 22l6 47q-7 -8 -18.5 -19t-43 -29.5t-56.5 -18.5q-28 0 -43 24t-15 59q0 36 31.5 95t92 110t126.5 51q8 0 20 -3 l11 -3q1 0 14 15q13 16 28 16q25 0 25 -13q0 -8 -3 -14q-110 -237 -110 -278q0 -11 0.5 -16t5.5 -10t14 -5q42 0 93 25t95 69q68 68 68 159q0 112 -66.5 167.5t-177.5 55.5q-157 0 -272 -108.5t-115 -270.5q0 -119 80.5 -192t191.5 -73q97 0 169.5 32.5t140.5 95.5q8 8 13 8 q6 0 10 -5.5t4 -8.5q0 -7 -4 -11q-62 -67 -150 -103.5t-186 -36.5q-125 0 -214 80t-89 220zM271 147q0 -18 11.5 -32t30.5 -14q31 0 67.5 57.5t58 116t21.5 75.5q0 11 -10 17.5t-22 6.5q-42 0 -99.5 -75.5t-57.5 -151.5z" />
<glyph unicode="A" horiz-adv-x="698" d="M30 15q0 9 3 10.5t15 1.5h28q3 0 17.5 30.5t34.5 77.5l39 92l35.5 84.5l19.5 46.5l106 246q4 9 17 25.5t19 30.5q12 27 19 27t9 -7l120 -337l19 -53l21.5 -60.5l21 -58.5l21 -56.5t17.5 -44t15 -32.5t8 -11h32q8 0 9.5 -2t1.5 -11q0 -11 -2 -14t-9 -3q-6 0 -39.5 1.5 t-50.5 1.5q-16 0 -58 -1.5t-53 -1.5q-10 0 -12 2.5t-2 15.5q0 9 3 10.5t15 1.5h54q1 0 1 3q0 30 -70 226q-6 17 -10 18q-3 1 -10 1h-201q-5 0 -8 -0.5t-5 -1t-4 -3t-2 -3t-2 -5t-2 -5.5q-81 -206 -81 -227q0 -3 1 -3h78q8 0 9.5 -2t1.5 -11q0 -11 -2 -14t-9 -3 q-11 0 -43.5 1.5t-48.5 1.5t-39 -1.5t-34 -1.5q-10 0 -12 2.5t-2 15.5zM231 305q0 -6 16 -6h179q13 0 13 5q0 1 -4 13l-83 243q-6 19 -8 19t-10 -19l-98 -240q-5 -12 -5 -15z" />
<glyph unicode="B" horiz-adv-x="592" d="M40 649q0 7 2.5 10.5t6 4t11.5 0.5q6 0 51 -1t62 -1q19 0 60.5 1.5t62.5 1.5q99 0 160.5 -38t61.5 -123q0 -101 -150 -156l-17 -7q0 -1 11 -2.5t28 -5t38 -9.5t42 -18t38 -29.5t28 -45t11 -62.5q0 -171 -280 -171q-27 0 -60.5 1t-35.5 1q-18 0 -61 -1.5t-45 -1.5 q-10 0 -12 2.5t-2 15.5q0 9 2.5 10.5t15.5 1.5h53q5 0 5 42v323q0 242 -10 242l-57 -2q-20 0 -20 17zM209 315q0 -288 9 -288h61q180 0 180 149q0 111 -87 140q-31 10 -118 10h-34q-11 0 -11 -11zM209 358q0 -6 3 -8t13 -2h57q10 0 20.5 -0.5t12.5 -0.5q11 0 20 3 q41 12 70 46.5t29 91.5q0 73 -49.5 114.5t-127.5 41.5q-29 0 -43 -4q-5 -1 -5 -234v-48z" />
<glyph unicode="C" horiz-adv-x="731" d="M45 335q0 154 101.5 249.5t255.5 95.5q19 0 37.5 -2t34.5 -5.5t29.5 -8t27 -10.5l23 -10.5t19.5 -11l15 -10l12.5 -8.5t8.5 -6q5 -4 6.5 -5t5 -2t4.5 1.5t1 8.5v27q0 9 2 11t13 2q12 0 16 -2t4 -11q0 -5 -2 -84t-2 -109q0 -9 -3 -12.5t-13 -3.5q-13 0 -16 2.5t-3 9.5 q0 1 2 43t2 47t-11 18t-32.5 30t-48.5 33t-64.5 27t-74.5 11q-108 0 -178 -90t-70 -227q0 -127 81 -218.5t196 -91.5q51 0 99 15t71.5 30.5t24.5 22.5l13 113q1 10 5.5 13t16.5 1q12 -1 12 -13q0 -13 -16 -133q-1 -10 -36.5 -30.5t-97.5 -39t-120 -18.5q-71 0 -133 21.5 t-111.5 63t-78 110.5t-28.5 156z" />
<glyph unicode="D" horiz-adv-x="758" d="M35 10q0 11 3 13t14 2h66q4 0 8.5 200t4.5 338q0 78 -2 78l-70 -2q-5 0 -7.5 0.5t-4 3t-1.5 8.5v7.5t1.5 5t4 3t7.5 0.5q1 0 11.5 -0.5t26.5 -0.5h31q41 0 114.5 6t89.5 6q166 0 273.5 -93t107.5 -250q0 -105 -49.5 -183.5t-126.5 -116.5t-169 -39q-32 0 -97 2t-98 2 q-16 0 -70 -2t-57 -2q-8 0 -9.5 2t-1.5 12zM213 86q0 -59 2 -60q6 -4 57 -4q69 0 124.5 14t90 34.5t60 53t37.5 59t19 63.5t8 56t1 46q0 73 -35.5 141.5t-106.5 115.5t-159 47q-67 0 -90 -6q-7 -2 -7 -146q-1 -138 -1 -414z" />
<glyph unicode="E" horiz-adv-x="605" d="M40 15q0 9 2.5 10.5t14.5 1.5h61q7 0 7 75v96q0 31 -0.5 72t-1 78t-1 69.5t-1 53t-0.5 21.5q0 144 -11 144h-43q-7 0 -10.5 0.5t-6 4t-2.5 10.5q0 14 12 14l43 -1q43 -2 64 -2q28 0 128.5 1.5t120.5 1.5q47 0 56.5 1.5t10.5 10.5v1q1 12 13 12q11 0 14 -2t3 -9 q0 -2 -2 -43t-2 -87q0 -6 -3 -8t-13 -2q-15 0 -15 14q0 2 1.5 38.5t1.5 39.5q0 7 -272 7q-7 0 -7 -128q0 -42 2 -142q0 -10 1.5 -13t10.5 -3h167q55 0 55 16v50q0 9 17 9q14 0 14 -8q0 -1 -1 -29t-1 -49t1 -50t1 -33q0 -8 -13 -8q-18 0 -18 9v46q0 7 -2 10t-15 6.5t-38 3.5 h-163q-12 0 -14 -2t-2 -13q6 -276 12 -276q27 0 68 0.5l79.5 1t73.5 0.5t57 0.5t23 0.5q12 0 15 3t4 20q1 14 3 87q0 8 14 8q17 0 17 -9q0 -28 -1.5 -77t-1.5 -61q0 -11 -22 -11q-11 0 -182.5 1.5t-187.5 1.5t-63.5 -1.5t-58.5 -1.5q-10 0 -11.5 2.5t-1.5 15.5z" />
<glyph unicode="F" horiz-adv-x="550" d="M40 651q0 14 12 14l43 -1q43 -2 64 -2q28 0 133.5 1.5t125.5 1.5q47 0 56.5 1.5t10.5 10.5v1q1 12 13 12q11 0 14 -2t3 -9q0 -2 -2 -43t-2 -87q0 -6 -3 -8t-13 -2q-15 0 -15 14q0 2 1.5 38.5t1.5 39.5q0 7 -282 7q-7 0 -7 -114q0 -110 2 -156q0 -12 2 -14t14 -2h173 q55 0 55 16v50q0 9 17 9q14 0 14 -8q0 -1 -1 -29t-1 -49t1 -55t1 -38q0 -8 -13 -8q-18 0 -18 9v56q0 7 -2 10t-15 6.5t-38 3.5h-173q-11 0 -13.5 -3t-2.5 -17q1 -49 1.5 -128.5t1.5 -114.5t4 -35h83q8 0 9.5 -2t1.5 -11q0 -11 -2 -14t-9 -3q-11 0 -57.5 1.5t-62.5 1.5 t-54 -1.5t-49 -1.5q-10 0 -12 2.5t-2 15.5q0 9 2.5 10.5t15.5 1.5h43q7 0 7 75v96q0 31 -0.5 72t-1 78t-1 69.5t-1 53t-0.5 21.5q0 144 -11 144h-43q-7 0 -10.5 0.5t-6 4t-2.5 10.5z" />
<glyph unicode="G" horiz-adv-x="764" d="M45 335q0 160 102.5 251t260.5 91q117 0 201 -59q5 -4 6.5 -5t5 -2t4.5 1.5t1 8.5v25q0 9 2 11t13 2q12 0 15.5 -2t3.5 -11q0 -2 -1.5 -76.5t-1.5 -104.5q0 -9 -3 -12.5t-13 -3.5q-13 0 -16 2.5t-3 9.5q0 1 2 38t2 42t-9.5 17t-29.5 27.5t-45.5 30t-62.5 24.5t-75 10 q-109 0 -183 -91t-74 -226q0 -130 79 -225.5t198 -95.5q51 0 91 12t55.5 24.5t16.5 19.5q3 26 3 94q0 58 -10 58h-87q-8 0 -8 12q0 18 9 18q15 0 64.5 -1.5t67.5 -1.5q17 0 42.5 1.5t47.5 1.5q8 0 8 -14q0 -16 -8 -16h-31q-9 0 -11 -13t-2 -45q0 -12 -0.5 -42t-0.5 -47 q0 -10 -39 -31.5t-106.5 -40.5t-129.5 -19q-71 0 -133 21t-111.5 62.5t-78 110.5t-28.5 159z" />
<glyph unicode="H" horiz-adv-x="791" d="M40 15q0 9 3 10.5t15 1.5h57q7 0 7 258v102q0 252 -6 252h-43q-8 0 -11 0.5t-6 4t-3 10.5t2.5 10.5t6 4t11.5 0.5q6 0 39.5 -1.5t50.5 -1.5q16 0 55.5 1.5t50.5 1.5q10 0 12 -2.5t2 -15.5q0 -9 -2.5 -10.5t-15.5 -1.5h-54q-7 0 -7 -134q0 -27 0.5 -73t0.5 -59t2 -15.5 t13 -2.5h365q11 0 13 2t2 13v122q0 147 -10 147h-57q-10 0 -12.5 2t-2.5 13t2.5 13t12.5 2q6 0 47 -1.5t58 -1.5q18 0 55 1.5t40 1.5q10 0 12 -2.5t2 -15.5q0 -9 -2.5 -10.5t-15.5 -1.5h-46q-2 0 -2 -242q0 -370 4 -370h55q8 0 9.5 -2t1.5 -11q0 -11 -2 -14t-9 -3 q-11 0 -44.5 1.5t-49.5 1.5t-58 -1.5t-53 -1.5q-10 0 -12 2.5t-2 15.5q0 9 2.5 10.5t15.5 1.5h55q6 0 6 165v124q0 11 -1 13t-8 2h-374q-8 0 -10 -2.5t-2 -14.5q0 -287 11 -287h65q8 0 9.5 -2t1.5 -11q0 -11 -2 -14t-9 -3q-11 0 -52.5 1.5t-57.5 1.5t-61 -1.5t-56 -1.5 q-10 0 -12 2.5t-2 15.5z" />
<glyph unicode="I" horiz-adv-x="333" d="M30 15q0 9 3 10.5t15 1.5h68q10 0 10 367v98q0 147 -10 147h-62q-8 0 -11 0.5t-6 4t-3 10.5t2.5 10.5t6 4t11.5 0.5q6 0 54.5 -1.5t65.5 -1.5q16 0 60 1.5t55 1.5q10 0 12 -2.5t2 -15.5q0 -9 -2.5 -10.5t-15.5 -1.5h-63q-11 0 -11 -158v-135q0 -319 10 -319h71 q8 0 9.5 -2t1.5 -11q0 -11 -2 -14t-9 -3q-11 0 -57.5 1.5t-62.5 1.5t-66.5 -1.5t-61.5 -1.5q-10 0 -12 2.5t-2 15.5z" />
<glyph unicode="J" horiz-adv-x="333" d="M-30 -188q0 23 28.5 43.5t38.5 20.5q7 0 24 -10.5t28 -10.5q26 0 33 32t7 108v497q0 147 -10 147h-65q-8 0 -11 0.5t-6 4t-3 10.5t2.5 10.5t6 4t11.5 0.5q6 0 56 -1.5t67 -1.5q16 0 53.5 1.5t48.5 1.5q10 0 12 -2.5t2 -15.5q0 -9 -2.5 -10.5t-15.5 -1.5h-50q-7 0 -7 -269 v-240q0 -84 -17 -153t-69 -125q-60 -64 -109 -64q-19 0 -36 7t-17 17z" />
<glyph unicode="K" horiz-adv-x="650" d="M40 15q0 9 3 10.5t15 1.5h55q8 0 8 170v290q0 147 -8 147h-44q-8 0 -11 0.5t-6 4t-3 10.5t2.5 10.5t6 4t11.5 0.5q6 0 45.5 -1.5t56.5 -1.5q16 0 55.5 1.5t50.5 1.5q10 0 12 -2.5t2 -15.5q0 -9 -2.5 -10.5t-15.5 -1.5h-54q-14 0 -14 -158v-125q0 -8 0.5 -11.5t3.5 -6 t9 -2.5h22q11 0 57 56t107.5 139l64.5 87q9 13 9 16q0 5 -15 5h-37q-8 0 -11 0.5t-6 4t-3 10.5t2.5 10.5t6 4t11.5 0.5q6 0 37 -1.5t48 -1.5q16 0 42.5 1.5t37.5 1.5q10 0 12 -2.5t2 -15.5q0 -9 -2.5 -10.5t-15.5 -1.5h-49l-40 -48l-97.5 -116l-78.5 -94q-3 -3 -4 -5t-2 -3 t0 -2.5t1.5 -2.5t3 -4t4.5 -5l269 -310q15 -17 31 -17h14q8 0 9.5 -2t1.5 -11q0 -11 -2 -14t-9 -3q-11 0 -47.5 1.5t-52.5 1.5t-52.5 -1.5t-47.5 -1.5q-10 0 -12 2.5t-2 15.5q0 9 2.5 10.5t15.5 1.5h30q17 0 17 4l-12 14l-217 257q-7 8 -22 8h-20q-9 0 -11.5 -1.5 t-2.5 -10.5q0 -271 11 -271h73q8 0 9.5 -2t1.5 -11q0 -11 -2 -14t-9 -3q-11 0 -57.5 1.5t-62.5 1.5t-60 -1.5t-55 -1.5q-10 0 -12 2.5t-2 15.5z" />
<glyph unicode="L" horiz-adv-x="592" d="M40 15q0 9 2.5 10.5t14.5 1.5h62q9 0 9 292v231q0 89 -7 89h-58q-10 0 -13 2.5t-3 12.5t3.5 12.5t16.5 2.5q6 0 49.5 -1.5t60.5 -1.5q16 0 61.5 1.5t56.5 1.5q12 0 14.5 -2t2.5 -13q0 -9 -3 -12t-15 -3h-70q-9 0 -9 -215v-277q0 -116 8 -116q227 0 293 6q13 1 17 4t6 19 l12 84q2 8 11 8q20 0 20 -10q0 -3 -4.5 -30l-9.5 -60t-7 -44q-1 -11 -22 -11q-11 0 -179.5 1.5t-184.5 1.5t-63.5 -1.5t-58.5 -1.5q-10 0 -11.5 2.5t-1.5 15.5z" />
<glyph unicode="M" horiz-adv-x="895" d="M35 15q0 9 2.5 10.5t15.5 1.5h42q2 0 3.5 4.5t2 14.5l1 20t1 29.5t1.5 33.5q18 366 18 497q0 8 -4 10.5t-18 2.5h-46q-8 0 -9.5 2t-1.5 11q0 11 2 14t9 3q6 0 51 -1.5t56 -1.5q13 0 35.5 1.5t23.5 1.5q15 0 20 -13l210 -524q9 -22 11 -22q3 0 11 22l196 511q6 16 10 19.5 t15 3.5h46q16 0 52.5 1.5t47.5 1.5q10 0 12 -2.5t2 -15.5q0 -9 -2.5 -10.5t-15.5 -1.5h-46q-7 0 -7 -80v-90q0 -153 4.5 -297.5t11.5 -144.5h54q8 0 10.5 -2t2.5 -11q0 -11 -2 -14t-9 -3q-11 0 -51 1.5t-56 1.5t-55.5 -1.5t-50.5 -1.5q-10 0 -12 2.5t-2 15.5q0 9 2.5 10.5 t15.5 1.5h46q9 0 9 177q0 98 -2.5 257.5t-4.5 159.5t-36 -88l-85 -219.5l-81 -204.5q-10 -25 -27.5 -50t-28.5 -47q-9 -19 -15 -19q-5 0 -17 28l-233 575q-13 30 -16 30q-2 0 -4 -32q-8 -211 -8 -465q0 -102 5 -102h72q8 0 9.5 -2t1.5 -11q0 -11 -2 -14t-9 -3 q-11 0 -41.5 1.5t-46.5 1.5t-43.5 -1.5t-38.5 -1.5q-10 0 -12 2.5t-2 15.5z" />
<glyph unicode="N" horiz-adv-x="814" d="M40 15q0 9 3 10.5t15 1.5h44q3 0 5 2.5t3 7.5t1.5 11t1 15.5t0.5 18.5t0.5 22.5t0.5 24.5l8 510h-68q-8 0 -9.5 2t-1.5 11q0 11 2 14t9 3q6 0 53.5 -1.5t58.5 -1.5q13 0 33.5 1.5t21.5 1.5q10 0 20 -13l406 -499q16 -20 18 -20q4 0 4 28v42q0 49 -1 187t-1 189 q0 56 -1 56h-94q-8 0 -9.5 2t-1.5 11q0 11 2 14t9 3q11 0 50.5 -1.5t55.5 -1.5t43.5 1.5t38.5 1.5q10 0 12 -2.5t2 -15.5q0 -9 -3 -10.5t-15 -1.5h-47q-4 0 -4 -59q0 -68 -3.5 -209.5l-6.5 -253t-3 -113.5q0 -22 -10 -22q-4 0 -18 16l-492 598q-14 18 -16 18q-3 0 -3 -20 q-1 -25 -1 -122q0 -54 -0.5 -175.5t-0.5 -167.5q0 -102 5 -102h86q8 0 9.5 -2t1.5 -11q0 -11 -2 -14t-9 -3q-11 0 -50.5 1.5t-55.5 1.5t-43.5 -1.5t-38.5 -1.5q-10 0 -12 2.5t-2 15.5z" />
<glyph unicode="O" horiz-adv-x="752" d="M45 318q0 158 99 257.5t241 99.5q145 0 233.5 -101t88.5 -250t-94.5 -242t-242.5 -93q-83 0 -155.5 36.5t-121 113.5t-48.5 179zM139 345q0 -140 63 -234t169 -94q79 0 136 48t82.5 118t25.5 150t-25 149.5t-81 117t-134 47.5q-103 0 -169.5 -91t-66.5 -211z" />
<glyph unicode="P" horiz-adv-x="564" d="M40 649q0 7 2.5 10.5t6 4t11.5 0.5q6 0 51 -1t62 -1q16 0 68 2.5t63 2.5q108 0 174 -49.5t66 -146.5q0 -92 -64 -136.5t-175 -44.5q-19 0 -46.5 1.5t-40.5 1.5q-10 0 -10 -11v-66q0 -189 5 -189h73q8 0 9.5 -2t1.5 -11q0 -11 -2 -14t-9 -3q-11 0 -55 1.5t-60 1.5 q-18 0 -61.5 -1.5t-45.5 -1.5q-10 0 -12 2.5t-2 15.5q0 9 3 10.5t15 1.5h51q9 0 9 447v52q0 108 -5 108l-63 -2q-20 0 -20 17zM209 325q0 -13 38 -13q94 0 152.5 41.5t58.5 132.5q0 71 -59.5 113t-151.5 42q-22 0 -33 -1q-5 0 -5 -54v-261z" />
<glyph unicode="Q" horiz-adv-x="783" d="M45 340q0 155 101 245t246 90q149 0 247.5 -95t98.5 -240q0 -119 -67.5 -207t-176.5 -119q-15 -4 -62 -24l-87 -38t-40 -19q0 -2 25.5 -3t64.5 -4t64 -9q24 -5 64 -16.5t68.5 -18t47.5 -6.5q30 0 55 7.5t37.5 15t13.5 7.5q3 0 8.5 -6t5.5 -11q0 -7 -23 -25t-61 -34.5 t-72 -16.5q-59 0 -134.5 20.5t-135 41.5t-79.5 21q-15 0 -40 -9t-27 -9q-9 0 -22.5 16.5t-13.5 25.5q0 15 25 15q4 0 11 -0.5t11 -0.5q32 0 57 6q16 4 50.5 18.5t62.5 27.5t28 15l-14 2q-70 9 -128.5 31.5t-106.5 61.5t-75 101.5t-27 142.5zM132 356q0 -140 85 -237 q37 -42 113 -71.5t104 -29.5q15 0 46 18.5t68 53.5t64.5 99.5t27.5 142.5q0 123 -71 219t-187 96q-105 0 -177.5 -87t-72.5 -204z" />
<glyph unicode="R" horiz-adv-x="641" d="M40 649q0 7 2.5 10.5t6 4t11.5 0.5q6 0 51 -1t62 -1q16 0 75 3t70 3q42 0 77 -7.5t68.5 -25t53 -52.5t19.5 -85q0 -32 -14.5 -61t-37.5 -49t-42.5 -32t-39.5 -21q-5 -3 -10.5 -4.5t-7.5 -2.5l-2 -1l2 -1q2 0 7 -1t11 -3q160 -48 167 -230q2 -44 4 -54.5t10 -10.5h46 q7 0 9.5 -3.5t2.5 -18.5q0 -8 -17 -8l-133 3q-5 0 -6.5 1t-1.5 7v58q0 43 -2 72t-12 64.5t-27.5 57t-51 36.5t-80.5 16q-10 0 -43.5 0.5t-48.5 0.5q-11 0 -11 -11q0 -62 3.5 -168.5t7.5 -106.5h61q8 0 9.5 -2t1.5 -11q0 -11 -2 -14t-9 -3q-11 0 -51.5 1.5t-56.5 1.5 q-18 0 -57 -1.5t-41 -1.5q-10 0 -12 2.5t-2 15.5q0 9 2.5 10.5t15.5 1.5h45q5 0 5 129v133q0 345 -12 345l-55 -2q-20 0 -20 17zM207 345q0 -6 3 -8t13 -2q20 0 65 -0.5t63 -1.5q10 0 12 1q88 40 88 150q0 71 -55.5 114.5t-129.5 43.5q-18 0 -52 -2q-7 0 -7 -54v-241z" />
<glyph unicode="S" horiz-adv-x="528" d="M55 488q0 81 65 135t149 54q73 0 135 -42q10 -8 16 -8t7 10l1 11q0 9 2 11.5t13 2.5q12 0 15.5 -2.5t3.5 -11.5l-2 -63q-3 -63 -3 -94q0 -9 -3 -12.5t-13 -3.5q-13 0 -16 2.5t-3 9.5q0 1 1.5 30t1.5 34q0 22 -51.5 60t-102.5 38q-57 0 -95 -37t-38 -92q0 -43 26.5 -73.5 t65.5 -46l85.5 -34t85.5 -37.5t65.5 -58t26.5 -93q0 -88 -67.5 -140.5t-156.5 -52.5q-51 0 -99 9.5t-73 20t-26 16.5l-3.5 48l-4.5 62t-2 34q0 14 12 14h5q15 0 16 -16l6 -92q1 -21 65.5 -42t112.5 -21q54 0 93.5 35t39.5 86q0 42 -26.5 72t-66 46.5l-85.5 36.5t-85.5 40 t-66 60t-26.5 94z" />
<glyph unicode="T" horiz-adv-x="690" d="M20 544l4 22q3 21 7 52.5t6 53.5q1 10 3 12t13 2q13 0 13 -6v-11q0 -6 108 -6h357q108 0 109 11q1 12 13 12q11 0 14 -2t3 -9q0 -2 -2 -43t-2 -87q0 -6 -3 -8t-13 -2q-15 0 -15 14q0 2 1.5 38.5t1.5 39.5q0 8 -113 8h-116q-3 0 -5 -10t-3 -30.5t-1 -36t-0.5 -44 t-0.5 -37.5l-1 -29q0 -28 -1 -72.5t-2 -94.5t-1.5 -102t-0.5 -87q0 -65 2 -65h74q8 0 9.5 -2t1.5 -11q0 -11 -2 -14t-9 -3q-11 0 -57.5 1.5t-62.5 1.5t-63 -1.5t-58 -1.5q-10 0 -12 2.5t-2 15.5q0 9 3 10.5t15 1.5h62q7 0 10.5 192.5t3.5 325.5q0 90 -7 90h-144 q-96 0 -97 -13l-7 -70q-1 -17 -13 -17q-20 0 -20 9z" />
<glyph unicode="U" horiz-adv-x="755" d="M40 649q0 7 2 10.5t5 4t11 0.5q6 0 40.5 -1.5t51.5 -1.5q16 0 59.5 1.5t54.5 1.5q10 0 12 -2.5t2 -15.5q0 -9 -3 -10.5t-15 -1.5h-65q-6 0 -10 -166.5t-4 -239.5q0 -97 48 -145.5t153 -48.5q92 0 172 54q17 11 20 23q5 17 5 136v305q0 82 -7 82h-49q-8 0 -11 0.5t-6 4 t-3 10.5t2.5 10.5t6 4t11.5 0.5q6 0 44.5 -1.5t55.5 -1.5t46 1.5t32 1.5q10 0 12 -2.5t2 -15.5q0 -9 -2.5 -10.5t-15.5 -1.5h-24q-3 0 -5 -17t-3 -51t-1.5 -69t-1.5 -88.5t-2 -91.5q-1 -57 -3 -128t-3 -113t-1 -51q0 -32 -21 -32q-10 0 -30 36.5t-32 36.5q-10 0 -46 -20 q-40 -23 -96.5 -40t-109.5 -17q-59 0 -100.5 14t-64 34t-35.5 54t-16 63.5t-3 72.5q0 11 0.5 157t0.5 191q0 59 -5 59h-37q-6 0 -8 0.5t-5 1.5t-4 4t-1 9z" />
<glyph unicode="V" horiz-adv-x="685" d="M10 649q0 7 2 10.5t5 4t11 0.5q6 0 40.5 -1.5t51.5 -1.5q16 0 67.5 1.5t62.5 1.5q10 0 12 -2.5t2 -15.5q0 -9 -3 -10.5t-15 -1.5h-71q-2 0 -2 -5q0 -19 12 -51q68 -199 159 -436q19 -48 22 -48q6 0 23 46l37 95.5l46.5 119l42.5 111t34 98.5t12 54q0 16 -9 16h-71h-5.5 t-4 0.5t-4 1.5t-2.5 2.5t-1.5 4t-0.5 6.5q0 11 2.5 13t12.5 2q6 0 47 -1.5t58 -1.5t46 1.5t32 1.5q10 0 12 -2.5t2 -15.5q0 -9 -2.5 -10.5t-15.5 -1.5t-19.5 -2.5t-9 -6t-7.5 -14.5l-231 -543q-3 -8 -27 -42q-6 -9 -12.5 -20.5t-10 -17t-8 -9.5t-10.5 -4q-5 0 -10 15l-17 51 t-27 69q0 1 -51.5 133.5l-103 261.5t-54.5 129h-31q-6 0 -8 0.5t-5 1.5t-4 4t-1 9z" />
<glyph unicode="W" horiz-adv-x="1008" d="M10 649q0 7 2.5 10.5t6 4t11.5 0.5q6 0 41 -1.5t52 -1.5q16 0 54.5 1.5t49.5 1.5q10 0 12 -2.5t2 -15.5q0 -9 -2.5 -10.5t-15.5 -1.5h-50q-10 0 -10 -9t27 -99l47.5 -155l50.5 -158t23 -71q12 -36 13 -36q2 0 16 36l143 365q5 13 5 18q0 4 -3.5 14t-5.5 17q-22 78 -27 78 h-60q-7 0 -10 0.5t-5 4t-2 10.5q0 11 3 13t14 2q6 0 50 -1.5t61 -1.5q16 0 62.5 1.5t57.5 1.5q10 0 12 -2.5t2 -15.5q0 -8 -3 -10t-14 -2h-64q-3 0 -3 -9q0 -27 18 -99l32.5 -116l34.5 -120.5l28.5 -98.5t14.5 -49l4 -14t3.5 -11.5l3 -9l2.5 -7.5t2 -5.5t2 -3.5t2 -1 q2 0 22 50l35.5 93.5l46 122l39 108t33.5 102t11 52.5q0 16 -9 16h-65q-7 0 -10 0.5t-5 4t-2 10.5q0 11 3 13t14 2q6 0 46 -1.5t57 -1.5q18 0 42 1.5t26 1.5q10 0 12 -2.5t2 -13.5q0 -9 -3 -11.5t-15 -2.5q-13 0 -19.5 -2.5t-9 -6t-7.5 -14.5l-221 -543q-4 -11 -8 -17.5 t-9.5 -13l-9.5 -11.5l-11 -17t-9 -14t-7 -10.5t-7 -7.5t-7 -2q-8 0 -14.5 14t-18 55.5t-19.5 65.5q0 1 -14 51l-37 132l-41 147q-7 25 -10 25t-12 -25l-142 -372q-4 -11 -8 -17.5t-9.5 -13l-9.5 -11.5l-11 -17t-9 -14t-7 -10.5t-7 -7.5t-7 -2q-8 0 -14.5 14t-18 55.5 t-19.5 65.5q0 1 -16.5 56.5l-39.5 131.5l-46.5 152.5l-40.5 130t-19 53.5h-35q-8 0 -11 0.5t-6 4t-3 10.5z" />
<glyph unicode="X" horiz-adv-x="638" d="M10 12q0 6 0.5 9t3 4.5t4.5 1.5h8h37q2 0 6.5 4.5t12.5 16l14.5 20.5t19.5 28.5t21 30.5l42.5 59.5t56 72t45.5 57.5q7 9 0 20q0 2 -92 150t-97 148h-39h-5.5t-4 0.5t-4 1.5t-2.5 2.5t-1.5 4t-0.5 6.5q0 7 2 10.5t5 4t11 0.5q6 0 53 -1.5t64 -1.5q16 0 51 1.5t46 1.5 q10 0 12 -2.5t2 -15.5q0 -9 -2.5 -10.5t-15.5 -1.5h-41q-11 0 -12 -2t4 -13q27 -65 121 -227q2 -2 3.5 -4.5t2.5 -3.5l1 -2q3 0 89 133q63 94 63 115q0 4 -3 4h-56q-13 0 -15.5 1.5t-2.5 10.5q0 13 2 15.5t12 2.5q11 0 36.5 -1.5t41.5 -1.5q17 0 43.5 1.5t32.5 1.5 q11 0 13.5 -2t2.5 -13t-3 -13t-13 -2h-26q-4 0 -46 -60q-33 -48 -88.5 -121.5t-63.5 -85.5q-4 -6 -4 -7t4 -7q205 -326 214 -326h35q6 0 8 -0.5t5 -1.5t4 -4t1 -9q0 -7 -2 -10.5t-5 -4t-11 -0.5q-6 0 -45.5 1.5t-56.5 1.5q-16 0 -60.5 -1.5t-55.5 -1.5q-10 0 -12 2.5 t-2 15.5q0 9 3 10.5t15 1.5h50q6 0 8.5 0.5t3.5 2t0 4t-4 8.5q-18 37 -145 250l-6 9q-2 1 -7 -7q-110 -155 -163 -242l-12 -21q0 -4 13 -4h54q12 0 15 -1.5t3 -10.5q0 -13 -2 -15.5t-12 -2.5q-11 0 -39 1.5t-44 1.5q-17 0 -47 -1.5t-36 -1.5q-10 0 -13 2t-3 13z" />
<glyph unicode="Y" horiz-adv-x="597" d="M10 654q0 7 2 10.5t5 4t11 0.5q6 0 46 -1.5t57 -1.5q16 0 60 1.5t55 1.5q10 0 12 -2.5t2 -15.5q0 -9 -3 -10.5t-15 -1.5h-59q-11 0 -12 -2.5t4 -12.5q9 -23 37 -76.5l62.5 -117t42.5 -79.5q9 -17 11 -17q3 0 11 14l27 52l38 72.5l35.5 69.5t29 62t10.5 32q0 3 -2 3h-56 q-13 0 -15.5 1.5t-2.5 10.5q0 13 2 15.5t12 2.5q11 0 36.5 -1.5t41.5 -1.5q17 0 43.5 1.5t32.5 1.5q11 0 13.5 -2t2.5 -13q0 -6 -0.5 -9t-3 -4.5t-5 -1.5h-7.5h-36q-2 0 -37.5 -62l-81.5 -142l-65 -111q-3 -5 -3 -11q0 -286 10 -286h71q8 0 9.5 -2t1.5 -11q0 -11 -2 -14 t-9 -3q-11 0 -57.5 1.5t-62.5 1.5t-58.5 -1.5t-53.5 -1.5q-10 0 -12 2.5t-2 15.5q0 9 2.5 10.5t15.5 1.5h52q10 0 10 244q0 11 -7 23q-189 345 -199 345h-29q-6 0 -8 0.5t-5 1.5t-4 4t-1 9z" />
<glyph unicode="Z" horiz-adv-x="601" d="M40 15q0 5 61 98.5l163.5 249.5l165.5 254q5 7 5 9q0 3 -24 3h-302q-9 0 -10 -7q-1 -2 -1 -3q-2 -9 -5 -28.5t-5.5 -33.5t-2.5 -16q-4 -15 -9 -15q-24 0 -24 9q0 3 3.5 24.5l9 56t8.5 60.5q0 6 16 6q13 0 13 -6v-6q0 -3 1.5 -4.5t8 -2.5t18 -1.5t31.5 -0.5h381 q10 0 13.5 -3t3.5 -12q0 -6 -62.5 -98l-159 -238t-157.5 -250q-10 -16 -10 -18q0 -5 11 -5h337h5.5t4 0.5t2.5 1t1 3t1 4t0.5 6t0.5 8.5q1 14 3 87q0 8 18 8q17 0 17 -9q0 -28 -1.5 -77t-1.5 -61q0 -11 -22 -11q-57 0 -252 1.5t-246 1.5q-5 0 -6.5 2.5t-1.5 12.5z" />
<glyph unicode="[" horiz-adv-x="296" d="M80 -126v801q0 9 2 12t10 3h151q9 0 11 -1.5t2 -7.5v-14q0 -9 -2 -11t-11 -2h-105q-9 0 -11 -2t-2 -10v-735q0 -12 13 -12h105q6 0 8.5 -0.5t3.5 -3t1 -9.5v-12q0 -6 -2 -8.5t-11 -2.5h-150q-9 0 -11 2.5t-2 12.5z" />
<glyph unicode="\" horiz-adv-x="406" d="M10 693q0 12 21 12q14 0 19.5 -3.5t9.5 -14.5l317 -850q19 -55 19 -57q0 -13 -26 -13q-13 0 -18.5 4.5t-13.5 26.5l-314 851q-14 36 -14 44z" />
<glyph unicode="]" horiz-adv-x="296" d="M40 -118q0 9 2 11t11 2h105q9 0 11 2t2 10v735v6t-1.5 3.5t-4 2t-7.5 0.5h-105q-6 0 -8.5 0.5t-3.5 3t-1 9.5v12q0 7 2 9t11 2h150q9 0 11 -2.5t2 -12.5v-801q0 -9 -2 -12t-10 -3h-151q-9 0 -11 1.5t-2 7.5v14z" />
<glyph unicode="^" horiz-adv-x="402" d="M51 311l146 320q2 1 6 1t6 -1l146 -320q-15 -3 -26 -3q-9 0 -26 3l-102 232l-98 -232q-18 -3 -28 -3q-11 0 -24 3z" />
<glyph unicode="_" horiz-adv-x="410" d="M25 -43q0 18 16 18h331q13 0 13 -17v-5q0 -23 -13 -23h-334q-13 0 -13 19v8z" />
<glyph unicode="`" horiz-adv-x="400" d="M98 582q0 13 9.5 21.5t26.5 8.5q21 0 30 -25l49 -130q2 -4 2 -6t-4 -2h-16q-3 0 -8 6l-82 107q-7 10 -7 20z" />
<glyph unicode="a" horiz-adv-x="419" d="M35 71q0 42 37 74t83.5 48t103.5 26q8 1 8 16q0 27 -0.5 42t-5 36.5t-13.5 32.5t-26 19.5t-42 8.5q-18 0 -31 -5q-20 -9 -25.5 -22t-6.5 -45q0 -16 -7 -21q-11 -8 -30.5 -18t-22.5 -10q-8 0 -8 15q0 57 49 94t103 37q72 0 101.5 -33.5t29.5 -97.5q0 -29 -3 -113t-3 -91 q0 -30 22 -30q2 0 19.5 12t18.5 12q3 0 8 -5.5t5 -9.5q0 -5 -65 -49q-15 -11 -26 -11q-10 0 -17.5 6t-11.5 14t-6.5 16t-3.5 14l-1 6q-1 0 -4 -2t-8 -5t-8 -5q-68 -41 -115 -41q-46 0 -72 23t-26 62zM105 99q0 -26 17.5 -47.5t47.5 -21.5q20 0 44 6t38.5 12.5t14.5 9.5v134 q0 11 -6 11q-14 0 -62 -15q-94 -30 -94 -89z" />
<glyph unicode="b" horiz-adv-x="485" d="M5 639q0 21 5 21q20 2 55.5 6l60 7t26.5 3q6 0 6 -15q-3 -185 -3 -267q0 -38 1 -38t7.5 3t17.5 7.5t23.5 9t28.5 7.5t30 3q83 0 137.5 -57.5t54.5 -140.5q0 -92 -65 -146.5t-156 -54.5q-19 0 -47.5 9.5t-41.5 9.5q-11 0 -28 -9t-21 -9q-12 0 -12 13q0 1 1 36.5t2.5 82.5 t1.5 77q0 87 -4.5 264.5t-12.5 177.5q-2 0 -30.5 -3t-30.5 -3q-6 0 -6 6zM153 64q0 -50 84 -50q67 0 106.5 51t39.5 122q0 67 -47.5 118.5t-112.5 51.5q-16 0 -32.5 -5.5t-26 -11t-9.5 -8.5q0 -59 -1 -159.5t-1 -108.5z" />
<glyph unicode="c" horiz-adv-x="412" d="M35 177q0 104 63 163t143 59q50 0 91.5 -29t41.5 -67q0 -13 -10 -20q-17 -13 -30 -13t-17 11q-2 5 -8.5 25.5t-10 27t-12 18.5t-21 16t-30.5 4q-60 0 -97.5 -53t-37.5 -117q0 -68 40.5 -118t113.5 -50q30 0 58.5 7.5t44.5 15t18 7.5q7 0 7 -8q0 -2 -6.5 -9t-20.5 -17 t-32 -18.5t-44.5 -15t-54.5 -6.5q-87 0 -138 51t-51 136z" />
<glyph unicode="d" horiz-adv-x="499" d="M30 181q0 85 58.5 141.5t144.5 56.5q17 0 33.5 -2.5t28.5 -6.5t21 -8t14 -6l6 -3q6 0 6 18q0 48 -2 113.5t-4.5 112t-3.5 46.5t-32 -4.5t-35 -4.5t-5 2t1 13q2 12 8 13q24 3 56.5 7.5t52.5 7.5t22 3q7 0 8.5 -3.5t1.5 -19.5q0 -7 -1.5 -62.5t-3 -164.5t-1.5 -246 q0 -48 2 -120q1 -29 6 -39t17 -10q4 0 34 4q6 1 8.5 0t2.5 -8q0 -8 -0.5 -11t-3 -5t-9.5 -3l-115 -15q-6 0 -6 9q0 1 0.5 17.5t0.5 18.5q0 8 -2.5 9t-12.5 -5q-63 -39 -120 -39q-75 0 -125.5 47t-50.5 147zM103 188q0 -74 37.5 -119t114.5 -45q23 0 55 10.5t32 22.5v250 q0 12 -31 32t-66 20q-64 0 -103 -50.5t-39 -120.5z" />
<glyph unicode="e" horiz-adv-x="424" d="M30 182q0 91 57 152.5t147 61.5q71 0 110 -46t39 -113q0 -5 -20.5 -8.5t-33.5 -3.5q-6 0 -113 2.5t-111 2.5q-5 0 -5 -36q0 -76 44.5 -120.5t104.5 -44.5q22 0 43.5 6.5t36 16.5t25.5 19.5t18 16.5l6 6q2 0 9 -6.5t7 -8.5q0 -5 -21 -26.5t-64 -44.5t-88 -23 q-91 0 -141 53.5t-50 143.5zM105 255q0 -8 12 -8q57 0 157 4q40 1 40 4q0 65 -29.5 92t-62.5 27q-46 0 -80 -38.5t-37 -80.5z" />
<glyph unicode="f" horiz-adv-x="306" d="M35 12q0 13 12 13h40q4 0 4 63q0 20 -0.5 51t-0.5 33v60q0 114 -2 114h-33q-9 0 -11.5 2t-2.5 11t2 11t9 2h27q7 0 8.5 2t1.5 10q0 24 -1 47t-1 50q0 87 37 142t119 55q31 0 57 -19t26 -48q0 -16 -18 -31.5t-30 -15.5t-13 9q-3 23 -5 33t-7 24.5t-13.5 20t-21.5 5.5 q-59 0 -59 -164q0 -17 -2 -103q0 -12 3 -14.5t18 -2.5h116q7 0 7 -5t-2.5 -12.5t-5.5 -7.5h-115q-11 0 -14 -2t-3 -10v-166q0 -144 10 -144h66q8 0 10.5 -3t2.5 -10q0 -6 -0.5 -8t-3.5 -4t-9 -2q-8 0 -49 1t-57 1q-12 0 -39.5 -1t-43.5 -1q-9 0 -11 2.5t-2 11.5z" />
<glyph unicode="g" horiz-adv-x="425" d="M15 -173q0 32 25.5 58t54 38.5t57.5 18.5q23 5 23 6t-21 1h-57q-31 0 -40 19q-9 21 -9 48q0 28 18 32q33 8 76 20q38 11 38 12l-2 1q-3 1 -8 2t-9 2q-127 38 -127 161q0 64 53.5 106.5t122.5 42.5q22 0 42 -5.5t33.5 -12.5t24 -14.5t16.5 -12.5l6 -6q2 0 14.5 4.5t29.5 9 t31 5.5q2 0 5.5 -9.5t3.5 -18.5q0 -6 -3 -6q-11 -1 -35 -6t-24 -8q0 -1 3 -10.5t6.5 -26t3.5 -35.5q0 -60 -29 -95t-86 -57q-27 -11 -173 -52q-4 -1 -4 -9t5.5 -18.5t8.5 -11.5q17 -1 57.5 -2.5t64.5 -3t60.5 -6t59 -12.5t45 -20.5t33.5 -32.5t11 -47q0 -76 -61 -121 t-159 -45q-44 0 -85 12t-70.5 39.5t-29.5 65.5zM60 -166q0 -46 44 -72t95 -26q66 0 115 28t49 88q0 27 -29 46t-67 26.5t-78 7.5q-43 0 -86 -26.5t-43 -71.5zM98 250q0 -65 41 -110t68 -45q33 0 65.5 43t32.5 106q0 59 -27 92.5t-73 33.5q-43 0 -75 -35.5t-32 -84.5z" />
<glyph unicode="h" horiz-adv-x="503" d="M10 640q0 16 5 17q138 18 146 18q5 0 5 -20q-8 -166 -8 -301v-10t2 -3t3 0.5t6 3.5q73 40 133 40q40 0 66.5 -16t38.5 -47t16 -63t4 -79v-143q0 -8 1.5 -10t9.5 -2h26q14 0 14 -13q0 -14 -14 -14q-8 0 -31.5 1t-39.5 1q-12 0 -41 -1t-45 -1q-9 0 -11 2.5t-2 11.5 q0 13 13 13h39q8 0 9 1.5t2 9.5q2 40 2 176q0 58 -24 95t-72 37q-47 0 -89 -21q-16 -8 -16 -15l1 -150q0 -89 1 -115q1 -10 1.5 -13t2 -4t7.5 -1h38q8 0 10.5 -3t2.5 -10q0 -6 -0.5 -8t-3.5 -4t-9 -2q-8 0 -37.5 1t-45.5 1q-12 0 -41 -1t-45 -1q-9 0 -11 2.5t-2 11.5 q0 13 12 13h39q7 0 8.5 3t1.5 15q1 94 1 220q0 202 -8 356q-1 17 -6 17q-1 0 -30 -3.5t-31 -3.5q-4 0 -4 11z" />
<glyph unicode="i" horiz-adv-x="249" d="M25 357q0 5 4 13q3 6 4.5 6.5t10.5 1.5q95 5 113 5q7 0 7 -6v-170q0 -113 3 -170q0 -5 0.5 -7t2.5 -3.5t7 -1.5h36q11 0 11 -13q0 -8 -1.5 -11t-9.5 -3q-9 0 -40 1t-44 1t-46.5 -1t-42.5 -1q-8 0 -9.5 2.5t-1.5 11.5q0 7 2.5 10t11.5 3h41q8 0 9.5 2t1.5 10q1 29 1 88 q0 117 -4 214q-1 11 -3 13.5t-10 2.5q-1 0 -24.5 -1t-25.5 -1q-4 0 -4 4zM77 553q0 25 19.5 40t40.5 15q18 0 30 -10t12 -30q0 -24 -19 -40t-42 -16q-17 0 -29 10.5t-12 30.5z" />
<glyph unicode="j" horiz-adv-x="292" d="M5 -255q0 16 14.5 34.5t26.5 18.5t31.5 -2t23.5 -2q19 0 28.5 9.5t9.5 23.5q0 9 -2.5 56.5t-4.5 145t-2 229.5q0 49 -2 76q-1 14 -9 14q-3 0 -34 -1.5t-36 -1.5q-3 0 -3 4q0 5 4 15q0 1 1 3q2 6 14 6q22 0 52.5 1.5l51 2.5t21.5 1q7 0 7 -23q0 -20 2.5 -136.5t2.5 -191.5 q0 -90 -10.5 -145t-43.5 -98q-13 -17 -57.5 -38t-66.5 -21q-19 0 -19 20zM80 580q0 25 19.5 40t40.5 15q18 0 30 -10t12 -30q0 -24 -19 -40t-42 -16q-17 0 -29 10.5t-12 30.5z" />
<glyph unicode="k" horiz-adv-x="449" d="M10 649v9q0 13 12 14q114 9 131 9q5 0 6 -2t1 -11l-11 -448q0 -8 2.5 -9.5t13.5 -1.5h22q4 0 7.5 1t7 4.5l5 5t5.5 6t4 5.5q53 70 79 113q3 5 3.5 6.5t1.5 4t-0.5 3.5t-5 1.5t-9.5 0.5h-20q-8 0 -10.5 3t-2.5 10q0 14 14 14q4 0 25 -1t33 -1q10 0 30 1t27 1q13 0 13 -14 q0 -13 -12 -13h-32q-11 0 -107 -123q-2 -2 -5 -6q-3 -3 -4 -4.5t0.5 -4t3.5 -4.5l5 -5l151 -175q11 -13 22 -13h10q8 0 10.5 -3t2.5 -10q0 -6 -0.5 -8t-3.5 -4t-9 -2t-29.5 1t-37.5 1t-38 -1t-30 -1q-9 0 -11 2.5t-2 11.5q0 13 12 13h11q17 0 5 15l-110 136q-2 2 -4 5 q-9 12 -18 12h-14q-8 0 -9.5 -3t-1.5 -13v-134q0 -13 1.5 -15.5t9.5 -2.5h23q8 0 10.5 -3t2.5 -10q0 -6 -0.5 -8t-3.5 -4t-9 -2q-8 0 -30 1t-38 1q-19 0 -48 -1t-32 -1q-9 0 -11 2.5t-2 11.5q0 13 12 13h41q7 0 8.5 3t1.5 15v193q0 408 -9 408q-2 0 -26 -1.5t-30 -1.5 q-7 0 -8.5 1.5t-1.5 6.5z" />
<glyph unicode="l" horiz-adv-x="257" d="M20 645q0 2 2 16q1 6 2 6.5t8 1.5q120 9 123 9q5 0 6 -2.5t1 -12.5q1 -160 3.5 -332t2.5 -267q0 -39 8 -39h39q8 0 10.5 -3t2.5 -10q0 -6 -0.5 -8t-3.5 -4t-9 -2q-8 0 -35.5 1t-43.5 1q-12 0 -44.5 -1t-48.5 -1q-9 0 -11 2.5t-2 11.5q0 13 12 13h52q4 0 4 85 q0 395 -11 517q-7 18 -11 19q-3 0 -24.5 -2t-23.5 -2q-8 0 -8 3z" />
<glyph unicode="m" horiz-adv-x="739" d="M25 350q0 6 4 18q2 6 3.5 6.5t11.5 1.5q16 1 41.5 2t41 2t17.5 1q11 0 13 -1.5t2 -9.5v-28q0 -14 2 -15l8 6q79 55 141 55q21 0 37.5 -5.5t25.5 -13t14.5 -14.5t8.5 -13l2 -5q3 0 13 7q25 16 61.5 29t63.5 13q69 0 96.5 -38t27.5 -108q0 -46 -1 -116t-1 -89q0 -10 10 -10 h32q14 0 14 -13q0 -14 -14 -14q-8 0 -34 1t-42 1q-12 0 -40.5 -1t-44.5 -1q-9 0 -11 2.5t-2 11.5q0 13 15 13h40q9 0 9 191q0 128 -89 128q-23 0 -47 -7t-37 -14t-13 -9t1.5 -9.5t3 -25t1.5 -43.5v-170q0 -41 3 -41h34q14 0 14 -13q0 -14 -14 -14q-8 0 -32.5 1t-40.5 1 q-12 0 -34.5 -1t-38.5 -1q-9 0 -12 3t-3 11q0 13 12 13h39q7 0 7 97v41t-0.5 36.5t-0.5 16.5q0 25 -1 40t-4.5 34t-11 29t-21.5 17.5t-34 7.5q-60 0 -100 -30q-11 -9 -11 -18v-228q0 -30 2.5 -36.5t16.5 -6.5h21q14 0 14 -13q0 -14 -14 -14q-9 0 -36 1t-40 1q-14 0 -45.5 -1 t-38.5 -1q-12 0 -12 13q0 14 11 14h39q10 0 13 32q2 20 2 106v109q0 78 -4 78q-1 0 -28.5 -1.5t-30.5 -1.5q-5 0 -5 3z" />
<glyph unicode="n" horiz-adv-x="514" d="M25 350q0 4 5 16q2 6 3.5 6.5t11.5 1.5q5 0 47 3t58 4q9 1 11 -0.5t2 -7.5v-3v-42q0 -6 13 3l2 2l18 12t23 14.5t23 11.5t31 10t33 3q42 0 69.5 -13t41 -39.5t18 -55t4.5 -69.5q0 -33 -2.5 -100t-2.5 -70q0 -8 1.5 -10t9.5 -2h30q9 0 11.5 -2t2.5 -11q0 -6 -0.5 -8t-3 -4 t-8.5 -2q-8 0 -33.5 1t-41.5 1q-12 0 -40.5 -1t-44.5 -1q-10 0 -12 2t-2 11t2.5 11.5t10.5 2.5h37q7 0 8.5 1.5t2.5 9.5q4 48 4 176q0 130 -96 130q-33 0 -89 -28q-18 -9 -18 -23q0 -41 -0.5 -123.5t-0.5 -123.5q0 -9 0.5 -12.5t3 -5t9.5 -1.5h36q8 0 10.5 -3t2.5 -10 q0 -6 -0.5 -8t-3.5 -4t-9 -2q-8 0 -36.5 1t-44.5 1q-12 0 -42 -1t-46 -1q-9 0 -11 2.5t-2 11.5q0 13 12 13h39q6 0 7.5 2.5t2.5 11.5v4q5 98 5 194q0 68 -2 99q-1 11 -2.5 12.5t-9.5 1.5q-1 0 -27 -2t-28 -2q-3 0 -3 4z" />
<glyph unicode="o" horiz-adv-x="446" d="M30 183q0 90 57 151.5t148 61.5q80 0 130.5 -57.5t50.5 -141.5q0 -94 -53 -153t-144 -59q-80 0 -134.5 58t-54.5 140zM101 169q0 -62 31.5 -110t86.5 -48q36 0 61.5 17t38.5 46.5t18.5 61t5.5 68.5q0 66 -31 116t-89 50q-122 0 -122 -201z" />
<glyph unicode="p" horiz-adv-x="512" d="M25 352q0 4 3.5 13t5.5 9q29 1 61.5 2.5t51 2.5t19.5 1q7 0 9 -2t2 -12v-24q0 -10 2 -10q1 0 19 14q50 37 108 37q83 0 127 -53t44 -136q0 -81 -57.5 -142t-151.5 -61q-31 0 -66 11l-7.5 2.5t-6.5 2.5t-5 1t-4 -1.5t-1 -4.5l3 -189q2 -67 6 -67h70q8 0 10.5 -3t2.5 -10 q0 -6 -0.5 -8t-3.5 -4t-9 -2q-8 0 -49 1t-57 1q-12 0 -46.5 -1t-50.5 -1q-9 0 -11 2.5t-2 11.5q0 13 12 13h55q3 0 3 160v142q0 191 -7 287q-1 10 -3 12t-13 2q-3 0 -25.5 -1t-24.5 -1q-13 0 -13 5zM178 52q0 -17 30 -29.5t57 -12.5q66 0 103 55t37 122q0 72 -37 116.5 t-93 44.5q-36 0 -64 -13q-33 -17 -33 -33v-250z" />
<glyph unicode="q" horiz-adv-x="490" d="M35 180q0 87 59.5 144t148.5 57q33 0 72 -13t45 -13q9 0 20 16.5t18 16.5q16 0 16 -13q-5 -149 -5 -298v-165q0 -163 3 -163h41q12 0 12 -15q0 -6 -0.5 -8.5t-3.5 -4t-9 -1.5h-27q-24 0 -48.5 -1t-42.5 -3l-32.5 -3.5t-23 -2.5t-9.5 -1q-9 0 -12 2.5t-3 9.5q0 16 13 17 q9 1 20 2t16 1t12 1.5t9 2t5.5 3t4 4t1.5 6t1 8.5v12l2 223q0 9 -4 9q-1 0 -15 -4q-65 -19 -110 -19q-68 0 -121 48t-53 145zM106 191q0 -66 39.5 -119t104.5 -53q29 0 59 5.5t30 16.5v250q0 30 -28 46.5t-76 16.5q-62 0 -95.5 -49t-33.5 -114z" />
<glyph unicode="r" horiz-adv-x="329" d="M25 353q0 5 3 12q2 6 3.5 6.5t11.5 1.5q42 3 105 3q10 0 11 -0.5t1 -4.5v-5q0 -10 -0.5 -32t-0.5 -32q0 -18 1 -18t2.5 4t3 10.5t3.5 10.5q17 39 43 62t50 23q20 0 38.5 -16t18.5 -27q0 -9 -13 -25t-24 -16q-12 0 -31 15.5t-29 15.5q-57 0 -57 -204q0 -112 12 -112h63 q8 0 10.5 -3t2.5 -10q0 -6 -0.5 -8t-3.5 -4t-9 -2q-8 0 -49 1t-57 1q-12 0 -41 -1t-45 -1q-9 0 -11 2.5t-2 11.5q0 13 12 13h43q9 0 9 137q0 189 -7 189q-1 0 -31.5 -1t-32.5 -1q-3 0 -3 4z" />
<glyph unicode="s" horiz-adv-x="337" d="M35 50q0 11 11.5 24.5t18.5 13.5q3 0 5 -3.5t5.5 -10.5t8.5 -13q42 -50 93 -50q28 0 47 16.5t19 48.5t-23 51.5t-66 37.5q-2 1 -18 8t-19 8.5t-17 8t-17.5 10t-13.5 11t-13.5 14t-9 15t-7 18.5t-1.5 22q0 48 44 80.5t100 32.5q51 0 77.5 -22.5t26.5 -44.5q0 -7 -15 -13 t-25 -6q-7 0 -12.5 10t-10 22.5t-18.5 22.5t-36 10q-29 0 -51 -17t-22 -53q0 -15 5.5 -27t21 -22.5t24 -15t31.5 -15.5q33 -16 45.5 -22.5t36 -22.5t33 -33t9.5 -38q0 -53 -41.5 -85.5t-99.5 -32.5q-46 0 -86 19.5t-40 42.5z" />
<glyph unicode="t" horiz-adv-x="289" d="M35 344q0 5 3 8l91 127q3 5 9 5q10 0 10 -10q0 -1 -1.5 -20.5t-3 -42t-1.5 -29.5t2 -8.5t9 -1.5h95q9 0 10.5 -2t-1.5 -16q-4 -16 -13 -16h-99q-3 0 -3 -46v-192q0 -20 2 -31t13 -21t33 -10q23 0 52 8l28 8q4 0 4 -16q0 -3 -22.5 -14t-53.5 -22t-50 -11q-39 0 -55.5 20.5 t-16.5 48.5q2 144 2 216q0 61 -12 61h-25q-6 0 -6 7z" />
<glyph unicode="u" horiz-adv-x="510" d="M15 360q0 4 3 11q2 6 4 7t11 2q88 4 110 4q7 0 7 -6v-272q0 -67 111 -67q91 0 91 16v118q0 186 -8 186q-1 0 -25.5 -1t-26.5 -1q-4 0 -4 4q2 17 6 19q2 1 7 1q95 5 113 5q7 0 7 -6q-1 -239 -1 -301q0 -37 3.5 -48t15.5 -11q2 0 21 3t20 3q5 0 5 -10t-2 -12t-12 -4 q-102 -15 -104 -15q-10 0 -11 13q-3 38 -4 38l-26 -12q-25 -12 -64.5 -23.5t-72.5 -11.5q-34 0 -57 11t-33.5 31t-14.5 41t-4 50v157q0 77 -12 77q-1 0 -24 -0.5t-25 -0.5q-4 0 -4 5z" />
<glyph unicode="v" horiz-adv-x="461" d="M25 368q0 6 0.5 8t3.5 4t9 2q8 0 29.5 -1t37.5 -1q13 0 45 1t40 1q9 0 11 -2.5t2 -11.5q0 -13 -12 -13h-30q-18 0 -18 -8q0 -2 17 -52.5l40.5 -115t36.5 -95.5q8 -18 12 -18q3 0 9 16q94 223 94 257q0 16 -10 16h-26q-8 0 -10.5 3t-2.5 10q0 14 14 14q3 0 24 -1t33 -1 t28 1t23 1t9 -2.5t2 -11.5q0 -13 -12 -13h-16q-7 0 -13 -10q-11 -19 -57.5 -132t-69.5 -161q-7 -14 -13 -22.5t-16 -20.5t-20 -27q-6 -7 -11 -7q-4 0 -7.5 4.5t-7 13t-6 16t-5.5 18t-4 14.5q-32 98 -109 299q-4 11 -7.5 13t-14.5 2h-9q-8 0 -10.5 3t-2.5 10z" />
<glyph unicode="w" horiz-adv-x="697" d="M25 368q0 6 0.5 8t3.5 4t9 2q8 0 29.5 -1t37.5 -1q13 0 45 1t40 1q9 0 11 -2.5t2 -11.5q0 -13 -12 -13h-25q-18 0 -18 -8q0 -2 15.5 -52.5t37.5 -115t35 -95.5q7 -16 9 -16q4 0 13 23q68 172 80 206q7 18 7 27q0 6 -5 16q-8 15 -34 15h-10q-8 0 -10.5 3t-2.5 10 q0 6 0.5 8t3.5 4t9 2q11 0 33 -1t40 -1q13 0 35.5 1t34.5 1q9 0 11 -2.5t2 -11.5q0 -13 -12 -13h-21q-13 0 -13 -8q0 -2 14.5 -52.5t35 -115t32.5 -95.5q10 -23 12 -23t11 22q18 43 51 143.5t33 117.5q0 11 -12 11h-31q-8 0 -10.5 3t-2.5 10q0 14 14 14q3 0 24 -1t33 -1 q13 0 31 1t20 1q7 0 9 -2.5t2 -11.5q0 -13 -12 -13h-6q-9 0 -14 -10q-9 -18 -50.5 -130t-66.5 -163q-8 -17 -21.5 -34t-24.5 -36q-3 -7 -11 -7q-11 0 -30 66q-22 80 -69 224q-6 18 -8 18q-3 0 -9 -18q-67 -177 -84 -212q-8 -16 -22 -33t-26 -38q-4 -7 -12 -7q-12 0 -31 66 q-4 15 -21 63.5l-42 119.5l-41 116q-4 11 -7.5 13t-14.5 2h-11q-8 0 -10.5 3t-2.5 10z" />
<glyph unicode="x" horiz-adv-x="468" d="M25 12q0 13 12 13q14 0 21 4.5t26 24.5l120 123q8 7 8 9.5t-5 9.5l-107 144q-8 11 -11.5 13t-14.5 2h-16q-8 0 -10.5 3t-2.5 10q0 6 0.5 8t3.5 4t9 2q8 0 35.5 -1t43.5 -1q13 0 31.5 1t26.5 1q9 0 11 -2.5t2 -11.5q0 -13 -12 -13q-20 0 -20 -6q0 -4 10 -18l63 -92 q9 -11 9.5 -11t11.5 11q64 71 85 98q6 10 6 11q0 7 -26 7h-13q-8 0 -10.5 3t-2.5 10q0 14 14 14q9 0 26.5 -1t27.5 -1q12 0 29 1t24 1q13 0 13 -14q0 -13 -12 -13q-7 0 -13.5 -3t-9.5 -5.5t-10.5 -10.5t-10.5 -10q-13 -12 -105 -104q-10 -10 -10 -12t10 -15 q78 -109 116 -157q13 -13 18 -13h12q8 0 10.5 -3t2.5 -10q0 -6 -0.5 -8t-3.5 -4t-9 -2q-8 0 -30.5 1t-38.5 1q-13 0 -36.5 -1t-31.5 -1q-9 0 -11 2.5t-2 11.5q0 13 12 13h11q20 0 20 8q0 1 -21 33q-24 38 -65 93q-7 9 -9.5 9.5t-10.5 -8.5q-89 -105 -94 -113 q-10 -14 -10 -16q0 -6 18 -6h28q8 0 10.5 -3t2.5 -10q0 -6 -0.5 -8t-3.5 -4t-9 -2q-8 0 -27.5 1t-35.5 1q-14 0 -32 -1t-24 -1q-8 0 -10.5 3t-2.5 11z" />
<glyph unicode="y" horiz-adv-x="467" d="M25 368q0 6 0.5 8t3.5 4t9 2q8 0 33 -1t41 -1q13 0 46.5 1t41.5 1q9 0 11 -2.5t2 -11.5q0 -13 -12 -13h-19q-26 0 -26 -10q0 -12 31 -97.5t58 -151.5q16 -40 19 -40t17 40q82 231 82 252q0 7 -31 7h-23q-8 0 -10.5 3t-2.5 10q0 14 14 14q9 0 31.5 -1t32.5 -1q12 0 30 1 t25 1q13 0 13 -14q0 -13 -12 -13h-14q-10 0 -13 -10q-38 -105 -133 -342q-1 -3 -7 -19.5t-15.5 -46t-17.5 -51.5q-2 -4 -5.5 -15.5t-5 -14.5t-4.5 -11.5t-5 -12t-5.5 -11t-7 -12.5t-8 -12.5t-10.5 -14.5t-13 -16q-17 -22 -26 -27q-6 -4 -15 -8q-54 -26 -62 -26q-18 0 -18 20 q0 15 19 42q7 11 28 18l22.5 7.5t29.5 11t22 13.5t16 19q44 109 44 121q0 8 -28 77l-72.5 174l-55.5 132q-4 11 -7 13t-14 2h-11q-8 0 -10.5 3t-2.5 10z" />
<glyph unicode="z" horiz-adv-x="413" d="M35 10q0 7 10 20l214 315q2 3 5 7t5 7t2 4q0 3 -14 3l-155 -5q-17 -1 -20.5 -3.5t-6.5 -15.5l-10 -40q-3 -12 -13 -12q-16 0 -16 6q0 2 9 80q1 9 3 11t11 2h281q23 0 23 -9q0 -1 -9 -15l-210 -310q-9 -13 -9 -18q0 -10 15 -10l174 4q10 0 12 1.5t4 11.5l7 58q1 9 3 10.5 t14 1.5q9 0 9 -6q0 -20 -5 -93q-1 -11 -3 -13t-13 -2h-295q-22 0 -22 10z" />
<glyph unicode="{" horiz-adv-x="307" d="M40 274q0 6 5.5 9t14.5 4t18.5 7.5t18.5 18t14.5 38t5.5 65.5v80q0 36 0.5 53.5t3 42.5t8 36.5t15 26t24.5 20t36.5 10t50.5 4.5q8 0 10 -2t2 -11t-2.5 -11t-11.5 -2q-43 0 -63.5 -19t-20.5 -73v-149q0 -72 -9.5 -100t-48.5 -41q-15 -6 -15 -7t15 -7q39 -13 48.5 -41 t9.5 -100v-149q0 -54 20.5 -73t63.5 -19q6 0 8.5 -0.5t4 -3.5t1.5 -9q0 -9 -2 -11t-10 -2q-29 0 -50.5 4.5t-36.5 10t-24.5 20t-15 26t-8 36.5t-3 42.5t-0.5 53.5v80q0 39 -5.5 65.5t-14.5 38t-18.5 18t-18.5 7.5t-14.5 4t-5.5 9z" />
<glyph unicode="|" horiz-adv-x="247" d="M100 -187v933q0 10 4 13t14 3h7q15 0 18.5 -2.5t3.5 -14.5v-932q0 -9 -0.5 -12.5t-3 -6.5t-8.5 -3h-21q-10 0 -12 3t-2 19z" />
<glyph unicode="}" horiz-adv-x="307" d="M40 -128q0 9 3 11t11 2q43 0 63.5 19t20.5 73v149q0 72 9.5 100t48.5 41q15 6 15 7t-15 7q-39 13 -48.5 41t-9.5 100v149q0 54 -20.5 73t-63.5 19q-6 0 -8.5 0.5t-4 3.5t-1.5 9q0 9 2 11t10 2q29 0 50.5 -4.5t36.5 -10t24.5 -20t15 -26t8 -36.5t3 -42.5t0.5 -53.5v-80 q0 -39 5.5 -65.5t14.5 -38t18.5 -18t18.5 -7.5t14.5 -4t5.5 -9t-5.5 -9t-14.5 -4t-18.5 -7.5t-18.5 -18t-14.5 -38t-5.5 -65.5v-80q0 -36 -0.5 -53.5t-3 -42.5t-8 -36.5t-15 -26t-24.5 -20t-36.5 -10t-50.5 -4.5q-8 0 -10 2t-2 11z" />
<glyph unicode="~" horiz-adv-x="793" d="M45 117q0 5 4 17q6 23 17 46t31.5 51.5t54.5 46.5t76 18q48 0 101.5 -22.5t93 -49.5t88 -49.5t86.5 -22.5q26 0 48.5 16t37 41.5t22 43t12.5 34.5q2 8 4.5 8.5t10.5 -1.5q11 -3 11 -7q0 -3 -1 -6q-7 -28 -19.5 -54.5t-33 -54.5t-54 -45t-73.5 -17q-50 0 -104.5 21.5 t-95 47.5t-89.5 47.5t-89 21.5q-27 0 -48 -14t-34 -36.5t-19.5 -40t-10.5 -35.5q-4 -14 -7 -14q-2 0 -10 2q-10 2 -10 7z" />
<glyph unicode="&#xa1;" horiz-adv-x="261" d="M80 615q0 21 16 39.5t26 18.5q20 0 39.5 -17t19.5 -29q0 -16 -16 -37.5t-28 -21.5q-16 0 -36.5 15t-20.5 32zM92 13q0 3 4 63t10.5 175.5t11.5 231.5q0 10 14 10q13 0 13 -10q3 -95 7.5 -202t8 -175t3.5 -89q0 -25 -41 -25q-18 0 -24.5 4t-6.5 17z" />
<glyph unicode="&#xa2;" horiz-adv-x="407" d="M30 177q0 96 54 153.5t128 66.5q7 1 8.5 3t2.5 8v3q1 15 2.5 32.5t2.5 28t1 15.5q0 6 2 6q20 0 20 -3l-7 -79v-6q0 -5 7 -6q3 -1 5 -1q45 -7 79 -34.5t34 -60.5q0 -13 -10 -20q-17 -13 -30 -13t-17 11q-2 7 -7 22.5t-8 23t-9.5 18t-15 16.5t-20.5 9q-2 1 -5 1 q-5 0 -7 -11l-26 -312q0 -10 6 -11q14 -3 29 -3q30 0 58.5 7.5t44.5 15t18 7.5q7 0 7 -8q0 -2 -6.5 -9t-20.5 -17t-32 -18.5t-44.5 -15t-54.5 -6.5h-4q-7 0 -8 -8q-10 -112 -11 -112q-18 0 -18 2q0 1 1 14.5t3.5 41.5t4.5 54q0 5 -1 7.5t-1.5 2.5t-5.5 1q-2 1 -4 1 q-68 12 -106.5 60.5t-38.5 122.5zM95 202q0 -49 22.5 -91.5t64.5 -62.5q6 -3 8 -3q3 0 3 7l25 308v6q0 5 -3 5q-4 0 -8 -1q-51 -11 -81.5 -60.5t-30.5 -107.5z" />
<glyph unicode="&#xa3;" horiz-adv-x="510" d="M40 -56q0 10 9 19t30.5 22.5t28.5 18.5q10 7 11.5 9t2.5 10q4 70 4 105q0 50 -3 104q-1 12 -3 14t-13 2h-51q-6 0 -7.5 2t-1.5 11q0 11 8 11h50q11 0 13.5 1.5t2.5 7.5q0 1 -1.5 33.5t-3.5 84.5t-2 101q0 73 49.5 119t117.5 46q48 0 81.5 -21t33.5 -57q0 -17 -11.5 -29 t-28.5 -12q-16 0 -16 8q0 34 -15 61t-51 27q-31 0 -50.5 -14t-28 -43t-11 -55.5t-2.5 -69.5v-170q0 -13 3 -15.5t15 -2.5h121q6 0 7.5 -2t1.5 -10t-1.5 -10t-7.5 -2h-121q-12 0 -14.5 -2t-3.5 -14q-5 -105 -35 -190q-4 -9 -4 -12l1 1q2 1 4.5 2.5t5.5 2.5q36 17 76 17 q27 0 87.5 -8.5t81.5 -8.5q52 0 52 37q0 11 -21.5 29t-21.5 22q0 7 10.5 19.5t21.5 12.5q14 0 29.5 -16.5t15.5 -38.5q0 -43 -35 -76t-77 -33q-32 0 -130 7t-103 7q-7 0 -10.5 -5t-7.5 -15q-1 -3 -1 -4t-3 -8.5t-3.5 -10t-3.5 -9t-4.5 -9l-5 -8t-6.5 -7.5t-7 -5t-9 -4 t-11 -1q-28 0 -28 24z" />
<glyph unicode="&#xa4;" horiz-adv-x="494" d="M25 8q0 10 17 27l61 62q-35 48 -35 107q0 60 34 105l-60 62q-17 17 -17 27t7.5 17t16.5 7q12 0 28 -16l62 -62q46 35 105 35t106 -35l62 62q16 16 27 16q10 0 17.5 -7.5t7.5 -16.5q0 -10 -17 -27l-62 -63q37 -50 37 -106q0 -55 -37 -104l62 -63q17 -17 17 -27t-8 -17.5 t-17 -7.5q-10 0 -27 17l-62 62q-47 -36 -106 -36t-105 35l-62 -61q-16 -16 -28 -16q-10 0 -17 7.5t-7 16.5zM119 202q0 -53 37 -89.5t88 -36.5t88.5 37.5t37.5 89.5t-37.5 90.5t-88.5 38.5q-52 0 -88.5 -38.5t-36.5 -91.5z" />
<glyph unicode="&#xa5;" horiz-adv-x="597" d="M10 654q0 7 2 10.5t5 4t11 0.5q6 0 46 -1.5t57 -1.5q16 0 60 1.5t55 1.5q10 0 12 -2.5t2 -15.5q0 -9 -3 -10.5t-15 -1.5h-59q-11 0 -12 -2.5t4 -12.5q9 -23 37 -76.5l62.5 -117t42.5 -79.5q9 -17 11 -17q3 0 11 14l27 52l38 72.5l35.5 69.5t29 62t10.5 32q0 3 -2 3h-56 q-13 0 -15.5 1.5t-2.5 10.5q0 13 2 15.5t12 2.5q11 0 36.5 -1.5t41.5 -1.5q17 0 43.5 1.5t32.5 1.5q11 0 13.5 -2t2.5 -13q0 -6 -0.5 -9t-3 -4.5t-5 -1.5h-7.5h-36q-2 0 -27.5 -44.5l-66 -116l-63.5 -109.5h150q3 0 3 -12t-3 -12h-164l-13 -21q-3 -5 -3 -11v-66h180 q3 0 3 -12t-3 -12h-180q2 -196 10 -196h71q8 0 9.5 -2t1.5 -11q0 -11 -2 -14t-9 -3q-11 0 -57.5 1.5t-62.5 1.5t-58.5 -1.5t-53.5 -1.5q-10 0 -12 2.5t-2 15.5q0 9 2.5 10.5t15.5 1.5h52q10 0 10 196h-176q-2 0 -2.5 12t2.5 12h176v24q0 11 -7 23l-28 51h-141q-2 0 -2.5 12 t2.5 12h128q-150 270 -158 270h-29q-6 0 -8 0.5t-5 1.5t-4 4t-1 9z" />
<glyph unicode="&#xa6;" horiz-adv-x="247" d="M100 -187v376q0 14 11 14h25q11 0 11 -14v-376q0 -9 -0.5 -12.5t-3 -6.5t-8.5 -3h-21q-10 0 -12 3t-2 19zM100 379v367q0 10 4 13t14 3h7q15 0 18.5 -2.5t3.5 -14.5v-366q0 -12 -2.5 -15.5t-11.5 -3.5h-18q-10 0 -12.5 3t-2.5 16z" />
<glyph unicode="&#xa7;" horiz-adv-x="381" d="M40 310q0 67 69 118q7 5 -2 18q-44 68 -44 110q0 52 34 86.5t91 34.5q41 0 77.5 -11t36.5 -34q0 -27 -37 -27q-22 0 -54.5 15.5t-54.5 15.5q-58 0 -58 -42q0 -28 38 -84t83.5 -111.5t83.5 -130t38 -136.5q0 -43 -66 -94q-10 -9 -10 -12q0 -2 7 -14q42 -76 42 -114 q0 -56 -39 -90t-107 -34q-103 0 -103 44q0 10 8.5 16.5t19.5 6.5q7 0 43 -13q34 -12 72 -12q32 0 52 13t20 39q0 25 -37.5 80t-82.5 111t-82.5 127t-37.5 124zM78 357q0 -33 37 -102.5t69 -117t61 -85.5q7 -10 10 -10t14 10q33 31 33 50q0 21 -11 51t-25 56.5t-37.5 63 t-37.5 56l-36.5 50.5t-23.5 32t-3 4t-2.5 3.5t-2.5 0.5t-4 -1.5l-6 -4.5q-35 -27 -35 -56z" />
<glyph unicode="&#xa8;" horiz-adv-x="400" d="M69 533q0 25 19.5 40t40.5 15q18 0 30 -10t12 -30q0 -24 -19 -40t-42 -16q-17 0 -29 10.5t-12 30.5zM229 533q0 25 19.5 40t40.5 15q18 0 30 -10t12 -30q0 -24 -19 -40t-42 -16q-17 0 -29 10.5t-12 30.5z" />
<glyph unicode="&#xa9;" horiz-adv-x="843" d="M54 189q0 156 105.5 264t260.5 108t260.5 -107.5t105.5 -264.5q0 -156 -105.5 -264t-260.5 -108t-260.5 108t-105.5 264zM88 189q0 -142 96 -241t236 -99t236 99t96 241t-96 241t-236 99t-236 -99t-96 -241zM196 201q0 99 65 159.5t164 60.5q14 0 27 -1.5t23.5 -4 t21 -6.5t18 -7.5t15.5 -8t11.5 -7.5t9 -7t6.5 -4q10 -2 11 2v17q0 9 15 9q8 0 10 -1.5t2 -7.5q0 -3 -1 -53.5t-1 -69.5q0 -10 -10 -10q-18 0 -18 7q0 1 1.5 27t1.5 29q0 6 -18 23.5t-55 35.5t-75 18q-69 0 -114 -57.5t-45 -144.5q0 -81 52 -138.5t126 -57.5q27 0 51 5 t39.5 12.5t26.5 15t17 12.5t7 5t6.5 -9t5.5 -10q0 -5 -18 -18.5t-60 -28t-93 -14.5q-95 0 -160 59t-65 169z" />
<glyph unicode="&#xaa;" horiz-adv-x="352" d="M35 407q0 49 55 78.5t132 42.5q6 1 6 12q0 27 -1.5 41.5t-7.5 32.5t-21 26.5t-39 8.5q-13 0 -24 -4q-16 -6 -20.5 -16.5t-5.5 -35.5q0 -13 -6 -17q-33 -21 -47 -21q-8 0 -8 12q0 46 41.5 75.5t87.5 29.5q60 0 85 -26.5t25 -77.5q0 -23 -2.5 -90t-2.5 -73q0 -24 18 -24 q2 0 16 9.5t15 9.5q2 0 6 -4.5t4 -8.5t-54 -43q-13 -9 -22 -9q-13 0 -21 12.5t-10 24.5l-3 13q-1 0 -3.5 -2t-6.5 -4.5l-7 -4.5q-56 -36 -96 -36q-39 0 -61 18.5t-22 50.5zM98 431q0 -21 14.5 -37.5t38.5 -16.5q16 0 35 4.5t30.5 10t11.5 7.5v104q0 9 -4 9q-11 0 -50 -12 q-76 -24 -76 -69z" />
<glyph unicode="&#xab;" horiz-adv-x="408" d="M50 193q0 4 55 55l36 34.5l31 30.5l12 11q2 0 8 -5.5t6 -6.5q0 -4 -31 -58t-31 -61t31 -61t31 -58q0 -1 -6 -6.5t-8 -5.5l-12 11l-31 30.5l-36 34.5q-55 51 -55 55zM200 193q0 4 55 55l36 34.5l31 30.5l12 11q2 0 8 -5.5t6 -6.5q0 -4 -31 -58t-31 -61t31 -61t31 -58 q0 -1 -6 -6.5t-8 -5.5l-12 11l-31 30.5l-36 34.5q-55 51 -55 55z" />
<glyph unicode="&#xac;" horiz-adv-x="527" d="M31 215q0 17 19 17h427q13 0 16.5 -3t3.5 -16v-158q0 -15 -16 -15q-12 0 -16.5 0.5t-8.5 5t-4 14.5v111q0 17 -26 17h-376q-13 0 -16 5.5t-3 21.5z" />
<glyph unicode="&#xad;" horiz-adv-x="258" d="M25 201q0 12 6 25.5t12 14.5t91.5 4t91.5 3q2 0 2 -9q0 -33 -8 -33q-104 -8 -191 -8q-4 0 -4 3z" />
<glyph unicode="&#xae;" horiz-adv-x="536" d="M25 470q0 104 70 175.5t173 71.5t173 -71.5t70 -175.5t-70 -175.5t-173 -71.5t-173 71.5t-70 175.5zM50 470q0 -94 63 -159t155 -65t155 65t63 159t-63 159t-155 65t-155 -65t-63 -159zM142 628q0 9 11 9q3 0 23.5 -0.5t27.5 -0.5t34.5 1.5t32.5 1.5q101 0 101 -80 q0 -49 -64 -78q77 -23 80 -107q1 -28 4 -28h20q8 0 8 -12q0 -6 -10 -6l-60 1q-7 0 -7 7v27q0 31 -3 50t-18 36.5t-43 20.5q-15 2 -52 2q-5 0 -5 -3q0 -99 4 -123h27q7 0 7 -7q0 -11 -7 -11q-5 0 -24 0.5t-26 0.5t-25 -0.5t-19 -0.5q-9 0 -9 11q0 7 11 7h19q2 16 2 58v60 q0 141 -5 155l-24 -1q-11 0 -11 10zM222 489q0 -2 5 -2q12 0 33.5 -0.5t29.5 -0.5q39 19 39 67q0 32 -24.5 51t-57.5 19q-4 0 -11.5 -0.5t-11.5 -0.5q-2 -8 -2 -23v-110z" />
<glyph unicode="&#xaf;" horiz-adv-x="400" d="M98 518v23q0 6 1.5 7t7.5 1h187q6 0 7 -1t1 -6v-25q0 -6 -1 -7t-7 -1h-187q-7 0 -8 1t-1 8z" />
<glyph unicode="&#xb0;" horiz-adv-x="256" d="M40 535q0 36 26 62t62 26t62 -26t26 -62t-26 -62t-62 -26t-62 26t-26 62zM71 535q0 -24 16.5 -40.5t40.5 -16.5t40.5 16.5t16.5 40.5t-16.5 40.5t-40.5 16.5t-40.5 -16.5t-16.5 -40.5z" />
<glyph unicode="&#xb1;" horiz-adv-x="527" d="M31 90q0 11 0.5 15.5t4.5 8t13 3.5h429q11 0 14.5 -4t3.5 -16q0 -13 -3.5 -18.5t-17.5 -5.5h-427q-9 0 -13 3t-4 14zM31 324q0 22 18 22h181q11 0 11 10v9v130q0 15 16 15q18 0 23 -3t5 -14v-128v-8q0 -11 12 -11h183q16 0 16 -15q0 -12 -1 -17t-5.5 -9t-14.5 -4h-178 q-12 0 -12 -17v-132q0 -14 -16 -14q-17 0 -22.5 2.5t-5.5 11.5v132q0 10 -2.5 13.5t-13.5 3.5h-177q-12 0 -14.5 5t-2.5 18z" />
<glyph unicode="&#xb2;" horiz-adv-x="360" d="M40 671q0 7 16.5 28t49 41.5t67.5 20.5q57 0 86.5 -37.5t29.5 -79.5q0 -102 -160 -219q-18 -14 -24 -25h185q3 10 7 52q0 6 10 5q11 0 11 -5q0 -2 -2.5 -20l-6 -41.5t-4.5 -34.5q-1 -6 -12 -6h-230q-13 0 -13 9q0 5 20 36.5t24 34.5q1 1 16.5 14t21.5 18.5l22 21t24.5 26 t20.5 27.5t18.5 31t11.5 32.5t5 35.5q0 33 -19.5 58t-54.5 25q-29 0 -53.5 -15.5t-38.5 -30.5t-15 -15q-4 0 -8.5 4.5t-4.5 8.5z" />
<glyph unicode="&#xb3;" horiz-adv-x="360" d="M65 368q0 29 32 29q11 0 29 -7q5 -2 24.5 -13t29.5 -11q32 0 56 26t24 64q0 79 -74 79q-12 0 -41.5 -2t-31.5 -2q-13 0 -13 21q0 10 17 13q63 13 87.5 33t24.5 64q0 32 -17.5 49t-45.5 17q-23 0 -42 -8t-29 -16.5t-13 -8.5q-4 0 -8.5 4.5t-4.5 8.5q0 6 13.5 18t39.5 23.5 t53 11.5q48 0 79.5 -25.5t31.5 -63.5q0 -22 -9 -39t-26.5 -29.5t-32.5 -20t-38 -16.5q58 0 96.5 -25.5t38.5 -71.5q0 -55 -47 -91.5t-103 -36.5q-34 0 -67 6.5t-33 19.5z" />
<glyph unicode="&#xb4;" horiz-adv-x="400" d="M185 451q0 2 2 6l49 130q9 25 30 25q17 0 26.5 -8.5t9.5 -21.5q0 -10 -7 -20l-82 -107q-5 -6 -8 -6h-16q-4 0 -4 2z" />
<glyph unicode="&#xb5;" horiz-adv-x="509" d="M25 -136q0 41 8.5 85t26 106t25.5 100q23 101 36 150.5t18 60t11 10.5q39 0 39 -17q0 -7 -9.5 -40.5t-22.5 -87.5t-19 -103q-3 -36 -3 -43q0 -47 29 -47q32 0 74 53.5t73 114t56 123.5q19 48 23 48q13 0 26.5 -4.5t13.5 -10.5q0 -2 -25 -133.5t-25 -158.5 q0 -11 7.5 -18.5t17.5 -7.5q16 0 28 17t20 33.5t13 16.5q8 0 8 -13q0 -32 -37 -73.5t-83 -41.5q-34 0 -34 64q0 24 8 79.5t8 57.5q0 8 -4 8l-8 -12q-7 -13 -21.5 -36l-27.5 -42q-1 -1 -13 -19.5t-16 -23.5l-16 -20.5t-20.5 -22l-21 -15.5t-25.5 -12.5t-27 -3.5 q-17 0 -28.5 17.5t-16 34.5t-5.5 17q-4 0 -12.5 -54t-8.5 -79q0 -19 12 -47.5t12 -29.5q0 -3 -2 -9t-9.5 -12t-18.5 -6q-14 0 -24 12t-10 35z" />
<glyph unicode="&#xb6;" horiz-adv-x="492" d="M40 417q0 48 16 87.5t41 64.5t56.5 42.5t61.5 25t58 7.5q8 0 10 -3t2 -11v-468q0 -8 -5 -8q-23 0 -52 8t-62.5 28.5t-61 49t-46 75t-18.5 102.5zM280 -205q0 8 10 8h58q7 0 9 1.5t2 6.5v831q0 8 2.5 10t8.5 2h70q8 0 10 -2t2 -9v-14q0 -6 -2 -7.5t-10 -1.5h-46 q-5 0 -6.5 -1.5t-1.5 -8.5v-832q0 -6 -2 -7.5t-12 -1.5h-82q-10 0 -10 8v18z" />
<glyph unicode="&#xb7;" horiz-adv-x="147" d="M25 333q0 25 19.5 40t40.5 15q18 0 30 -10t12 -30q0 -24 -19 -40t-42 -16q-17 0 -29 10.5t-12 30.5z" />
<glyph unicode="&#xb8;" horiz-adv-x="400" d="M117 -200q0 11 8 11l9 -3q8 -4 22 -8t29 -4q34 0 50 13.5t16 42.5q0 45 -55 45q-8 0 -16.5 -2.5t-14 -4.5t-6.5 -2q-8 0 -8 5t41 107h17l-24 -65q-2 -9 0 -9l5 2l14.5 2.5t16.5 1.5q40 0 62.5 -21t22.5 -47q0 -35 -29.5 -63.5t-76.5 -28.5q-23 0 -43.5 6.5t-30 12.5 t-9.5 9z" />
<glyph unicode="&#xb9;" horiz-adv-x="360" d="M95 364q0 7 2.5 8.5t11.5 1.5h60q1 9 1 50v75q0 181 -2 217q-1 8 -5 8q-1 0 -29.5 -1.5t-30.5 -1.5q-8 0 -8 6v12q0 6 11 6q28 1 49.5 3l33 3t18.5 2.5t10 2t4 0.5q7 0 7 -14q0 -65 -0.5 -176.5t-0.5 -169.5q0 -21 1 -22h44q7 0 7 -10q0 -16 -8 -16q-1 0 -23.5 1t-47.5 1 q-27 0 -58 -1t-36 -1q-7 0 -9 3t-2 13z" />
<glyph unicode="&#xba;" horiz-adv-x="384" d="M30 497q0 73 48 122.5t124 49.5q67 0 109.5 -46.5t42.5 -114.5q0 -76 -44 -123.5t-121 -47.5q-67 0 -113 47t-46 113zM94 486q0 -49 25.5 -87.5t69.5 -38.5q99 0 99 154q0 52 -24.5 92t-71.5 40q-98 0 -98 -160z" />
<glyph unicode="&#xbb;" horiz-adv-x="408" d="M60 74q0 4 31 58t31 61t-31 61t-31 58q0 1 6 6.5t8 5.5l12 -11l31 -30.5l36 -34.5q55 -51 55 -55t-55 -55l-36 -34.5l-31 -30.5l-12 -11q-2 0 -8 5.5t-6 6.5zM210 74q0 4 31 58t31 61t-31 61t-31 58q0 1 6 6.5t8 5.5l12 -11l31 -30.5l36 -34.5q55 -51 55 -55t-55 -55 l-36 -34.5l-31 -30.5l-12 -11q-2 0 -8 5.5t-6 6.5z" />
<glyph unicode="&#xbc;" horiz-adv-x="774" d="M449 138q0 20 11 39q44 77 149 190q7 8 27 22q6 5 13 12.5t10.5 10t7.5 2.5q13 0 13 -22v-212q0 -5 1 -6t6 -1h51q7 0 7 -10v-22q0 -10 -12 -10h-46q-6 0 -6 -6v-123q0 -8 -6 -8l-43 -4q-6 0 -6 8l3 125q0 8 -10 8h-153q-17 0 -17 7zM487 173h131q7 0 9 1.5t2 6.5v173 q-19 -19 -73 -86t-69 -95zM200 -8q0 1 4 9l408 657q7 10 23 10q17 0 17 -6q0 -2 -1 -4l-410 -659q-3 -5 -4 -6t-3.5 -3t-6 -2.5t-9.5 -0.5q-18 0 -18 5zM95 264q0 7 2.5 8.5t11.5 1.5h60q1 9 1 50v75q0 181 -2 217q-1 8 -5 8q-1 0 -29.5 -1.5t-30.5 -1.5q-8 0 -8 6v12 q0 6 11 6q28 1 49.5 3l33 3t18.5 2.5t10 2t4 0.5q7 0 7 -14q0 -65 -0.5 -176.5t-0.5 -169.5q0 -21 1 -22h44q7 0 7 -10q0 -16 -8 -16q-1 0 -23.5 1t-47.5 1q-27 0 -58 -1t-36 -1q-7 0 -9 3t-2 13z" />
<glyph unicode="&#xbd;" horiz-adv-x="844" d="M524 321q0 7 16.5 28t49 41.5t67.5 20.5q57 0 86.5 -37.5t29.5 -79.5q0 -102 -160 -219q-18 -14 -24 -25h185q3 10 7 52q0 6 10 5q11 0 11 -5q0 -2 -2.5 -20l-6 -41.5t-4.5 -34.5q-1 -6 -12 -6h-230q-13 0 -13 9q0 5 20 36.5t24 34.5q1 1 16.5 14t21.5 18.5l22 21 t24.5 26t20.5 27.5t18.5 31t11.5 32.5t5 35.5q0 33 -19.5 58t-54.5 25q-29 0 -53.5 -15.5t-38.5 -30.5t-15 -15q-4 0 -8.5 4.5t-4.5 8.5zM200 -8q0 1 4 9l408 657q7 10 23 10q17 0 17 -6q0 -2 -1 -4l-410 -659q-3 -5 -4 -6t-3.5 -3t-6 -2.5t-9.5 -0.5q-18 0 -18 5zM95 264 q0 7 2.5 8.5t11.5 1.5h60q1 9 1 50v75q0 181 -2 217q-1 8 -5 8q-1 0 -29.5 -1.5t-30.5 -1.5q-8 0 -8 6v12q0 6 11 6q28 1 49.5 3l33 3t18.5 2.5t10 2t4 0.5q7 0 7 -14q0 -65 -0.5 -176.5t-0.5 -169.5q0 -21 1 -22h44q7 0 7 -10q0 -16 -8 -16q-1 0 -23.5 1t-47.5 1 q-27 0 -58 -1t-36 -1q-7 0 -9 3t-2 13z" />
<glyph unicode="&#xbe;" horiz-adv-x="774" d="M449 138q0 20 11 39q44 77 149 190q7 8 27 22q6 5 13 12.5t10.5 10t7.5 2.5q13 0 13 -22v-212q0 -5 1 -6t6 -1h51q7 0 7 -10v-22q0 -10 -12 -10h-46q-6 0 -6 -6v-123q0 -8 -6 -8l-43 -4q-6 0 -6 8l3 125q0 8 -10 8h-153q-17 0 -17 7zM487 173h131q7 0 9 1.5t2 6.5v173 q-19 -19 -73 -86t-69 -95zM200 -8q0 1 4 9l408 657q7 10 23 10q17 0 17 -6q0 -2 -1 -4l-410 -659q-3 -5 -4 -6t-3.5 -3t-6 -2.5t-9.5 -0.5q-18 0 -18 5zM65 268q0 29 32 29q11 0 29 -7q5 -2 24.5 -13t29.5 -11q32 0 56 26t24 64q0 79 -74 79q-12 0 -41.5 -2t-31.5 -2 q-13 0 -13 21q0 10 17 13q63 13 87.5 33t24.5 64q0 32 -17.5 49t-45.5 17q-23 0 -42 -8t-29 -16.5t-13 -8.5q-4 0 -8.5 4.5t-4.5 8.5q0 6 13.5 18t39.5 23.5t53 11.5q48 0 79.5 -25.5t31.5 -63.5q0 -22 -9 -39t-26.5 -29.5t-32.5 -20t-38 -16.5q58 0 96.5 -25.5t38.5 -71.5 q0 -55 -47 -91.5t-103 -36.5q-34 0 -67 6.5t-33 19.5z" />
<glyph unicode="&#xbf;" horiz-adv-x="364" d="M30 240q0 79 29 126t106 48q15 0 20 4t6 13q1 16 4 45t4 45q0 9 12 9q10 0 13 -4.5t3 -17.5q0 -119 -2 -147q-1 -12 -7 -15t-21 -3h-57q-87 0 -87 -88q0 -72 57.5 -122t170.5 -64q2 0 5.5 -0.5t5 -1t4 -1t3.5 -1.5l2.5 -2.5t2 -3.5t0.5 -5v-45q0 -17 -9 -17q-6 0 -10 12 t-9 13q-24 4 -37.5 6.5t-42.5 10.5t-48 17.5t-43.5 27t-39 39t-25 53t-10.5 69.5zM167 609q0 21 16 39.5t26 18.5q20 0 39.5 -17t19.5 -29q0 -16 -16 -37.5t-28 -21.5q-16 0 -36.5 15t-20.5 32z" />
<glyph unicode="&#xc0;" horiz-adv-x="698" d="M262 822q0 25 30 25q18 0 34 -25l53 -85q2 -4 2 -6t-4 -2h-21l-8 6l-72 60q-14 11 -14 27zM30 15q0 9 3 10.5t15 1.5h28q3 0 17.5 30.5t34.5 77.5l39 92l35.5 84.5l19.5 46.5l106 246q4 9 17 25.5t19 30.5q12 27 19 27t9 -7l120 -337l19 -53l21.5 -60.5l21 -58.5 l21 -56.5t17.5 -44t15 -32.5t8 -11h32q8 0 9.5 -2t1.5 -11q0 -11 -2 -14t-9 -3q-6 0 -39.5 1.5t-50.5 1.5q-16 0 -58 -1.5t-53 -1.5q-10 0 -12 2.5t-2 15.5q0 9 3 10.5t15 1.5h54q1 0 1 3q0 30 -70 226q-6 17 -10 18q-3 1 -10 1h-201q-5 0 -8 -0.5t-5 -1t-4 -3t-2 -3t-2 -5 t-2 -5.5q-81 -206 -81 -227q0 -3 1 -3h78q8 0 9.5 -2t1.5 -11q0 -11 -2 -14t-9 -3q-11 0 -43.5 1.5t-48.5 1.5t-39 -1.5t-34 -1.5q-10 0 -12 2.5t-2 15.5zM231 305q0 -6 16 -6h179q13 0 13 5q0 1 -4 13l-83 243q-6 19 -8 19t-10 -19l-98 -240q-5 -12 -5 -15z" />
<glyph unicode="&#xc1;" horiz-adv-x="698" d="M361 731q0 2 2 6l53 85q16 25 34 25q30 0 30 -25q0 -16 -14 -27l-72 -60l-8 -6h-21q-4 0 -4 2zM30 15q0 9 3 10.5t15 1.5h28q3 0 17.5 30.5t34.5 77.5l39 92l35.5 84.5l19.5 46.5l106 246q4 9 17 25.5t19 30.5q12 27 19 27t9 -7l120 -337l19 -53l21.5 -60.5l21 -58.5 l21 -56.5t17.5 -44t15 -32.5t8 -11h32q8 0 9.5 -2t1.5 -11q0 -11 -2 -14t-9 -3q-6 0 -39.5 1.5t-50.5 1.5q-16 0 -58 -1.5t-53 -1.5q-10 0 -12 2.5t-2 15.5q0 9 3 10.5t15 1.5h54q1 0 1 3q0 30 -70 226q-6 17 -10 18q-3 1 -10 1h-201q-5 0 -8 -0.5t-5 -1t-4 -3t-2 -3t-2 -5 t-2 -5.5q-81 -206 -81 -227q0 -3 1 -3h78q8 0 9.5 -2t1.5 -11q0 -11 -2 -14t-9 -3q-11 0 -43.5 1.5t-48.5 1.5t-39 -1.5t-34 -1.5q-10 0 -12 2.5t-2 15.5zM231 305q0 -6 16 -6h179q13 0 13 5q0 1 -4 13l-83 243q-6 19 -8 19t-10 -19l-98 -240q-5 -12 -5 -15z" />
<glyph unicode="&#xc2;" horiz-adv-x="698" d="M260 731l4 6l79 89q12 13 16 13h24q4 0 16 -13l79 -89q4 -4 4 -6t-6 -2h-9q-1 0 -11 6l-81 45q-4 2 -8 0l-81 -45q-10 -6 -11 -6h-9q-6 0 -6 2zM30 15q0 9 3 10.5t15 1.5h28q3 0 17.5 30.5t34.5 77.5l39 92l35.5 84.5l19.5 46.5l106 246q4 9 17 25.5t19 30.5q12 27 19 27 t9 -7l120 -337l19 -53l21.5 -60.5l21 -58.5l21 -56.5t17.5 -44t15 -32.5t8 -11h32q8 0 9.5 -2t1.5 -11q0 -11 -2 -14t-9 -3q-6 0 -39.5 1.5t-50.5 1.5q-16 0 -58 -1.5t-53 -1.5q-10 0 -12 2.5t-2 15.5q0 9 3 10.5t15 1.5h54q1 0 1 3q0 30 -70 226q-6 17 -10 18q-3 1 -10 1 h-201q-5 0 -8 -0.5t-5 -1t-4 -3t-2 -3t-2 -5t-2 -5.5q-81 -206 -81 -227q0 -3 1 -3h78q8 0 9.5 -2t1.5 -11q0 -11 -2 -14t-9 -3q-11 0 -43.5 1.5t-48.5 1.5t-39 -1.5t-34 -1.5q-10 0 -12 2.5t-2 15.5zM231 305q0 -6 16 -6h179q13 0 13 5q0 1 -4 13l-83 243q-6 19 -8 19 t-10 -19l-98 -240q-5 -12 -5 -15z" />
<glyph unicode="&#xc3;" horiz-adv-x="698" d="M266 748q0 7 8 26q11 27 27 41t29 14q16 0 46 -19t42 -19q22 0 36 35q2 7 12 7q7 0 7 -2q0 -8 -7 -27q-22 -58 -60 -58q-18 0 -45 18.5t-43 18.5q-23 0 -34 -31q-2 -6 -11 -6q-7 0 -7 2zM30 15q0 9 3 10.5t15 1.5h28q3 0 17.5 30.5t34.5 77.5l39 92l35.5 84.5l19.5 46.5 l106 246q4 9 17 25.5t19 30.5q12 27 19 27t9 -7l120 -337l19 -53l21.5 -60.5l21 -58.5l21 -56.5t17.5 -44t15 -32.5t8 -11h32q8 0 9.5 -2t1.5 -11q0 -11 -2 -14t-9 -3q-6 0 -39.5 1.5t-50.5 1.5q-16 0 -58 -1.5t-53 -1.5q-10 0 -12 2.5t-2 15.5q0 9 3 10.5t15 1.5h54 q1 0 1 3q0 30 -70 226q-6 17 -10 18q-3 1 -10 1h-201q-5 0 -8 -0.5t-5 -1t-4 -3t-2 -3t-2 -5t-2 -5.5q-81 -206 -81 -227q0 -3 1 -3h78q8 0 9.5 -2t1.5 -11q0 -11 -2 -14t-9 -3q-11 0 -43.5 1.5t-48.5 1.5t-39 -1.5t-34 -1.5q-10 0 -12 2.5t-2 15.5zM231 305q0 -6 16 -6h179 q13 0 13 5q0 1 -4 13l-83 243q-6 19 -8 19t-10 -19l-98 -240q-5 -12 -5 -15z" />
<glyph unicode="&#xc4;" horiz-adv-x="698" d="M240 783q0 25 19.5 40t40.5 15q18 0 30 -10t12 -30q0 -24 -19 -40t-42 -16q-17 0 -29 10.5t-12 30.5zM400 783q0 25 19.5 40t40.5 15q18 0 30 -10t12 -30q0 -24 -19 -40t-42 -16q-17 0 -29 10.5t-12 30.5zM30 15q0 9 3 10.5t15 1.5h28q3 0 17.5 30.5t34.5 77.5l39 92 l35.5 84.5l19.5 46.5l106 246q4 9 17 25.5t19 30.5q12 27 19 27t9 -7l120 -337l19 -53l21.5 -60.5l21 -58.5l21 -56.5t17.5 -44t15 -32.5t8 -11h32q8 0 9.5 -2t1.5 -11q0 -11 -2 -14t-9 -3q-6 0 -39.5 1.5t-50.5 1.5q-16 0 -58 -1.5t-53 -1.5q-10 0 -12 2.5t-2 15.5 q0 9 3 10.5t15 1.5h54q1 0 1 3q0 30 -70 226q-6 17 -10 18q-3 1 -10 1h-201q-5 0 -8 -0.5t-5 -1t-4 -3t-2 -3t-2 -5t-2 -5.5q-81 -206 -81 -227q0 -3 1 -3h78q8 0 9.5 -2t1.5 -11q0 -11 -2 -14t-9 -3q-11 0 -43.5 1.5t-48.5 1.5t-39 -1.5t-34 -1.5q-10 0 -12 2.5t-2 15.5z M231 305q0 -6 16 -6h179q13 0 13 5q0 1 -4 13l-83 243q-6 19 -8 19t-10 -19l-98 -240q-5 -12 -5 -15z" />
<glyph unicode="&#xc5;" horiz-adv-x="698" d="M300 785q0 29 21 50t50 21t50 -21t21 -50t-21 -50t-50 -21t-50 21t-21 50zM328 785q0 -18 12.5 -30.5t30.5 -12.5t30.5 12.5t12.5 30.5t-12.5 30.5t-30.5 12.5t-30.5 -12.5t-12.5 -30.5zM30 15q0 9 3 10.5t15 1.5h28q3 0 17.5 30.5t34.5 77.5l39 92l35.5 84.5l19.5 46.5 l106 246q4 9 17 25.5t19 30.5q12 27 19 27t9 -7l120 -337l19 -53l21.5 -60.5l21 -58.5l21 -56.5t17.5 -44t15 -32.5t8 -11h32q8 0 9.5 -2t1.5 -11q0 -11 -2 -14t-9 -3q-6 0 -39.5 1.5t-50.5 1.5q-16 0 -58 -1.5t-53 -1.5q-10 0 -12 2.5t-2 15.5q0 9 3 10.5t15 1.5h54 q1 0 1 3q0 30 -70 226q-6 17 -10 18q-3 1 -10 1h-201q-5 0 -8 -0.5t-5 -1t-4 -3t-2 -3t-2 -5t-2 -5.5q-81 -206 -81 -227q0 -3 1 -3h78q8 0 9.5 -2t1.5 -11q0 -11 -2 -14t-9 -3q-11 0 -43.5 1.5t-48.5 1.5t-39 -1.5t-34 -1.5q-10 0 -12 2.5t-2 15.5zM231 305q0 -6 16 -6h179 q13 0 13 5q0 1 -4 13l-83 243q-6 19 -8 19t-10 -19l-98 -240q-5 -12 -5 -15z" />
<glyph unicode="&#xc6;" horiz-adv-x="973" d="M20 15q0 9 3 10.5t15 1.5h28q4 0 13 11.5t24.5 36l30.5 50.5l40 67.5l45 73.5l221 360q5 8 4 9t-13 1h-45q-7 0 -9.5 3t-2.5 12q0 14 12 14l18 -1q18 0 53 -1t78 -1q28 0 128.5 1.5t120.5 1.5q47 0 56.5 1.5t10.5 10.5v1q1 12 13 12q11 0 14 -2t3 -9q0 -2 -2 -43t-2 -87 q0 -6 -3 -8t-13 -2q-15 0 -15 14q0 2 1.5 38.5t1.5 39.5q0 7 -272 7q-7 0 -7 -128q0 -42 2 -142q0 -10 1.5 -13t10.5 -3h167q55 0 55 16v50q0 9 17 9q14 0 14 -8q0 -1 -1 -29t-1 -49t1 -50t1 -33q0 -8 -13 -8q-18 0 -18 9v46q0 7 -2 10t-15 6.5t-38 3.5h-163q-12 0 -14 -2 t-2 -13q6 -276 12 -276q27 0 68 0.5l79.5 1t73.5 0.5t57 0.5t23 0.5q12 0 15 3t4 20q1 14 3 87q0 8 14 8q17 0 17 -9q0 -28 -1.5 -77t-1.5 -61q0 -11 -22 -11q-11 0 -182.5 1.5t-187.5 1.5t-63.5 -1.5t-58.5 -1.5q-10 0 -11.5 2.5t-1.5 15.5q0 9 2.5 10.5t14.5 1.5h61 q7 0 7 75v158q0 7 -4.5 10.5t-9.5 4t-16 0.5h-201q-4 0 -64 -105t-75 -137l-2 -6h7h64q8 0 9.5 -2t1.5 -11q0 -11 -2 -14t-9 -3q-11 0 -41 1.5t-46 1.5t-38 -1.5t-33 -1.5q-10 0 -12 2.5t-2 15.5zM279 306q0 -7 16 -7h169q20 0 24.5 3.5t4.5 16.5v92q0 225 -14 225h-1 q-5 0 -11 -10l-182 -306q-6 -12 -6 -14z" />
<glyph unicode="&#xc7;" horiz-adv-x="731" d="M45 335q0 154 101.5 249.5t255.5 95.5q19 0 37.5 -2t34.5 -5.5t29.5 -8t27 -10.5l23 -10.5t19.5 -11l15 -10l12.5 -8.5t8.5 -6q5 -4 6.5 -5t5 -2t4.5 1.5t1 8.5v27q0 9 2 11t13 2q12 0 16 -2t4 -11q0 -5 -2 -84t-2 -109q0 -9 -3 -12.5t-13 -3.5q-13 0 -16 2.5t-3 9.5 q0 1 2 43t2 47t-11 18t-32.5 30t-48.5 33t-64.5 27t-74.5 11q-108 0 -178 -90t-70 -227q0 -127 81 -218.5t196 -91.5q51 0 99 15t71.5 30.5t24.5 22.5l13 113q1 10 5.5 13t16.5 1q12 -1 12 -13q0 -13 -16 -133q-1 -10 -36 -30.5t-96 -39t-119 -18.5l-18 -49q-2 -9 0 -9l5 2 l14.5 2.5t16.5 1.5q40 0 62.5 -21t22.5 -47q0 -35 -29.5 -63.5t-76.5 -28.5q-23 0 -43.5 6.5t-30 12.5t-9.5 9q0 11 8 11l9 -3q8 -4 22 -8t29 -4q34 0 50 13.5t16 42.5q0 45 -55 45q-8 0 -16.5 -2.5t-14 -4.5t-6.5 -2q-8 0 -8 5q0 2 35 91q-68 2 -128 24.5t-107 64.5 t-74.5 109.5t-27.5 152.5z" />
<glyph unicode="&#xc8;" horiz-adv-x="605" d="M207 822q0 25 30 25q18 0 34 -25l53 -85q2 -4 2 -6t-4 -2h-21l-8 6l-72 60q-14 11 -14 27zM40 15q0 9 2.5 10.5t14.5 1.5h61q7 0 7 75v96q0 31 -0.5 72t-1 78t-1 69.5t-1 53t-0.5 21.5q0 144 -11 144h-43q-7 0 -10.5 0.5t-6 4t-2.5 10.5q0 14 12 14l43 -1q43 -2 64 -2 q28 0 128.5 1.5t120.5 1.5q47 0 56.5 1.5t10.5 10.5v1q1 12 13 12q11 0 14 -2t3 -9q0 -2 -2 -43t-2 -87q0 -6 -3 -8t-13 -2q-15 0 -15 14q0 2 1.5 38.5t1.5 39.5q0 7 -272 7q-7 0 -7 -128q0 -42 2 -142q0 -10 1.5 -13t10.5 -3h167q55 0 55 16v50q0 9 17 9q14 0 14 -8 q0 -1 -1 -29t-1 -49t1 -50t1 -33q0 -8 -13 -8q-18 0 -18 9v46q0 7 -2 10t-15 6.5t-38 3.5h-163q-12 0 -14 -2t-2 -13q6 -276 12 -276q27 0 68 0.5l79.5 1t73.5 0.5t57 0.5t23 0.5q12 0 15 3t4 20q1 14 3 87q0 8 14 8q17 0 17 -9q0 -28 -1.5 -77t-1.5 -61q0 -11 -22 -11 q-11 0 -182.5 1.5t-187.5 1.5t-63.5 -1.5t-58.5 -1.5q-10 0 -11.5 2.5t-1.5 15.5z" />
<glyph unicode="&#xc9;" horiz-adv-x="605" d="M306 731q0 2 2 6l53 85q16 25 34 25q30 0 30 -25q0 -16 -14 -27l-72 -60l-8 -6h-21q-4 0 -4 2zM40 15q0 9 2.5 10.5t14.5 1.5h61q7 0 7 75v96q0 31 -0.5 72t-1 78t-1 69.5t-1 53t-0.5 21.5q0 144 -11 144h-43q-7 0 -10.5 0.5t-6 4t-2.5 10.5q0 14 12 14l43 -1 q43 -2 64 -2q28 0 128.5 1.5t120.5 1.5q47 0 56.5 1.5t10.5 10.5v1q1 12 13 12q11 0 14 -2t3 -9q0 -2 -2 -43t-2 -87q0 -6 -3 -8t-13 -2q-15 0 -15 14q0 2 1.5 38.5t1.5 39.5q0 7 -272 7q-7 0 -7 -128q0 -42 2 -142q0 -10 1.5 -13t10.5 -3h167q55 0 55 16v50q0 9 17 9 q14 0 14 -8q0 -1 -1 -29t-1 -49t1 -50t1 -33q0 -8 -13 -8q-18 0 -18 9v46q0 7 -2 10t-15 6.5t-38 3.5h-163q-12 0 -14 -2t-2 -13q6 -276 12 -276q27 0 68 0.5l79.5 1t73.5 0.5t57 0.5t23 0.5q12 0 15 3t4 20q1 14 3 87q0 8 14 8q17 0 17 -9q0 -28 -1.5 -77t-1.5 -61 q0 -11 -22 -11q-11 0 -182.5 1.5t-187.5 1.5t-63.5 -1.5t-58.5 -1.5q-10 0 -11.5 2.5t-1.5 15.5z" />
<glyph unicode="&#xca;" horiz-adv-x="605" d="M205 731l4 6l79 89q12 13 16 13h24q4 0 16 -13l79 -89q4 -4 4 -6t-6 -2h-9q-1 0 -11 6l-81 45q-4 2 -8 0l-81 -45q-10 -6 -11 -6h-9q-6 0 -6 2zM40 15q0 9 2.5 10.5t14.5 1.5h61q7 0 7 75v96q0 31 -0.5 72t-1 78t-1 69.5t-1 53t-0.5 21.5q0 144 -11 144h-43 q-7 0 -10.5 0.5t-6 4t-2.5 10.5q0 14 12 14l43 -1q43 -2 64 -2q28 0 128.5 1.5t120.5 1.5q47 0 56.5 1.5t10.5 10.5v1q1 12 13 12q11 0 14 -2t3 -9q0 -2 -2 -43t-2 -87q0 -6 -3 -8t-13 -2q-15 0 -15 14q0 2 1.5 38.5t1.5 39.5q0 7 -272 7q-7 0 -7 -128q0 -42 2 -142 q0 -10 1.5 -13t10.5 -3h167q55 0 55 16v50q0 9 17 9q14 0 14 -8q0 -1 -1 -29t-1 -49t1 -50t1 -33q0 -8 -13 -8q-18 0 -18 9v46q0 7 -2 10t-15 6.5t-38 3.5h-163q-12 0 -14 -2t-2 -13q6 -276 12 -276q27 0 68 0.5l79.5 1t73.5 0.5t57 0.5t23 0.5q12 0 15 3t4 20q1 14 3 87 q0 8 14 8q17 0 17 -9q0 -28 -1.5 -77t-1.5 -61q0 -11 -22 -11q-11 0 -182.5 1.5t-187.5 1.5t-63.5 -1.5t-58.5 -1.5q-10 0 -11.5 2.5t-1.5 15.5z" />
<glyph unicode="&#xcb;" horiz-adv-x="605" d="M185 783q0 25 19.5 40t40.5 15q18 0 30 -10t12 -30q0 -24 -19 -40t-42 -16q-17 0 -29 10.5t-12 30.5zM345 783q0 25 19.5 40t40.5 15q18 0 30 -10t12 -30q0 -24 -19 -40t-42 -16q-17 0 -29 10.5t-12 30.5zM40 15q0 9 2.5 10.5t14.5 1.5h61q7 0 7 75v96q0 31 -0.5 72 t-1 78t-1 69.5t-1 53t-0.5 21.5q0 144 -11 144h-43q-7 0 -10.5 0.5t-6 4t-2.5 10.5q0 14 12 14l43 -1q43 -2 64 -2q28 0 128.5 1.5t120.5 1.5q47 0 56.5 1.5t10.5 10.5v1q1 12 13 12q11 0 14 -2t3 -9q0 -2 -2 -43t-2 -87q0 -6 -3 -8t-13 -2q-15 0 -15 14q0 2 1.5 38.5 t1.5 39.5q0 7 -272 7q-7 0 -7 -128q0 -42 2 -142q0 -10 1.5 -13t10.5 -3h167q55 0 55 16v50q0 9 17 9q14 0 14 -8q0 -1 -1 -29t-1 -49t1 -50t1 -33q0 -8 -13 -8q-18 0 -18 9v46q0 7 -2 10t-15 6.5t-38 3.5h-163q-12 0 -14 -2t-2 -13q6 -276 12 -276q27 0 68 0.5l79.5 1 t73.5 0.5t57 0.5t23 0.5q12 0 15 3t4 20q1 14 3 87q0 8 14 8q17 0 17 -9q0 -28 -1.5 -77t-1.5 -61q0 -11 -22 -11q-11 0 -182.5 1.5t-187.5 1.5t-63.5 -1.5t-58.5 -1.5q-10 0 -11.5 2.5t-1.5 15.5z" />
<glyph unicode="&#xcc;" horiz-adv-x="333" d="M59 822q0 25 30 25q18 0 34 -25l53 -85q2 -4 2 -6t-4 -2h-21l-8 6l-72 60q-14 11 -14 27zM30 15q0 9 3 10.5t15 1.5h68q10 0 10 367v98q0 147 -10 147h-62q-8 0 -11 0.5t-6 4t-3 10.5t2.5 10.5t6 4t11.5 0.5q6 0 54.5 -1.5t65.5 -1.5q16 0 60 1.5t55 1.5q10 0 12 -2.5 t2 -15.5q0 -9 -2.5 -10.5t-15.5 -1.5h-63q-11 0 -11 -158v-135q0 -319 10 -319h71q8 0 9.5 -2t1.5 -11q0 -11 -2 -14t-9 -3q-11 0 -57.5 1.5t-62.5 1.5t-66.5 -1.5t-61.5 -1.5q-10 0 -12 2.5t-2 15.5z" />
<glyph unicode="&#xcd;" horiz-adv-x="333" d="M158 731q0 2 2 6l53 85q16 25 34 25q30 0 30 -25q0 -16 -14 -27l-72 -60l-8 -6h-21q-4 0 -4 2zM30 15q0 9 3 10.5t15 1.5h68q10 0 10 367v98q0 147 -10 147h-62q-8 0 -11 0.5t-6 4t-3 10.5t2.5 10.5t6 4t11.5 0.5q6 0 54.5 -1.5t65.5 -1.5q16 0 60 1.5t55 1.5 q10 0 12 -2.5t2 -15.5q0 -9 -2.5 -10.5t-15.5 -1.5h-63q-11 0 -11 -158v-135q0 -319 10 -319h71q8 0 9.5 -2t1.5 -11q0 -11 -2 -14t-9 -3q-11 0 -57.5 1.5t-62.5 1.5t-66.5 -1.5t-61.5 -1.5q-10 0 -12 2.5t-2 15.5z" />
<glyph unicode="&#xce;" horiz-adv-x="333" d="M57 731l4 6l79 89q12 13 16 13h24q4 0 16 -13l79 -89q4 -4 4 -6t-6 -2h-9q-1 0 -11 6l-81 45q-4 2 -8 0l-81 -45q-10 -6 -11 -6h-9q-6 0 -6 2zM30 15q0 9 3 10.5t15 1.5h68q10 0 10 367v98q0 147 -10 147h-62q-8 0 -11 0.5t-6 4t-3 10.5t2.5 10.5t6 4t11.5 0.5 q6 0 54.5 -1.5t65.5 -1.5q16 0 60 1.5t55 1.5q10 0 12 -2.5t2 -15.5q0 -9 -2.5 -10.5t-15.5 -1.5h-63q-11 0 -11 -158v-135q0 -319 10 -319h71q8 0 9.5 -2t1.5 -11q0 -11 -2 -14t-9 -3q-11 0 -57.5 1.5t-62.5 1.5t-66.5 -1.5t-61.5 -1.5q-10 0 -12 2.5t-2 15.5z" />
<glyph unicode="&#xcf;" horiz-adv-x="333" d="M37 783q0 25 19.5 40t40.5 15q18 0 30 -10t12 -30q0 -24 -19 -40t-42 -16q-17 0 -29 10.5t-12 30.5zM197 783q0 25 19.5 40t40.5 15q18 0 30 -10t12 -30q0 -24 -19 -40t-42 -16q-17 0 -29 10.5t-12 30.5zM30 15q0 9 3 10.5t15 1.5h68q10 0 10 367v98q0 147 -10 147h-62 q-8 0 -11 0.5t-6 4t-3 10.5t2.5 10.5t6 4t11.5 0.5q6 0 54.5 -1.5t65.5 -1.5q16 0 60 1.5t55 1.5q10 0 12 -2.5t2 -15.5q0 -9 -2.5 -10.5t-15.5 -1.5h-63q-11 0 -11 -158v-135q0 -319 10 -319h71q8 0 9.5 -2t1.5 -11q0 -11 -2 -14t-9 -3q-11 0 -57.5 1.5t-62.5 1.5 t-66.5 -1.5t-61.5 -1.5q-10 0 -12 2.5t-2 15.5z" />
<glyph unicode="&#xd0;" horiz-adv-x="758" d="M35 10q0 11 3 13t14 2h66q5 0 11 298q0 8 -7 8h-79q-2 0 -2.5 12t2.5 12h76q10 0 10 10q2 148 2 198q0 78 -2 78l-70 -2q-5 0 -7.5 0.5t-4 3t-1.5 8.5v7.5t1.5 5t4 3t7.5 0.5q1 0 11.5 -0.5t26.5 -0.5h31q41 0 114.5 6t89.5 6q166 0 273.5 -93t107.5 -250 q0 -105 -49.5 -183.5t-126.5 -116.5t-169 -39q-32 0 -97 2t-98 2q-16 0 -70 -2t-57 -2q-8 0 -9.5 2t-1.5 12zM213 86q0 -59 2 -60q6 -4 57 -4q69 0 124.5 14t90 34.5t60 53t37.5 59t19 63.5t8 56t1 46q0 73 -35.5 141.5t-106.5 115.5t-159 47q-67 0 -90 -6q-7 -2 -7 -146 q0 -22 -0.5 -67t-0.5 -68q0 -7 1.5 -8.5t9.5 -1.5h208q3 0 3 -12t-3 -12h-212q-7 0 -7 -8v-237z" />
<glyph unicode="&#xd1;" horiz-adv-x="814" d="M316 748q0 7 8 26q11 27 27 41t29 14q16 0 46 -19t42 -19q22 0 36 35q2 7 12 7q7 0 7 -2q0 -8 -7 -27q-22 -58 -60 -58q-18 0 -45 18.5t-43 18.5q-23 0 -34 -31q-2 -6 -11 -6q-7 0 -7 2zM40 15q0 9 3 10.5t15 1.5h44q3 0 5 2.5t3 7.5t1.5 11t1 15.5t0.5 18.5t0.5 22.5 t0.5 24.5l8 510h-68q-8 0 -9.5 2t-1.5 11q0 11 2 14t9 3q6 0 53.5 -1.5t58.5 -1.5q13 0 33.5 1.5t21.5 1.5q10 0 20 -13l406 -499q16 -20 18 -20q4 0 4 28v42q0 49 -1 187t-1 189q0 56 -1 56h-94q-8 0 -9.5 2t-1.5 11q0 11 2 14t9 3q11 0 50.5 -1.5t55.5 -1.5t43.5 1.5 t38.5 1.5q10 0 12 -2.5t2 -15.5q0 -9 -3 -10.5t-15 -1.5h-47q-4 0 -4 -59q0 -68 -3.5 -209.5l-6.5 -253t-3 -113.5q0 -22 -10 -22q-4 0 -18 16l-492 598q-14 18 -16 18q-3 0 -3 -20q-1 -25 -1 -122q0 -54 -0.5 -175.5t-0.5 -167.5q0 -102 5 -102h86q8 0 9.5 -2t1.5 -11 q0 -11 -2 -14t-9 -3q-11 0 -50.5 1.5t-55.5 1.5t-43.5 -1.5t-38.5 -1.5q-10 0 -12 2.5t-2 15.5z" />
<glyph unicode="&#xd2;" horiz-adv-x="752" d="M266 822q0 25 30 25q18 0 34 -25l53 -85q2 -4 2 -6t-4 -2h-21l-8 6l-72 60q-14 11 -14 27zM45 318q0 158 99 257.5t241 99.5q145 0 233.5 -101t88.5 -250t-94.5 -242t-242.5 -93q-83 0 -155.5 36.5t-121 113.5t-48.5 179zM139 345q0 -140 63 -234t169 -94q79 0 136 48 t82.5 118t25.5 150t-25 149.5t-81 117t-134 47.5q-103 0 -169.5 -91t-66.5 -211z" />
<glyph unicode="&#xd3;" horiz-adv-x="752" d="M365 731q0 2 2 6l53 85q16 25 34 25q30 0 30 -25q0 -16 -14 -27l-72 -60l-8 -6h-21q-4 0 -4 2zM45 318q0 158 99 257.5t241 99.5q145 0 233.5 -101t88.5 -250t-94.5 -242t-242.5 -93q-83 0 -155.5 36.5t-121 113.5t-48.5 179zM139 345q0 -140 63 -234t169 -94 q79 0 136 48t82.5 118t25.5 150t-25 149.5t-81 117t-134 47.5q-103 0 -169.5 -91t-66.5 -211z" />
<glyph unicode="&#xd4;" horiz-adv-x="752" d="M264 731l4 6l79 89q12 13 16 13h24q4 0 16 -13l79 -89q4 -4 4 -6t-6 -2h-9q-1 0 -11 6l-81 45q-4 2 -8 0l-81 -45q-10 -6 -11 -6h-9q-6 0 -6 2zM45 318q0 158 99 257.5t241 99.5q145 0 233.5 -101t88.5 -250t-94.5 -242t-242.5 -93q-83 0 -155.5 36.5t-121 113.5 t-48.5 179zM139 345q0 -140 63 -234t169 -94q79 0 136 48t82.5 118t25.5 150t-25 149.5t-81 117t-134 47.5q-103 0 -169.5 -91t-66.5 -211z" />
<glyph unicode="&#xd5;" horiz-adv-x="752" d="M270 748q0 7 8 26q11 27 27 41t29 14q16 0 46 -19t42 -19q22 0 36 35q2 7 12 7q7 0 7 -2q0 -8 -7 -27q-22 -58 -60 -58q-18 0 -45 18.5t-43 18.5q-23 0 -34 -31q-2 -6 -11 -6q-7 0 -7 2zM45 318q0 158 99 257.5t241 99.5q145 0 233.5 -101t88.5 -250t-94.5 -242 t-242.5 -93q-83 0 -155.5 36.5t-121 113.5t-48.5 179zM139 345q0 -140 63 -234t169 -94q79 0 136 48t82.5 118t25.5 150t-25 149.5t-81 117t-134 47.5q-103 0 -169.5 -91t-66.5 -211z" />
<glyph unicode="&#xd6;" horiz-adv-x="752" d="M244 783q0 25 19.5 40t40.5 15q18 0 30 -10t12 -30q0 -24 -19 -40t-42 -16q-17 0 -29 10.5t-12 30.5zM404 783q0 25 19.5 40t40.5 15q18 0 30 -10t12 -30q0 -24 -19 -40t-42 -16q-17 0 -29 10.5t-12 30.5zM45 318q0 158 99 257.5t241 99.5q145 0 233.5 -101t88.5 -250 t-94.5 -242t-242.5 -93q-83 0 -155.5 36.5t-121 113.5t-48.5 179zM139 345q0 -140 63 -234t169 -94q79 0 136 48t82.5 118t25.5 150t-25 149.5t-81 117t-134 47.5q-103 0 -169.5 -91t-66.5 -211z" />
<glyph unicode="&#xd7;" horiz-adv-x="527" d="M88 358q0 5 10.5 15.5t17.5 10.5q6 0 14 -8l116 -115q12 -12 19 -12q6 0 11 5l125 125q6 6 12 6q5 0 15 -10t10 -17q0 -5 -9 -14l-121 -121q-8 -8 -8 -13q0 -4 8 -12l124 -124q6 -6 6 -12t-10.5 -16.5t-15.5 -10.5q-6 0 -13 7l-123 124q-7 7 -13 7q-5 0 -16 -11 l-120 -120q-7 -7 -12 -7t-15.5 10t-10.5 16q0 5 8 13l120 121q9 9 9 15t-7 13l-124 124q-7 7 -7 11z" />
<glyph unicode="&#xd8;" horiz-adv-x="752" d="M45 318q0 158 99 257.5t241 99.5q78 0 142 -31q6 -3 8 -2.5t5 6.5l42 74q1 1 3 1q5 0 12 -5.5t6 -7.5l-44 -75q-4 -7 2 -11q69 -46 107.5 -125.5t38.5 -174.5q0 -149 -94.5 -242t-242.5 -93q-82 0 -152 36q-8 4 -12 -2l-44 -76q-2 -2 -3 -2q-4 0 -8.5 2.5t-8 5.5t-2.5 4 l46 79q3 5 -4 10q-63 43 -100 112t-37 160zM139 345q0 -154 73 -247l5 -5q1 0 4 5l286 494q3 4 3 6t-6 7q-54 42 -129 42q-103 0 -169.5 -91t-66.5 -211zM238 79q-3 -6 2 -11q57 -51 131 -51q79 0 136 48t82.5 118t25.5 150q0 153 -80 243q-5 5 -7 3q-1 -1 -2 -3z" />
<glyph unicode="&#xd9;" horiz-adv-x="755" d="M275 822q0 25 30 25q18 0 34 -25l53 -85q2 -4 2 -6t-4 -2h-21l-8 6l-72 60q-14 11 -14 27zM40 649q0 7 2 10.5t5 4t11 0.5q6 0 40.5 -1.5t51.5 -1.5q16 0 59.5 1.5t54.5 1.5q10 0 12 -2.5t2 -15.5q0 -9 -3 -10.5t-15 -1.5h-65q-6 0 -10 -166.5t-4 -239.5q0 -97 48 -145.5 t153 -48.5q92 0 172 54q17 11 20 23q5 17 5 136v305q0 82 -7 82h-49q-8 0 -11 0.5t-6 4t-3 10.5t2.5 10.5t6 4t11.5 0.5q6 0 44.5 -1.5t55.5 -1.5t46 1.5t32 1.5q10 0 12 -2.5t2 -15.5q0 -9 -2.5 -10.5t-15.5 -1.5h-24q-3 0 -5 -17t-3 -51t-1.5 -69t-1.5 -88.5t-2 -91.5 q-1 -57 -3 -128t-3 -113t-1 -51q0 -32 -21 -32q-10 0 -30 36.5t-32 36.5q-10 0 -46 -20q-40 -23 -96.5 -40t-109.5 -17q-59 0 -100.5 14t-64 34t-35.5 54t-16 63.5t-3 72.5q0 11 0.5 157t0.5 191q0 59 -5 59h-37q-6 0 -8 0.5t-5 1.5t-4 4t-1 9z" />
<glyph unicode="&#xda;" horiz-adv-x="755" d="M374 731q0 2 2 6l53 85q16 25 34 25q30 0 30 -25q0 -16 -14 -27l-72 -60l-8 -6h-21q-4 0 -4 2zM40 649q0 7 2 10.5t5 4t11 0.5q6 0 40.5 -1.5t51.5 -1.5q16 0 59.5 1.5t54.5 1.5q10 0 12 -2.5t2 -15.5q0 -9 -3 -10.5t-15 -1.5h-65q-6 0 -10 -166.5t-4 -239.5 q0 -97 48 -145.5t153 -48.5q92 0 172 54q17 11 20 23q5 17 5 136v305q0 82 -7 82h-49q-8 0 -11 0.5t-6 4t-3 10.5t2.5 10.5t6 4t11.5 0.5q6 0 44.5 -1.5t55.5 -1.5t46 1.5t32 1.5q10 0 12 -2.5t2 -15.5q0 -9 -2.5 -10.5t-15.5 -1.5h-24q-3 0 -5 -17t-3 -51t-1.5 -69 t-1.5 -88.5t-2 -91.5q-1 -57 -3 -128t-3 -113t-1 -51q0 -32 -21 -32q-10 0 -30 36.5t-32 36.5q-10 0 -46 -20q-40 -23 -96.5 -40t-109.5 -17q-59 0 -100.5 14t-64 34t-35.5 54t-16 63.5t-3 72.5q0 11 0.5 157t0.5 191q0 59 -5 59h-37q-6 0 -8 0.5t-5 1.5t-4 4t-1 9z" />
<glyph unicode="&#xdb;" horiz-adv-x="755" d="M273 731l4 6l79 89q12 13 16 13h24q4 0 16 -13l79 -89q4 -4 4 -6t-6 -2h-9q-1 0 -11 6l-81 45q-4 2 -8 0l-81 -45q-10 -6 -11 -6h-9q-6 0 -6 2zM40 649q0 7 2 10.5t5 4t11 0.5q6 0 40.5 -1.5t51.5 -1.5q16 0 59.5 1.5t54.5 1.5q10 0 12 -2.5t2 -15.5q0 -9 -3 -10.5 t-15 -1.5h-65q-6 0 -10 -166.5t-4 -239.5q0 -97 48 -145.5t153 -48.5q92 0 172 54q17 11 20 23q5 17 5 136v305q0 82 -7 82h-49q-8 0 -11 0.5t-6 4t-3 10.5t2.5 10.5t6 4t11.5 0.5q6 0 44.5 -1.5t55.5 -1.5t46 1.5t32 1.5q10 0 12 -2.5t2 -15.5q0 -9 -2.5 -10.5t-15.5 -1.5 h-24q-3 0 -5 -17t-3 -51t-1.5 -69t-1.5 -88.5t-2 -91.5q-1 -57 -3 -128t-3 -113t-1 -51q0 -32 -21 -32q-10 0 -30 36.5t-32 36.5q-10 0 -46 -20q-40 -23 -96.5 -40t-109.5 -17q-59 0 -100.5 14t-64 34t-35.5 54t-16 63.5t-3 72.5q0 11 0.5 157t0.5 191q0 59 -5 59h-37 q-6 0 -8 0.5t-5 1.5t-4 4t-1 9z" />
<glyph unicode="&#xdc;" horiz-adv-x="755" d="M253 783q0 25 19.5 40t40.5 15q18 0 30 -10t12 -30q0 -24 -19 -40t-42 -16q-17 0 -29 10.5t-12 30.5zM413 783q0 25 19.5 40t40.5 15q18 0 30 -10t12 -30q0 -24 -19 -40t-42 -16q-17 0 -29 10.5t-12 30.5zM40 649q0 7 2 10.5t5 4t11 0.5q6 0 40.5 -1.5t51.5 -1.5 q16 0 59.5 1.5t54.5 1.5q10 0 12 -2.5t2 -15.5q0 -9 -3 -10.5t-15 -1.5h-65q-6 0 -10 -166.5t-4 -239.5q0 -97 48 -145.5t153 -48.5q92 0 172 54q17 11 20 23q5 17 5 136v305q0 82 -7 82h-49q-8 0 -11 0.5t-6 4t-3 10.5t2.5 10.5t6 4t11.5 0.5q6 0 44.5 -1.5t55.5 -1.5 t46 1.5t32 1.5q10 0 12 -2.5t2 -15.5q0 -9 -2.5 -10.5t-15.5 -1.5h-24q-3 0 -5 -17t-3 -51t-1.5 -69t-1.5 -88.5t-2 -91.5q-1 -57 -3 -128t-3 -113t-1 -51q0 -32 -21 -32q-10 0 -30 36.5t-32 36.5q-10 0 -46 -20q-40 -23 -96.5 -40t-109.5 -17q-59 0 -100.5 14t-64 34 t-35.5 54t-16 63.5t-3 72.5q0 11 0.5 157t0.5 191q0 59 -5 59h-37q-6 0 -8 0.5t-5 1.5t-4 4t-1 9z" />
<glyph unicode="&#xdd;" horiz-adv-x="597" d="M318 731q0 2 2 6l53 85q16 25 34 25q30 0 30 -25q0 -16 -14 -27l-72 -60l-8 -6h-21q-4 0 -4 2zM10 654q0 7 2 10.5t5 4t11 0.5q6 0 46 -1.5t57 -1.5q16 0 60 1.5t55 1.5q10 0 12 -2.5t2 -15.5q0 -9 -3 -10.5t-15 -1.5h-59q-11 0 -12 -2.5t4 -12.5q9 -23 37 -76.5 l62.5 -117t42.5 -79.5q9 -17 11 -17q3 0 11 14l27 52l38 72.5l35.5 69.5t29 62t10.5 32q0 3 -2 3h-56q-13 0 -15.5 1.5t-2.5 10.5q0 13 2 15.5t12 2.5q11 0 36.5 -1.5t41.5 -1.5q17 0 43.5 1.5t32.5 1.5q11 0 13.5 -2t2.5 -13q0 -6 -0.5 -9t-3 -4.5t-5 -1.5h-7.5h-36 q-2 0 -37.5 -62l-81.5 -142l-65 -111q-3 -5 -3 -11q0 -286 10 -286h71q8 0 9.5 -2t1.5 -11q0 -11 -2 -14t-9 -3q-11 0 -57.5 1.5t-62.5 1.5t-58.5 -1.5t-53.5 -1.5q-10 0 -12 2.5t-2 15.5q0 9 2.5 10.5t15.5 1.5h52q10 0 10 244q0 11 -7 23q-189 345 -199 345h-29 q-6 0 -8 0.5t-5 1.5t-4 4t-1 9z" />
<glyph unicode="&#xde;" horiz-adv-x="591" d="M30 15q0 9 3 10.5t15 1.5h68q10 0 10 367v98q0 147 -10 147h-62q-8 0 -11 0.5t-6 4t-3 10.5t2.5 10.5t6 4t11.5 0.5q6 0 54.5 -1.5t65.5 -1.5q16 0 60 1.5t55 1.5q10 0 12 -2.5t2 -15.5q0 -9 -2.5 -10.5t-15.5 -1.5h-63q-9 0 -11 -102q0 -13 2 -15t15 -1q14 0 42.5 1.5 t35.5 1.5q108 0 174 -49.5t66 -146.5q0 -92 -64 -136.5t-175 -44.5q-5 0 -77 3h-4h-7t-4 -1.5t-2.5 -4t-0.5 -7.5q2 -110 9 -110h71q8 0 9.5 -2t1.5 -11q0 -11 -2 -14t-9 -3q-11 0 -57.5 1.5t-62.5 1.5t-66.5 -1.5t-61.5 -1.5q-10 0 -12 2.5t-2 15.5zM211 188q0 -15 14 -17 q7 -2 24 -2q94 0 152.5 41.5t58.5 132.5q0 71 -59.5 113t-151.5 42q-24 0 -35 -1q-3 0 -3 -27v-282z" />
<glyph unicode="&#xdf;" horiz-adv-x="482" d="M30 12q0 13 12 13h38q6 0 6 178q0 70 -1 174l-1 104q0 86 42 141.5t130 55.5q68 0 106.5 -37t38.5 -102q0 -64 -34.5 -103.5t-76.5 -55.5q-6 -3 -12.5 -4.5t-9.5 -1.5l-2 -1l2 -1q2 0 7 -1t11 -3q18 -5 36 -12.5t43 -24t43 -37.5t31 -55t13 -75q0 -72 -38 -123t-101 -51 q-46 0 -76 21t-30 57q0 18 7.5 26.5t27.5 14.5q16 5 18 -8q0 -4 1 -18.5l1.5 -21.5t4 -19t9 -18t15.5 -11t24 -5q31 0 47 44t16 102q0 54 -12 94t-26.5 60t-40.5 33t-40 16t-39 6q-7 1 -7 10.5t7 9.5q46 2 82 41.5t36 117.5q0 53 -20.5 83.5t-76.5 30.5q-23 0 -40 -12 t-25 -27.5t-12.5 -41t-5.5 -42t-1 -41.5v-475q0 -18 -8 -18q-2 0 -12.5 0.5t-15.5 0.5q-12 0 -37 -1t-41 -1q-9 0 -11 2.5t-2 11.5z" />
<glyph unicode="&#xe0;" horiz-adv-x="419" d="M99 582q0 13 9.5 21.5t26.5 8.5q21 0 30 -25l49 -130q2 -4 2 -6t-4 -2h-16q-4 0 -8 6l-82 107q-7 10 -7 20zM35 71q0 42 37 74t83.5 48t103.5 26q8 1 8 16q0 27 -0.5 42t-5 36.5t-13.5 32.5t-26 19.5t-42 8.5q-18 0 -31 -5q-20 -9 -25.5 -22t-6.5 -45q0 -16 -7 -21 q-11 -8 -30.5 -18t-22.5 -10q-8 0 -8 15q0 57 49 94t103 37q72 0 101.5 -33.5t29.5 -97.5q0 -29 -3 -113t-3 -91q0 -30 22 -30q2 0 19.5 12t18.5 12q3 0 8 -5.5t5 -9.5q0 -5 -65 -49q-15 -11 -26 -11q-10 0 -17.5 6t-11.5 14t-6.5 16t-3.5 14l-1 6q-1 0 -4 -2t-8 -5t-8 -5 q-68 -41 -115 -41q-46 0 -72 23t-26 62zM105 99q0 -26 17.5 -47.5t47.5 -21.5q20 0 44 6t38.5 12.5t14.5 9.5v134q0 11 -6 11q-14 0 -62 -15q-94 -30 -94 -89z" />
<glyph unicode="&#xe1;" horiz-adv-x="419" d="M186 451q0 2 2 6l49 130q9 25 30 25q17 0 26.5 -8.5t9.5 -21.5q0 -10 -7 -20l-82 -107q-4 -6 -8 -6h-16q-4 0 -4 2zM35 71q0 42 37 74t83.5 48t103.5 26q8 1 8 16q0 27 -0.5 42t-5 36.5t-13.5 32.5t-26 19.5t-42 8.5q-18 0 -31 -5q-20 -9 -25.5 -22t-6.5 -45 q0 -16 -7 -21q-11 -8 -30.5 -18t-22.5 -10q-8 0 -8 15q0 57 49 94t103 37q72 0 101.5 -33.5t29.5 -97.5q0 -29 -3 -113t-3 -91q0 -30 22 -30q2 0 19.5 12t18.5 12q3 0 8 -5.5t5 -9.5q0 -5 -65 -49q-15 -11 -26 -11q-10 0 -17.5 6t-11.5 14t-6.5 16t-3.5 14l-1 6q-1 0 -4 -2 t-8 -5t-8 -5q-68 -41 -115 -41q-46 0 -72 23t-26 62zM105 99q0 -26 17.5 -47.5t47.5 -21.5q20 0 44 6t38.5 12.5t14.5 9.5v134q0 11 -6 11q-14 0 -62 -15q-94 -30 -94 -89z" />
<glyph unicode="&#xe2;" horiz-adv-x="419" d="M91 461q0 1 3 6l79 119q6 10 8.5 11.5t9.5 1.5h20q7 0 9.5 -1.5t8.5 -11.5l79 -119q3 -5 3 -6q0 -2 -5 -2h-12l-8 6l-81 70q-4 3 -8 0l-81 -70q-6 -6 -8 -6h-12q-5 0 -5 2zM35 71q0 42 37 74t83.5 48t103.5 26q8 1 8 16q0 27 -0.5 42t-5 36.5t-13.5 32.5t-26 19.5 t-42 8.5q-18 0 -31 -5q-20 -9 -25.5 -22t-6.5 -45q0 -16 -7 -21q-11 -8 -30.5 -18t-22.5 -10q-8 0 -8 15q0 57 49 94t103 37q72 0 101.5 -33.5t29.5 -97.5q0 -29 -3 -113t-3 -91q0 -30 22 -30q2 0 19.5 12t18.5 12q3 0 8 -5.5t5 -9.5q0 -5 -65 -49q-15 -11 -26 -11 q-10 0 -17.5 6t-11.5 14t-6.5 16t-3.5 14l-1 6q-1 0 -4 -2t-8 -5t-8 -5q-68 -41 -115 -41q-46 0 -72 23t-26 62zM105 99q0 -26 17.5 -47.5t47.5 -21.5q20 0 44 6t38.5 12.5t14.5 9.5v134q0 11 -6 11q-14 0 -62 -15q-94 -30 -94 -89z" />
<glyph unicode="&#xe3;" horiz-adv-x="419" d="M96 498q0 7 8 26q11 27 27 41t29 14q16 0 46 -19t42 -19q22 0 36 35q2 7 12 7q7 0 7 -2q0 -8 -7 -27q-22 -58 -60 -58q-18 0 -45 18.5t-43 18.5q-23 0 -34 -31q-2 -6 -11 -6q-7 0 -7 2zM35 71q0 42 37 74t83.5 48t103.5 26q8 1 8 16q0 27 -0.5 42t-5 36.5t-13.5 32.5 t-26 19.5t-42 8.5q-18 0 -31 -5q-20 -9 -25.5 -22t-6.5 -45q0 -16 -7 -21q-11 -8 -30.5 -18t-22.5 -10q-8 0 -8 15q0 57 49 94t103 37q72 0 101.5 -33.5t29.5 -97.5q0 -29 -3 -113t-3 -91q0 -30 22 -30q2 0 19.5 12t18.5 12q3 0 8 -5.5t5 -9.5q0 -5 -65 -49q-15 -11 -26 -11 q-10 0 -17.5 6t-11.5 14t-6.5 16t-3.5 14l-1 6q-1 0 -4 -2t-8 -5t-8 -5q-68 -41 -115 -41q-46 0 -72 23t-26 62zM105 99q0 -26 17.5 -47.5t47.5 -21.5q20 0 44 6t38.5 12.5t14.5 9.5v134q0 11 -6 11q-14 0 -62 -15q-94 -30 -94 -89z" />
<glyph unicode="&#xe4;" horiz-adv-x="419" d="M70 533q0 25 19.5 40t40.5 15q18 0 30 -10t12 -30q0 -24 -19 -40t-42 -16q-17 0 -29 10.5t-12 30.5zM230 533q0 25 19.5 40t40.5 15q18 0 30 -10t12 -30q0 -24 -19 -40t-42 -16q-17 0 -29 10.5t-12 30.5zM35 71q0 42 37 74t83.5 48t103.5 26q8 1 8 16q0 27 -0.5 42 t-5 36.5t-13.5 32.5t-26 19.5t-42 8.5q-18 0 -31 -5q-20 -9 -25.5 -22t-6.5 -45q0 -16 -7 -21q-11 -8 -30.5 -18t-22.5 -10q-8 0 -8 15q0 57 49 94t103 37q72 0 101.5 -33.5t29.5 -97.5q0 -29 -3 -113t-3 -91q0 -30 22 -30q2 0 19.5 12t18.5 12q3 0 8 -5.5t5 -9.5 q0 -5 -65 -49q-15 -11 -26 -11q-10 0 -17.5 6t-11.5 14t-6.5 16t-3.5 14l-1 6q-1 0 -4 -2t-8 -5t-8 -5q-68 -41 -115 -41q-46 0 -72 23t-26 62zM105 99q0 -26 17.5 -47.5t47.5 -21.5q20 0 44 6t38.5 12.5t14.5 9.5v134q0 11 -6 11q-14 0 -62 -15q-94 -30 -94 -89z" />
<glyph unicode="&#xe5;" horiz-adv-x="419" d="M130 535q0 29 21 50t50 21t50 -21t21 -50t-21 -50t-50 -21t-50 21t-21 50zM158 535q0 -18 12.5 -30.5t30.5 -12.5t30.5 12.5t12.5 30.5t-12.5 30.5t-30.5 12.5t-30.5 -12.5t-12.5 -30.5zM35 71q0 42 37 74t83.5 48t103.5 26q8 1 8 16q0 27 -0.5 42t-5 36.5t-13.5 32.5 t-26 19.5t-42 8.5q-18 0 -31 -5q-20 -9 -25.5 -22t-6.5 -45q0 -16 -7 -21q-11 -8 -30.5 -18t-22.5 -10q-8 0 -8 15q0 57 49 94t103 37q72 0 101.5 -33.5t29.5 -97.5q0 -29 -3 -113t-3 -91q0 -30 22 -30q2 0 19.5 12t18.5 12q3 0 8 -5.5t5 -9.5q0 -5 -65 -49q-15 -11 -26 -11 q-10 0 -17.5 6t-11.5 14t-6.5 16t-3.5 14l-1 6q-1 0 -4 -2t-8 -5t-8 -5q-68 -41 -115 -41q-46 0 -72 23t-26 62zM105 99q0 -26 17.5 -47.5t47.5 -21.5q20 0 44 6t38.5 12.5t14.5 9.5v134q0 11 -6 11q-14 0 -62 -15q-94 -30 -94 -89z" />
<glyph unicode="&#xe6;" horiz-adv-x="649" d="M35 70q0 42 37 74t83.5 48t103.5 26q8 1 8 16q0 27 -0.5 42t-5 36.5t-13.5 32.5t-26 19.5t-42 8.5q-18 0 -31 -5q-20 -9 -25.5 -22t-6.5 -45q0 -16 -7 -21q-11 -8 -30.5 -18t-22.5 -10q-8 0 -8 15q0 57 49 94t103 37q80 0 111 -45q7 -11 10 -9q1 0 9 7q55 45 128 45 q71 0 110 -46t39 -113q0 -5 -20 -8.5t-34 -3.5q-6 0 -113 2.5t-111 2.5q-5 0 -5 -36q0 -76 44.5 -120.5t104.5 -44.5q22 0 43.5 6.5t36 16.5t25.5 19.5t17 16.5l7 6q2 0 9 -6.5t7 -8.5q0 -5 -21 -26.5t-64 -44.5t-88 -23q-90 0 -141 54q-7 6 -8.5 6t-10.5 -6 q-87 -54 -153 -54q-46 0 -72 23t-26 62zM105 98q0 -26 17.5 -47.5t47.5 -21.5q39 0 79 17q12 5 15 8.5t3 11.5v125q0 11 -6 11q-14 0 -62 -15q-94 -30 -94 -89zM330 255q0 -8 12 -8q57 0 157 4q40 1 40 4q0 65 -29.5 92t-62.5 27q-46 0 -80 -38.5t-37 -80.5z" />
<glyph unicode="&#xe7;" horiz-adv-x="412" d="M35 177q0 104 63 163t143 59q50 0 91.5 -29t41.5 -67q0 -13 -10 -20q-17 -13 -30 -13t-17 11q-2 5 -8.5 25.5t-10 27t-12 18.5t-21 16t-30.5 4q-60 0 -97.5 -53t-37.5 -117q0 -68 40.5 -118t113.5 -50q30 0 58.5 7.5t44.5 15t18 7.5q7 0 7 -8q0 -5 -16.5 -19t-52.5 -29.5 t-77 -17.5l-20 -55q-2 -9 0 -9l6 2q5 1 13.5 2.5t16.5 1.5q40 0 62.5 -21t22.5 -47q0 -35 -29.5 -63.5t-76.5 -28.5q-23 0 -43.5 6.5t-30 12.5t-9.5 9q0 11 8 11l8 -3q9 -4 23 -8t29 -4q34 0 50 13.5t16 42.5q0 45 -55 45q-8 0 -16.5 -2.5t-14 -4.5t-6.5 -2q-8 0 -8 5 q0 1 6.5 17.5l16 42t14.5 37.5q-85 1 -134.5 52t-49.5 135z" />
<glyph unicode="&#xe8;" horiz-adv-x="424" d="M126 582q0 13 9.5 21.5t26.5 8.5q21 0 30 -25l49 -130q2 -4 2 -6t-4 -2h-16q-3 0 -8 6l-82 107q-7 10 -7 20zM30 182q0 91 57 152.5t147 61.5q71 0 110 -46t39 -113q0 -5 -20.5 -8.5t-33.5 -3.5q-6 0 -113 2.5t-111 2.5q-5 0 -5 -36q0 -76 44.5 -120.5t104.5 -44.5 q22 0 43.5 6.5t36 16.5t25.5 19.5t18 16.5l6 6q2 0 9 -6.5t7 -8.5q0 -5 -21 -26.5t-64 -44.5t-88 -23q-91 0 -141 53.5t-50 143.5zM105 255q0 -8 12 -8q57 0 157 4q40 1 40 4q0 65 -29.5 92t-62.5 27q-46 0 -80 -38.5t-37 -80.5z" />
<glyph unicode="&#xe9;" horiz-adv-x="424" d="M213 451q0 2 2 6l49 130q9 25 30 25q17 0 26.5 -8.5t9.5 -21.5q0 -10 -7 -20l-82 -107q-5 -6 -8 -6h-16q-4 0 -4 2zM30 182q0 91 57 152.5t147 61.5q71 0 110 -46t39 -113q0 -5 -20.5 -8.5t-33.5 -3.5q-6 0 -113 2.5t-111 2.5q-5 0 -5 -36q0 -76 44.5 -120.5t104.5 -44.5 q22 0 43.5 6.5t36 16.5t25.5 19.5t18 16.5l6 6q2 0 9 -6.5t7 -8.5q0 -5 -21 -26.5t-64 -44.5t-88 -23q-91 0 -141 53.5t-50 143.5zM105 255q0 -8 12 -8q57 0 157 4q40 1 40 4q0 65 -29.5 92t-62.5 27q-46 0 -80 -38.5t-37 -80.5z" />
<glyph unicode="&#xea;" horiz-adv-x="424" d="M118 461q0 1 3 6l79 119q6 10 8.5 11.5t9.5 1.5h20q7 0 9.5 -1.5t8.5 -11.5l79 -119q3 -5 3 -6q0 -2 -5 -2h-12q-1 0 -8 6l-81 70q-4 3 -8 0l-81 -70q-6 -6 -8 -6h-12q-5 0 -5 2zM30 182q0 91 57 152.5t147 61.5q71 0 110 -46t39 -113q0 -5 -20.5 -8.5t-33.5 -3.5 q-6 0 -113 2.5t-111 2.5q-5 0 -5 -36q0 -76 44.5 -120.5t104.5 -44.5q22 0 43.5 6.5t36 16.5t25.5 19.5t18 16.5l6 6q2 0 9 -6.5t7 -8.5q0 -5 -21 -26.5t-64 -44.5t-88 -23q-91 0 -141 53.5t-50 143.5zM105 255q0 -8 12 -8q57 0 157 4q40 1 40 4q0 65 -29.5 92t-62.5 27 q-46 0 -80 -38.5t-37 -80.5z" />
<glyph unicode="&#xeb;" horiz-adv-x="424" d="M97 533q0 25 19.5 40t40.5 15q18 0 30 -10t12 -30q0 -24 -19 -40t-42 -16q-17 0 -29 10.5t-12 30.5zM257 533q0 25 19.5 40t40.5 15q18 0 30 -10t12 -30q0 -24 -19 -40t-42 -16q-17 0 -29 10.5t-12 30.5zM30 182q0 91 57 152.5t147 61.5q71 0 110 -46t39 -113 q0 -5 -20.5 -8.5t-33.5 -3.5q-6 0 -113 2.5t-111 2.5q-5 0 -5 -36q0 -76 44.5 -120.5t104.5 -44.5q22 0 43.5 6.5t36 16.5t25.5 19.5t18 16.5l6 6q2 0 9 -6.5t7 -8.5q0 -5 -21 -26.5t-64 -44.5t-88 -23q-91 0 -141 53.5t-50 143.5zM105 255q0 -8 12 -8q57 0 157 4q40 1 40 4 q0 65 -29.5 92t-62.5 27q-46 0 -80 -38.5t-37 -80.5z" />
<glyph unicode="&#xec;" horiz-adv-x="249" d="M13 582q0 13 9.5 21.5t26.5 8.5q21 0 30 -25l49 -130q2 -4 2 -6t-4 -2h-16q-4 0 -8 6l-82 107q-7 10 -7 20zM25 357q0 5 4 13q3 6 4.5 6.5t10.5 1.5q95 5 113 5q7 0 7 -6v-170q0 -113 3 -170q0 -5 0.5 -7t2.5 -3.5t7 -1.5h36q11 0 11 -13q0 -8 -1.5 -11t-9.5 -3 q-9 0 -40 1t-44 1t-46.5 -1t-42.5 -1q-8 0 -9.5 2.5t-1.5 11.5q0 7 2.5 10t11.5 3h41q8 0 9.5 2t1.5 10q1 29 1 88q0 117 -4 214q-1 11 -3 13.5t-10 2.5q-1 0 -24.5 -1t-25.5 -1q-4 0 -4 4z" />
<glyph unicode="&#xed;" horiz-adv-x="249" d="M100 451q0 2 2 6l49 130q9 25 30 25q17 0 26.5 -8.5t9.5 -21.5q0 -10 -7 -20l-82 -107q-4 -6 -8 -6h-16q-4 0 -4 2zM25 357q0 5 4 13q3 6 4.5 6.5t10.5 1.5q95 5 113 5q7 0 7 -6v-170q0 -113 3 -170q0 -5 0.5 -7t2.5 -3.5t7 -1.5h36q11 0 11 -13q0 -8 -1.5 -11t-9.5 -3 q-9 0 -40 1t-44 1t-46.5 -1t-42.5 -1q-8 0 -9.5 2.5t-1.5 11.5q0 7 2.5 10t11.5 3h41q8 0 9.5 2t1.5 10q1 29 1 88q0 117 -4 214q-1 11 -3 13.5t-10 2.5q-1 0 -24.5 -1t-25.5 -1q-4 0 -4 4z" />
<glyph unicode="&#xee;" horiz-adv-x="249" d="M5 461q0 1 3 6l79 119q6 10 8.5 11.5t9.5 1.5h20q7 0 9.5 -1.5t8.5 -11.5l79 -119q3 -5 3 -6q0 -2 -5 -2h-12l-8 6l-81 70q-4 3 -8 0l-81 -70q-6 -6 -8 -6h-12q-5 0 -5 2zM25 357q0 5 4 13q3 6 4.5 6.5t10.5 1.5q95 5 113 5q7 0 7 -6v-170q0 -113 3 -170q0 -5 0.5 -7 t2.5 -3.5t7 -1.5h36q11 0 11 -13q0 -8 -1.5 -11t-9.5 -3q-9 0 -40 1t-44 1t-46.5 -1t-42.5 -1q-8 0 -9.5 2.5t-1.5 11.5q0 7 2.5 10t11.5 3h41q8 0 9.5 2t1.5 10q1 29 1 88q0 117 -4 214q-1 11 -3 13.5t-10 2.5q-1 0 -24.5 -1t-25.5 -1q-4 0 -4 4z" />
<glyph unicode="&#xef;" horiz-adv-x="249" d="M-6 533q0 25 19.5 40t40.5 15q18 0 30 -10t12 -30q0 -24 -19 -40t-42 -16q-17 0 -29 10.5t-12 30.5zM134 533q0 25 19.5 40t40.5 15q18 0 30 -10t12 -30q0 -24 -19 -40t-42 -16q-17 0 -29 10.5t-12 30.5zM25 357q0 5 4 13q3 6 4.5 6.5t10.5 1.5q95 5 113 5q7 0 7 -6v-170 q0 -113 3 -170q0 -5 0.5 -7t2.5 -3.5t7 -1.5h36q11 0 11 -13q0 -8 -1.5 -11t-9.5 -3q-9 0 -40 1t-44 1t-46.5 -1t-42.5 -1q-8 0 -9.5 2.5t-1.5 11.5q0 7 2.5 10t11.5 3h41q8 0 9.5 2t1.5 10q1 29 1 88q0 117 -4 214q-1 11 -3 13.5t-10 2.5q-1 0 -24.5 -1t-25.5 -1q-4 0 -4 4 z" />
<glyph unicode="&#xf0;" horiz-adv-x="438" d="M30 183q0 95 52.5 153.5t135.5 58.5q47 0 73 -17q16 -10 17 -10q1 1 0.5 5.5t-3 11l-4.5 11.5q-33 74 -68 123q-2 3 -9 2l-114 -30q-1 0 -4 4t-5.5 10t-2.5 8l25 7q25 7 52.5 14l31.5 8q8 1 3 6q-57 69 -106 107q-9 5 -8 6q0 2 8 2h44q9 0 39 -28t68 -74q4 -5 11 -3 q94 26 98 26q2 0 8 -8t6 -12q0 -1 -44 -12.5l-52 -13.5q-3 -1 -4 -4t1 -4q52 -70 90.5 -160.5t38.5 -172.5q0 -93 -51.5 -152.5t-136.5 -59.5q-81 0 -135.5 57t-54.5 141zM103 192q0 -73 31 -127t91 -54q116 0 116 182q0 74 -28 125.5t-89 51.5q-58 0 -89.5 -49t-31.5 -129z " />
<glyph unicode="&#xf1;" horiz-adv-x="514" d="M167 498q0 7 8 26q11 27 27 41t29 14q16 0 46 -19t42 -19q22 0 36 35q2 7 12 7q7 0 7 -2q0 -8 -7 -27q-22 -58 -60 -58q-18 0 -45 18.5t-43 18.5q-23 0 -34 -31q-2 -6 -11 -6q-7 0 -7 2zM25 350q0 4 5 16q2 6 3.5 6.5t11.5 1.5q5 0 47 3t58 4q9 1 11 -0.5t2 -7.5v-3v-42 q0 -6 13 3l2 2l18 12t23 14.5t23 11.5t31 10t33 3q42 0 69.5 -13t41 -39.5t18 -55t4.5 -69.5q0 -33 -2.5 -100t-2.5 -70q0 -8 1.5 -10t9.5 -2h30q9 0 11.5 -2t2.5 -11q0 -6 -0.5 -8t-3 -4t-8.5 -2q-8 0 -33.5 1t-41.5 1q-12 0 -40.5 -1t-44.5 -1q-10 0 -12 2t-2 11t2.5 11.5 t10.5 2.5h37q7 0 8.5 1.5t2.5 9.5q4 48 4 176q0 130 -96 130q-33 0 -89 -28q-18 -9 -18 -23q0 -41 -0.5 -123.5t-0.5 -123.5q0 -9 0.5 -12.5t3 -5t9.5 -1.5h36q8 0 10.5 -3t2.5 -10q0 -6 -0.5 -8t-3.5 -4t-9 -2q-8 0 -36.5 1t-44.5 1q-12 0 -42 -1t-46 -1q-9 0 -11 2.5 t-2 11.5q0 13 12 13h39q6 0 7.5 2.5t2.5 11.5v4q5 98 5 194q0 68 -2 99q-1 11 -2.5 12.5t-9.5 1.5q-1 0 -27 -2t-28 -2q-3 0 -3 4z" />
<glyph unicode="&#xf2;" horiz-adv-x="446" d="M128 582q0 13 9.5 21.5t26.5 8.5q21 0 30 -25l49 -130q2 -4 2 -6t-4 -2h-16q-3 0 -8 6l-82 107q-7 10 -7 20zM30 183q0 90 57 151.5t148 61.5q80 0 130.5 -57.5t50.5 -141.5q0 -94 -53 -153t-144 -59q-80 0 -134.5 58t-54.5 140zM101 169q0 -62 31.5 -110t86.5 -48 q36 0 61.5 17t38.5 46.5t18.5 61t5.5 68.5q0 66 -31 116t-89 50q-122 0 -122 -201z" />
<glyph unicode="&#xf3;" horiz-adv-x="446" d="M215 451q0 2 2 6l49 130q9 25 30 25q17 0 26.5 -8.5t9.5 -21.5q0 -10 -7 -20l-82 -107q-5 -6 -8 -6h-16q-4 0 -4 2zM30 183q0 90 57 151.5t148 61.5q80 0 130.5 -57.5t50.5 -141.5q0 -94 -53 -153t-144 -59q-80 0 -134.5 58t-54.5 140zM101 169q0 -62 31.5 -110t86.5 -48 q36 0 61.5 17t38.5 46.5t18.5 61t5.5 68.5q0 66 -31 116t-89 50q-122 0 -122 -201z" />
<glyph unicode="&#xf4;" horiz-adv-x="446" d="M120 461q0 1 3 6l79 119q6 10 8.5 11.5t9.5 1.5h20q7 0 9.5 -1.5t8.5 -11.5l79 -119q3 -5 3 -6q0 -2 -5 -2h-12q-1 0 -8 6l-81 70q-4 3 -8 0l-81 -70q-6 -6 -8 -6h-12q-5 0 -5 2zM30 183q0 90 57 151.5t148 61.5q80 0 130.5 -57.5t50.5 -141.5q0 -94 -53 -153t-144 -59 q-80 0 -134.5 58t-54.5 140zM101 169q0 -62 31.5 -110t86.5 -48q36 0 61.5 17t38.5 46.5t18.5 61t5.5 68.5q0 66 -31 116t-89 50q-122 0 -122 -201z" />
<glyph unicode="&#xf5;" horiz-adv-x="446" d="M125 498q0 7 8 26q11 27 27 41t29 14q16 0 46 -19t42 -19q22 0 36 35q2 7 12 7q7 0 7 -2q0 -8 -7 -27q-22 -58 -60 -58q-18 0 -45 18.5t-43 18.5q-23 0 -34 -31q-2 -6 -11 -6q-7 0 -7 2zM30 183q0 90 57 151.5t148 61.5q80 0 130.5 -57.5t50.5 -141.5q0 -94 -53 -153 t-144 -59q-80 0 -134.5 58t-54.5 140zM101 169q0 -62 31.5 -110t86.5 -48q36 0 61.5 17t38.5 46.5t18.5 61t5.5 68.5q0 66 -31 116t-89 50q-122 0 -122 -201z" />
<glyph unicode="&#xf6;" horiz-adv-x="446" d="M99 533q0 25 19.5 40t40.5 15q18 0 30 -10t12 -30q0 -24 -19 -40t-42 -16q-17 0 -29 10.5t-12 30.5zM259 533q0 25 19.5 40t40.5 15q18 0 30 -10t12 -30q0 -24 -19 -40t-42 -16q-17 0 -29 10.5t-12 30.5zM30 183q0 90 57 151.5t148 61.5q80 0 130.5 -57.5t50.5 -141.5 q0 -94 -53 -153t-144 -59q-80 0 -134.5 58t-54.5 140zM101 169q0 -62 31.5 -110t86.5 -48q36 0 61.5 17t38.5 46.5t18.5 61t5.5 68.5q0 66 -31 116t-89 50q-122 0 -122 -201z" />
<glyph unicode="&#xf7;" horiz-adv-x="527" d="M31 212q0 8 0.5 11.5t4.5 6t13 2.5h431q8 0 11.5 -2.5t4 -6t0.5 -12.5q0 -14 -3 -18.5t-18 -4.5h-427q-9 0 -12.5 3t-4 6.5t-0.5 14.5zM212 320q0 16 12.5 28.5t29.5 12.5q16 0 28 -11.5t12 -28.5t-12 -29t-29 -12t-29 12t-12 28zM217 101q0 16 12 28t29 12 q16 0 28.5 -12.5t12.5 -28.5t-11.5 -28t-28.5 -12t-29.5 12t-12.5 29z" />
<glyph unicode="&#xf8;" horiz-adv-x="446" d="M30 183q0 90 57 151.5t148 61.5q35 0 67 -13q8 -3 10 0q1 1 3 4l38 65q1 2 4 2q5 0 12 -5t6 -7l-39 -67q-4 -7 0 -10q38 -26 59 -70.5t21 -97.5q0 -94 -53 -153t-144 -59q-47 0 -88 22q-5 3 -8 -2l-38 -66q-2 -2 -3 -2q-4 0 -11 5t-7 7l1 3l38 66q3 5 -4 11 q-69 58 -69 154zM101 169q0 -54 25 -99q3 -7 8 2l154 267q4 6 -4 11q-28 20 -61 20q-122 0 -122 -201zM146 44q0 -1 3 -4q29 -29 70 -29q36 0 61.5 17t38.5 46.5t18.5 61t5.5 68.5q0 69 -31 116q-1 1 -2 3q0 1 -1 1l-4 -4l-156 -270q-3 -4 -3 -6z" />
<glyph unicode="&#xf9;" horiz-adv-x="510" d="M138 582q0 13 9.5 21.5t26.5 8.5q21 0 30 -25l49 -130q2 -4 2 -6t-4 -2h-16q-3 0 -8 6l-82 107q-7 10 -7 20zM15 360q0 4 3 11q2 6 4 7t11 2q88 4 110 4q7 0 7 -6v-272q0 -67 111 -67q91 0 91 16v118q0 186 -8 186q-1 0 -25.5 -1t-26.5 -1q-4 0 -4 4q2 17 6 19q2 1 7 1 q95 5 113 5q7 0 7 -6q-1 -239 -1 -301q0 -37 3.5 -48t15.5 -11q2 0 21 3t20 3q5 0 5 -10t-2 -12t-12 -4q-102 -15 -104 -15q-10 0 -11 13q-3 38 -4 38l-26 -12q-25 -12 -64.5 -23.5t-72.5 -11.5q-34 0 -57 11t-33.5 31t-14.5 41t-4 50v157q0 77 -12 77q-1 0 -24 -0.5 t-25 -0.5q-4 0 -4 5z" />
<glyph unicode="&#xfa;" horiz-adv-x="510" d="M225 451q0 2 2 6l49 130q9 25 30 25q17 0 26.5 -8.5t9.5 -21.5q0 -10 -7 -20l-82 -107q-5 -6 -8 -6h-16q-4 0 -4 2zM15 360q0 4 3 11q2 6 4 7t11 2q88 4 110 4q7 0 7 -6v-272q0 -67 111 -67q91 0 91 16v118q0 186 -8 186q-1 0 -25.5 -1t-26.5 -1q-4 0 -4 4q2 17 6 19 q2 1 7 1q95 5 113 5q7 0 7 -6q-1 -239 -1 -301q0 -37 3.5 -48t15.5 -11q2 0 21 3t20 3q5 0 5 -10t-2 -12t-12 -4q-102 -15 -104 -15q-10 0 -11 13q-3 38 -4 38l-26 -12q-25 -12 -64.5 -23.5t-72.5 -11.5q-34 0 -57 11t-33.5 31t-14.5 41t-4 50v157q0 77 -12 77 q-1 0 -24 -0.5t-25 -0.5q-4 0 -4 5z" />
<glyph unicode="&#xfb;" horiz-adv-x="510" d="M130 461q0 1 3 6l79 119q6 10 8.5 11.5t9.5 1.5h20q7 0 9.5 -1.5t8.5 -11.5l79 -119q3 -5 3 -6q0 -2 -5 -2h-12q-1 0 -8 6l-81 70q-4 3 -8 0l-81 -70q-6 -6 -8 -6h-12q-5 0 -5 2zM15 360q0 4 3 11q2 6 4 7t11 2q88 4 110 4q7 0 7 -6v-272q0 -67 111 -67q91 0 91 16v118 q0 186 -8 186q-1 0 -25.5 -1t-26.5 -1q-4 0 -4 4q2 17 6 19q2 1 7 1q95 5 113 5q7 0 7 -6q-1 -239 -1 -301q0 -37 3.5 -48t15.5 -11q2 0 21 3t20 3q5 0 5 -10t-2 -12t-12 -4q-102 -15 -104 -15q-10 0 -11 13q-3 38 -4 38l-26 -12q-25 -12 -64.5 -23.5t-72.5 -11.5 q-34 0 -57 11t-33.5 31t-14.5 41t-4 50v157q0 77 -12 77q-1 0 -24 -0.5t-25 -0.5q-4 0 -4 5z" />
<glyph unicode="&#xfc;" horiz-adv-x="510" d="M109 533q0 25 19.5 40t40.5 15q18 0 30 -10t12 -30q0 -24 -19 -40t-42 -16q-17 0 -29 10.5t-12 30.5zM269 533q0 25 19.5 40t40.5 15q18 0 30 -10t12 -30q0 -24 -19 -40t-42 -16q-17 0 -29 10.5t-12 30.5zM15 360q0 4 3 11q2 6 4 7t11 2q88 4 110 4q7 0 7 -6v-272 q0 -67 111 -67q91 0 91 16v118q0 186 -8 186q-1 0 -25.5 -1t-26.5 -1q-4 0 -4 4q2 17 6 19q2 1 7 1q95 5 113 5q7 0 7 -6q-1 -239 -1 -301q0 -37 3.5 -48t15.5 -11q2 0 21 3t20 3q5 0 5 -10t-2 -12t-12 -4q-102 -15 -104 -15q-10 0 -11 13q-3 38 -4 38l-26 -12 q-25 -12 -64.5 -23.5t-72.5 -11.5q-34 0 -57 11t-33.5 31t-14.5 41t-4 50v157q0 77 -12 77q-1 0 -24 -0.5t-25 -0.5q-4 0 -4 5z" />
<glyph unicode="&#xfd;" horiz-adv-x="467" d="M236 451q0 2 2 6l49 130q9 25 30 25q17 0 26.5 -8.5t9.5 -21.5q0 -10 -7 -20l-82 -107q-4 -6 -8 -6h-16q-4 0 -4 2zM25 368q0 6 0.5 8t3.5 4t9 2q8 0 33 -1t41 -1q13 0 46.5 1t41.5 1q9 0 11 -2.5t2 -11.5q0 -13 -12 -13h-19q-26 0 -26 -10q0 -12 31 -97.5t58 -151.5 q16 -40 19 -40t17 40q82 231 82 252q0 7 -31 7h-23q-8 0 -10.5 3t-2.5 10q0 14 14 14q9 0 31.5 -1t32.5 -1q12 0 30 1t25 1q13 0 13 -14q0 -13 -12 -13h-14q-10 0 -13 -10q-38 -105 -133 -342q-1 -3 -7 -19.5t-15.5 -46t-17.5 -51.5q-2 -4 -5.5 -15.5t-5 -14.5t-4.5 -11.5 t-5 -12t-5.5 -11t-7 -12.5t-8 -12.5t-10.5 -14.5t-13 -16q-17 -22 -26 -27q-6 -4 -15 -8q-54 -26 -62 -26q-18 0 -18 20q0 15 19 42q7 11 28 18l22.5 7.5t29.5 11t22 13.5t16 19q44 109 44 121q0 8 -28 77l-72.5 174l-55.5 132q-4 11 -7 13t-14 2h-11q-8 0 -10.5 3t-2.5 10z " />
<glyph unicode="&#xfe;" horiz-adv-x="498" d="M20 645q0 2 2 16q1 6 2 6.5t8 1.5q120 9 123 9q5 0 6 -2.5t1 -12.5q1 -130 1 -321q0 -10 2 -10q1 0 19 14q50 37 108 37q83 0 127 -53t44 -136q0 -81 -57.5 -142t-151.5 -61q-31 0 -66 11l-7.5 2.5t-6.5 2.5t-5 1t-4 -1.5t-1 -4.5l3 -189q2 -67 6 -67h70q8 0 10.5 -3 t2.5 -10q0 -6 -0.5 -8t-3.5 -4t-9 -2q-8 0 -49 1t-57 1q-12 0 -46.5 -1t-50.5 -1q-9 0 -11 2.5t-2 11.5q0 13 12 13h55q3 0 3 160l-1 204q0 417 -9 517q-7 18 -11 19q-3 0 -24.5 -2t-23.5 -2q-8 0 -8 3zM164 52q0 -17 30 -29.5t57 -12.5q66 0 103 55t37 122q0 72 -37 116.5 t-93 44.5q-36 0 -64 -13q-33 -17 -33 -33v-250z" />
<glyph unicode="&#xff;" horiz-adv-x="467" d="M120 533q0 25 19.5 40t40.5 15q18 0 30 -10t12 -30q0 -24 -19 -40t-42 -16q-17 0 -29 10.5t-12 30.5zM280 533q0 25 19.5 40t40.5 15q18 0 30 -10t12 -30q0 -24 -19 -40t-42 -16q-17 0 -29 10.5t-12 30.5zM25 368q0 6 0.5 8t3.5 4t9 2q8 0 33 -1t41 -1q13 0 46.5 1 t41.5 1q9 0 11 -2.5t2 -11.5q0 -13 -12 -13h-19q-26 0 -26 -10q0 -12 31 -97.5t58 -151.5q16 -40 19 -40t17 40q82 231 82 252q0 7 -31 7h-23q-8 0 -10.5 3t-2.5 10q0 14 14 14q9 0 31.5 -1t32.5 -1q12 0 30 1t25 1q13 0 13 -14q0 -13 -12 -13h-14q-10 0 -13 -10 q-38 -105 -133 -342q-1 -3 -7 -19.5t-15.5 -46t-17.5 -51.5q-2 -4 -5.5 -15.5t-5 -14.5t-4.5 -11.5t-5 -12t-5.5 -11t-7 -12.5t-8 -12.5t-10.5 -14.5t-13 -16q-17 -22 -26 -27q-6 -4 -15 -8q-54 -26 -62 -26q-18 0 -18 20q0 15 19 42q7 11 28 18l22.5 7.5t29.5 11t22 13.5 t16 19q44 109 44 121q0 8 -28 77l-72.5 174l-55.5 132q-4 11 -7 13t-14 2h-11q-8 0 -10.5 3t-2.5 10z" />
<glyph unicode="&#x100;" horiz-adv-x="698" d="M269 788v23q0 6 1.5 7t7.5 1h187q5 0 6.5 -1t1.5 -6v-25q0 -6 -1 -7t-7 -1h-187q-7 0 -8 1t-1 8zM30 15q0 9 3 10.5t15 1.5h28q3 0 17.5 30.5t34.5 77.5l39 92l35.5 84.5l19.5 46.5l106 246q4 9 17 25.5t19 30.5q12 27 19 27t9 -7l120 -337l19 -53l21.5 -60.5l21 -58.5 l21 -56.5t17.5 -44t15 -32.5t8 -11h32q8 0 9.5 -2t1.5 -11q0 -11 -2 -14t-9 -3q-6 0 -39.5 1.5t-50.5 1.5q-16 0 -58 -1.5t-53 -1.5q-10 0 -12 2.5t-2 15.5q0 9 3 10.5t15 1.5h54q1 0 1 3q0 30 -70 226q-6 17 -10 18q-3 1 -10 1h-201q-5 0 -8 -0.5t-5 -1t-4 -3t-2 -3t-2 -5 t-2 -5.5q-81 -206 -81 -227q0 -3 1 -3h78q8 0 9.5 -2t1.5 -11q0 -11 -2 -14t-9 -3q-11 0 -43.5 1.5t-48.5 1.5t-39 -1.5t-34 -1.5q-10 0 -12 2.5t-2 15.5zM231 305q0 -6 16 -6h179q13 0 13 5q0 1 -4 13l-83 243q-6 19 -8 19t-10 -19l-98 -240q-5 -12 -5 -15z" />
<glyph unicode="&#x101;" horiz-adv-x="419" d="M99 518v23q0 6 1.5 7t7.5 1h187q5 0 6.5 -1t1.5 -6v-25q0 -6 -1 -7t-7 -1h-187q-7 0 -8 1t-1 8zM35 71q0 42 37 74t83.5 48t103.5 26q8 1 8 16q0 27 -0.5 42t-5 36.5t-13.5 32.5t-26 19.5t-42 8.5q-18 0 -31 -5q-20 -9 -25.5 -22t-6.5 -45q0 -16 -7 -21q-11 -8 -30.5 -18 t-22.5 -10q-8 0 -8 15q0 57 49 94t103 37q72 0 101.5 -33.5t29.5 -97.5q0 -29 -3 -113t-3 -91q0 -30 22 -30q2 0 19.5 12t18.5 12q3 0 8 -5.5t5 -9.5q0 -5 -65 -49q-15 -11 -26 -11q-10 0 -17.5 6t-11.5 14t-6.5 16t-3.5 14l-1 6q-1 0 -4 -2t-8 -5t-8 -5q-68 -41 -115 -41 q-46 0 -72 23t-26 62zM105 99q0 -26 17.5 -47.5t47.5 -21.5q20 0 44 6t38.5 12.5t14.5 9.5v134q0 11 -6 11q-14 0 -62 -15q-94 -30 -94 -89z" />
<glyph unicode="&#x102;" horiz-adv-x="698" d="M268 832q0 6 1 6h17q1 0 2 -6t4.5 -15t10.5 -17.5t24.5 -14.5t43.5 -6t43.5 6t24.5 14.5t10.5 17.5t4.5 15t2 6h17q1 0 1 -6q0 -45 -26 -74t-77 -29t-77 29t-26 74zM30 15q0 9 3 10.5t15 1.5h28q3 0 17.5 30.5t34.5 77.5l39 92l35.5 84.5l19.5 46.5l106 246q4 9 17 25.5 t19 30.5q12 27 19 27t9 -7l120 -337l19 -53l21.5 -60.5l21 -58.5l21 -56.5t17.5 -44t15 -32.5t8 -11h32q8 0 9.5 -2t1.5 -11q0 -11 -2 -14t-9 -3q-6 0 -39.5 1.5t-50.5 1.5q-16 0 -58 -1.5t-53 -1.5q-10 0 -12 2.5t-2 15.5q0 9 3 10.5t15 1.5h54q1 0 1 3q0 30 -70 226 q-6 17 -10 18q-3 1 -10 1h-201q-5 0 -8 -0.5t-5 -1t-4 -3t-2 -3t-2 -5t-2 -5.5q-81 -206 -81 -227q0 -3 1 -3h78q8 0 9.5 -2t1.5 -11q0 -11 -2 -14t-9 -3q-11 0 -43.5 1.5t-48.5 1.5t-39 -1.5t-34 -1.5q-10 0 -12 2.5t-2 15.5zM231 305q0 -6 16 -6h179q13 0 13 5q0 1 -4 13 l-83 243q-6 19 -8 19t-10 -19l-98 -240q-5 -12 -5 -15z" />
<glyph unicode="&#x103;" horiz-adv-x="419" d="M98 579q0 7 1 7h17l1 -4q1 -5 3.5 -13.5t5.5 -15.5q21 -41 75 -41t75 41q3 7 5.5 15.5t3.5 13.5l1 4h17q1 0 1 -6q0 -48 -26.5 -84.5t-76.5 -36.5q-51 0 -77 36t-26 84zM35 71q0 42 37 74t83.5 48t103.5 26q8 1 8 16q0 27 -0.5 42t-5 36.5t-13.5 32.5t-26 19.5t-42 8.5 q-18 0 -31 -5q-20 -9 -25.5 -22t-6.5 -45q0 -16 -7 -21q-11 -8 -30.5 -18t-22.5 -10q-8 0 -8 15q0 57 49 94t103 37q72 0 101.5 -33.5t29.5 -97.5q0 -29 -3 -113t-3 -91q0 -30 22 -30q2 0 19.5 12t18.5 12q3 0 8 -5.5t5 -9.5q0 -5 -65 -49q-15 -11 -26 -11q-10 0 -17.5 6 t-11.5 14t-6.5 16t-3.5 14l-1 6q-1 0 -4 -2t-8 -5t-8 -5q-68 -41 -115 -41q-46 0 -72 23t-26 62zM105 99q0 -26 17.5 -47.5t47.5 -21.5q20 0 44 6t38.5 12.5t14.5 9.5v134q0 11 -6 11q-14 0 -62 -15q-94 -30 -94 -89z" />
<glyph unicode="&#x104;" horiz-adv-x="698" d="M30 15q0 9 3 10.5t15 1.5h28q4 0 23.5 44l60 140l62.5 147l106 246q4 9 17 25.5t19 30.5q12 27 19 27t9 -7l120 -337l19 -53l21.5 -60.5l21 -58.5l21 -56.5t17.5 -44t15 -32.5t8 -11h32q8 0 9.5 -2t1.5 -11q0 -11 -2 -14t-9 -3q-6 0 -39.5 1.5t-50.5 1.5q-4 0 -8 -4 q-84 -86 -84 -163q0 -33 20 -56.5t44 -23.5q23 0 43 11t31 22l11 11q1 0 6 -6t5 -7q0 -3 -15 -19t-47.5 -34t-68.5 -18q-32 0 -62.5 29.5t-30.5 63.5q0 12 1.5 23.5t6.5 23.5t9 20.5t13.5 21l14.5 19.5t18 20.5l18.5 19l22 21.5t22.5 21q3 3 -1 3q-58 -2 -80 -2 q-10 0 -12 2.5t-2 15.5q0 9 3 10.5t15 1.5h54q1 0 1 3q0 30 -70 226q-6 17 -10 18q-3 1 -10 1h-201q-5 0 -8 -0.5t-5 -1t-4 -3t-2 -3t-2 -5t-2 -5.5q-81 -206 -81 -227q0 -3 1 -3h78q8 0 9.5 -2t1.5 -11q0 -11 -2 -14t-9 -3q-11 0 -43.5 1.5t-48.5 1.5t-39 -1.5t-34 -1.5 q-10 0 -12 2.5t-2 15.5zM231 305q0 -6 16 -6h179q13 0 13 5q0 1 -4 13l-83 243q-6 19 -8 19t-10 -19l-98 -240q-5 -12 -5 -15z" />
<glyph unicode="&#x105;" horiz-adv-x="419" d="M35 71q0 42 37 74t83.5 48t103.5 26q8 1 8 16q0 27 -0.5 42t-5 36.5t-13.5 32.5t-26 19.5t-42 8.5q-18 0 -31 -5q-20 -9 -25.5 -22t-6.5 -45q0 -16 -7 -21q-11 -8 -30.5 -18t-22.5 -10q-8 0 -8 15q0 57 49 94t103 37q72 0 101.5 -33.5t29.5 -97.5q0 -29 -3 -113t-3 -91 q0 -30 22 -30q2 0 19.5 12t18.5 12q3 0 8 -5.5t5 -9.5q0 -1 -47 -37q-28 -21 -41.5 -32.5t-38.5 -36t-36.5 -50.5t-11.5 -54q0 -33 20 -56.5t44 -23.5q23 0 43 11t31 22l11 11q1 0 6 -6t5 -7q0 -3 -15 -19t-47.5 -34t-68.5 -18q-32 0 -62.5 29.5t-30.5 63.5q0 74 126 173 l7 7l-7 7q-7 7 -11 18.5t-5 19.5t-2 8t-4 -2t-8 -5t-8 -5q-68 -41 -115 -41q-46 0 -72 23t-26 62zM105 99q0 -26 17.5 -47.5t47.5 -21.5q20 0 44 6t38.5 12.5t14.5 9.5v134q0 11 -6 11q-14 0 -62 -15q-94 -30 -94 -89z" />
<glyph unicode="&#x106;" horiz-adv-x="731" d="M385 731q0 2 2 6l53 85q16 25 34 25q30 0 30 -25q0 -16 -14 -27l-72 -60l-8 -6h-21q-4 0 -4 2zM45 335q0 154 101.5 249.5t255.5 95.5q19 0 37.5 -2t34.5 -5.5t29.5 -8t27 -10.5l23 -10.5t19.5 -11l15 -10l12.5 -8.5t8.5 -6q5 -4 6.5 -5t5 -2t4.5 1.5t1 8.5v27q0 9 2 11 t13 2q12 0 16 -2t4 -11q0 -5 -2 -84t-2 -109q0 -9 -3 -12.5t-13 -3.5q-13 0 -16 2.5t-3 9.5q0 1 2 43t2 47t-11 18t-32.5 30t-48.5 33t-64.5 27t-74.5 11q-108 0 -178 -90t-70 -227q0 -127 81 -218.5t196 -91.5q51 0 99 15t71.5 30.5t24.5 22.5l13 113q1 10 5.5 13t16.5 1 q12 -1 12 -13q0 -13 -16 -133q-1 -10 -36.5 -30.5t-97.5 -39t-120 -18.5q-71 0 -133 21.5t-111.5 63t-78 110.5t-28.5 156z" />
<glyph unicode="&#x107;" horiz-adv-x="412" d="M216 451q0 2 2 6l49 130q9 25 30 25q17 0 26.5 -8.5t9.5 -21.5q0 -10 -7 -20l-82 -107q-4 -6 -8 -6h-16q-4 0 -4 2zM35 177q0 104 63 163t143 59q50 0 91.5 -29t41.5 -67q0 -13 -10 -20q-17 -13 -30 -13t-17 11q-2 5 -8.5 25.5t-10 27t-12 18.5t-21 16t-30.5 4 q-60 0 -97.5 -53t-37.5 -117q0 -68 40.5 -118t113.5 -50q30 0 58.5 7.5t44.5 15t18 7.5q7 0 7 -8q0 -2 -6.5 -9t-20.5 -17t-32 -18.5t-44.5 -15t-54.5 -6.5q-87 0 -138 51t-51 136z" />
<glyph unicode="&#x108;" horiz-adv-x="731" d="M284 731l4 6l79 89q12 13 16 13h24q4 0 16 -13l79 -89q4 -4 4 -6t-6 -2h-9q-1 0 -11 6l-81 45q-4 2 -8 0l-81 -45q-10 -6 -11 -6h-9q-6 0 -6 2zM45 335q0 154 101.5 249.5t255.5 95.5q19 0 37.5 -2t34.5 -5.5t29.5 -8t27 -10.5l23 -10.5t19.5 -11l15 -10l12.5 -8.5 t8.5 -6q5 -4 6.5 -5t5 -2t4.5 1.5t1 8.5v27q0 9 2 11t13 2q12 0 16 -2t4 -11q0 -5 -2 -84t-2 -109q0 -9 -3 -12.5t-13 -3.5q-13 0 -16 2.5t-3 9.5q0 1 2 43t2 47t-11 18t-32.5 30t-48.5 33t-64.5 27t-74.5 11q-108 0 -178 -90t-70 -227q0 -127 81 -218.5t196 -91.5 q51 0 99 15t71.5 30.5t24.5 22.5l13 113q1 10 5.5 13t16.5 1q12 -1 12 -13q0 -13 -16 -133q-1 -10 -36.5 -30.5t-97.5 -39t-120 -18.5q-71 0 -133 21.5t-111.5 63t-78 110.5t-28.5 156z" />
<glyph unicode="&#x109;" horiz-adv-x="412" d="M121 461q0 1 3 6l79 119q6 10 8.5 11.5t9.5 1.5h20q7 0 9.5 -1.5t8.5 -11.5l79 -119q3 -5 3 -6q0 -2 -5 -2h-12l-8 6l-81 70q-4 3 -8 0l-81 -70q-6 -6 -8 -6h-12q-5 0 -5 2zM35 177q0 104 63 163t143 59q50 0 91.5 -29t41.5 -67q0 -13 -10 -20q-17 -13 -30 -13t-17 11 q-2 5 -8.5 25.5t-10 27t-12 18.5t-21 16t-30.5 4q-60 0 -97.5 -53t-37.5 -117q0 -68 40.5 -118t113.5 -50q30 0 58.5 7.5t44.5 15t18 7.5q7 0 7 -8q0 -2 -6.5 -9t-20.5 -17t-32 -18.5t-44.5 -15t-54.5 -6.5q-87 0 -138 51t-51 136z" />
<glyph unicode="&#x10a;" horiz-adv-x="731" d="M344 783q0 25 19.5 40t40.5 15q18 0 30 -10t12 -30q0 -24 -19 -40t-42 -16q-17 0 -29 10.5t-12 30.5zM45 335q0 154 101.5 249.5t255.5 95.5q19 0 37.5 -2t34.5 -5.5t29.5 -8t27 -10.5l23 -10.5t19.5 -11l15 -10l12.5 -8.5t8.5 -6q5 -4 6.5 -5t5 -2t4.5 1.5t1 8.5v27 q0 9 2 11t13 2q12 0 16 -2t4 -11q0 -5 -2 -84t-2 -109q0 -9 -3 -12.5t-13 -3.5q-13 0 -16 2.5t-3 9.5q0 1 2 43t2 47t-11 18t-32.5 30t-48.5 33t-64.5 27t-74.5 11q-108 0 -178 -90t-70 -227q0 -127 81 -218.5t196 -91.5q51 0 99 15t71.5 30.5t24.5 22.5l13 113q1 10 5.5 13 t16.5 1q12 -1 12 -13q0 -13 -16 -133q-1 -10 -36.5 -30.5t-97.5 -39t-120 -18.5q-71 0 -133 21.5t-111.5 63t-78 110.5t-28.5 156z" />
<glyph unicode="&#x10b;" horiz-adv-x="412" d="M180 533q0 25 19.5 40t40.5 15q18 0 30 -10t12 -30q0 -24 -19 -40t-42 -16q-17 0 -29 10.5t-12 30.5zM35 177q0 104 63 163t143 59q50 0 91.5 -29t41.5 -67q0 -13 -10 -20q-17 -13 -30 -13t-17 11q-2 5 -8.5 25.5t-10 27t-12 18.5t-21 16t-30.5 4q-60 0 -97.5 -53 t-37.5 -117q0 -68 40.5 -118t113.5 -50q30 0 58.5 7.5t44.5 15t18 7.5q7 0 7 -8q0 -2 -6.5 -9t-20.5 -17t-32 -18.5t-44.5 -15t-54.5 -6.5q-87 0 -138 51t-51 136z" />
<glyph unicode="&#x10c;" horiz-adv-x="731" d="M284 837q0 2 6 2h9q1 0 11 -6l81 -45q4 -2 8 0l81 45q10 6 11 6h9q6 0 6 -2l-4 -6l-79 -89q-12 -13 -16 -13h-24q-4 0 -16 13l-79 89q-4 4 -4 6zM45 335q0 154 101.5 249.5t255.5 95.5q19 0 37.5 -2t34.5 -5.5t29.5 -8t27 -10.5l23 -10.5t19.5 -11l15 -10l12.5 -8.5 t8.5 -6q5 -4 6.5 -5t5 -2t4.5 1.5t1 8.5v27q0 9 2 11t13 2q12 0 16 -2t4 -11q0 -5 -2 -84t-2 -109q0 -9 -3 -12.5t-13 -3.5q-13 0 -16 2.5t-3 9.5q0 1 2 43t2 47t-11 18t-32.5 30t-48.5 33t-64.5 27t-74.5 11q-108 0 -178 -90t-70 -227q0 -127 81 -218.5t196 -91.5 q51 0 99 15t71.5 30.5t24.5 22.5l13 113q1 10 5.5 13t16.5 1q12 -1 12 -13q0 -13 -16 -133q-1 -10 -36.5 -30.5t-97.5 -39t-120 -18.5q-71 0 -133 21.5t-111.5 63t-78 110.5t-28.5 156z" />
<glyph unicode="&#x10d;" horiz-adv-x="412" d="M121 597q0 2 5 2h12l8 -6l81 -70q4 -3 8 0l81 70q6 6 8 6h12q5 0 5 -2q0 -1 -3 -6l-79 -119q-6 -10 -8.5 -11.5t-9.5 -1.5h-20q-7 0 -9.5 1.5t-8.5 11.5l-79 119q-3 5 -3 6zM35 177q0 104 63 163t143 59q50 0 91.5 -29t41.5 -67q0 -13 -10 -20q-17 -13 -30 -13t-17 11 q-2 5 -8.5 25.5t-10 27t-12 18.5t-21 16t-30.5 4q-60 0 -97.5 -53t-37.5 -117q0 -68 40.5 -118t113.5 -50q30 0 58.5 7.5t44.5 15t18 7.5q7 0 7 -8q0 -2 -6.5 -9t-20.5 -17t-32 -18.5t-44.5 -15t-54.5 -6.5q-87 0 -138 51t-51 136z" />
<glyph unicode="&#x10e;" horiz-adv-x="758" d="M231 837q0 2 6 2h9q1 0 11 -6l81 -45q4 -2 8 0l81 45q10 6 11 6h9q6 0 6 -2l-4 -6l-79 -89q-12 -13 -16 -13h-24q-4 0 -16 13l-79 89q-4 4 -4 6zM35 10q0 11 3 13t14 2h66q4 0 8.5 200t4.5 338q0 78 -2 78l-70 -2q-5 0 -7.5 0.5t-4 3t-1.5 8.5v7.5t1.5 5t4 3t7.5 0.5 q1 0 11.5 -0.5t26.5 -0.5h31q41 0 114.5 6t89.5 6q166 0 273.5 -93t107.5 -250q0 -105 -49.5 -183.5t-126.5 -116.5t-169 -39q-32 0 -97 2t-98 2q-16 0 -70 -2t-57 -2q-8 0 -9.5 2t-1.5 12zM213 86q0 -59 2 -60q6 -4 57 -4q69 0 124.5 14t90 34.5t60 53t37.5 59t19 63.5 t8 56t1 46q0 73 -35.5 141.5t-106.5 115.5t-159 47q-67 0 -90 -6q-7 -2 -7 -146q-1 -138 -1 -414z" />
<glyph unicode="&#x10f;" horiz-adv-x="499" d="M458 491q0 2 2.5 27t5.5 60.5t5 54.5q3 33 35 33t32 -29q0 -5 -3 -13l-51 -124q-6 -12 -8 -12h-15q-3 0 -3 3zM30 181q0 85 58.5 141.5t144.5 56.5q17 0 33.5 -2.5t28.5 -6.5t21 -8t14 -6l6 -3q6 0 6 18q0 48 -2 113.5t-4.5 112t-3.5 46.5t-32 -4.5t-35 -4.5t-5 2t1 13 q2 12 8 13q24 3 56.5 7.5t52.5 7.5t22 3q7 0 8.5 -3.5t1.5 -19.5q0 -7 -1.5 -62.5t-3 -164.5t-1.5 -246q0 -48 2 -120q1 -29 6 -39t17 -10q4 0 34 4q6 1 8.5 0t2.5 -8q0 -8 -0.5 -11t-3 -5t-9.5 -3l-115 -15q-6 0 -6 9q0 1 0.5 17.5t0.5 18.5q0 8 -2.5 9t-12.5 -5 q-63 -39 -120 -39q-75 0 -125.5 47t-50.5 147zM103 188q0 -74 37.5 -119t114.5 -45q23 0 55 10.5t32 22.5v250q0 12 -31 32t-66 20q-64 0 -103 -50.5t-39 -120.5z" />
<glyph unicode="&#x110;" horiz-adv-x="758" d="M35 10q0 11 3 13t14 2h66q5 0 11 298q0 8 -7 8h-79q-2 0 -2.5 12t2.5 12h76q10 0 10 10q2 148 2 198q0 78 -2 78l-70 -2q-5 0 -7.5 0.5t-4 3t-1.5 8.5v7.5t1.5 5t4 3t7.5 0.5q1 0 11.5 -0.5t26.5 -0.5h31q41 0 114.5 6t89.5 6q166 0 273.5 -93t107.5 -250 q0 -105 -49.5 -183.5t-126.5 -116.5t-169 -39q-32 0 -97 2t-98 2q-16 0 -70 -2t-57 -2q-8 0 -9.5 2t-1.5 12zM213 86q0 -59 2 -60q6 -4 57 -4q69 0 124.5 14t90 34.5t60 53t37.5 59t19 63.5t8 56t1 46q0 73 -35.5 141.5t-106.5 115.5t-159 47q-67 0 -90 -6q-7 -2 -7 -146 q0 -22 -0.5 -67t-0.5 -68q0 -7 1.5 -8.5t9.5 -1.5h208q3 0 3 -12t-3 -12h-212q-7 0 -7 -8v-237z" />
<glyph unicode="&#x111;" horiz-adv-x="499" d="M30 181q0 85 58.5 141.5t144.5 56.5q17 0 33.5 -2.5t28.5 -6.5t21 -8t14 -6l6 -3q6 0 6 18q0 36 -2 116q0 6 -9 6h-151q-2 0 -2.5 12t2.5 12h152q5 0 6 1.5t1 7.5q-4 117 -7 117q-1 0 -32 -4.5t-35 -4.5t-5 2t1 13q2 12 8 13q24 3 56.5 7.5t52.5 7.5t22 3q7 0 8.5 -3.5 t1.5 -19.5q0 -6 -0.5 -23t-1.5 -46.5t-1 -61.5q0 -9 6 -9h58q3 0 3 -12t-3 -12h-58q-7 0 -7 -6q-2 -146 -2 -303q0 -48 2 -120q1 -29 6 -39t17 -10q4 0 34 4q6 1 8.5 0t2.5 -8q0 -8 -0.5 -11t-3 -5t-9.5 -3l-115 -15q-6 0 -6 9q0 1 0.5 17.5t0.5 18.5q0 8 -2.5 9t-12.5 -5 q-63 -39 -120 -39q-75 0 -125.5 47t-50.5 147zM103 188q0 -74 37.5 -119t114.5 -45q23 0 55 10.5t32 22.5v250q0 12 -31 32t-66 20q-64 0 -103 -50.5t-39 -120.5z" />
<glyph unicode="&#x112;" horiz-adv-x="605" d="M214 788v23q0 6 1.5 7t7.5 1h187q6 0 7 -1t1 -6v-25q0 -6 -1 -7t-7 -1h-187q-7 0 -8 1t-1 8zM40 15q0 9 2.5 10.5t14.5 1.5h61q7 0 7 75v96q0 31 -0.5 72t-1 78t-1 69.5t-1 53t-0.5 21.5q0 144 -11 144h-43q-7 0 -10.5 0.5t-6 4t-2.5 10.5q0 14 12 14l43 -1q43 -2 64 -2 q28 0 128.5 1.5t120.5 1.5q47 0 56.5 1.5t10.5 10.5v1q1 12 13 12q11 0 14 -2t3 -9q0 -2 -2 -43t-2 -87q0 -6 -3 -8t-13 -2q-15 0 -15 14q0 2 1.5 38.5t1.5 39.5q0 7 -272 7q-7 0 -7 -128q0 -42 2 -142q0 -10 1.5 -13t10.5 -3h167q55 0 55 16v50q0 9 17 9q14 0 14 -8 q0 -1 -1 -29t-1 -49t1 -50t1 -33q0 -8 -13 -8q-18 0 -18 9v46q0 7 -2 10t-15 6.5t-38 3.5h-163q-12 0 -14 -2t-2 -13q6 -276 12 -276q27 0 68 0.5l79.5 1t73.5 0.5t57 0.5t23 0.5q12 0 15 3t4 20q1 14 3 87q0 8 14 8q17 0 17 -9q0 -28 -1.5 -77t-1.5 -61q0 -11 -22 -11 q-11 0 -182.5 1.5t-187.5 1.5t-63.5 -1.5t-58.5 -1.5q-10 0 -11.5 2.5t-1.5 15.5z" />
<glyph unicode="&#x113;" horiz-adv-x="424" d="M126 518v23q0 6 1.5 7t7.5 1h187q6 0 7 -1t1 -6v-25q0 -6 -1 -7t-7 -1h-187q-7 0 -8 1t-1 8zM30 182q0 91 57 152.5t147 61.5q71 0 110 -46t39 -113q0 -5 -20.5 -8.5t-33.5 -3.5q-6 0 -113 2.5t-111 2.5q-5 0 -5 -36q0 -76 44.5 -120.5t104.5 -44.5q22 0 43.5 6.5 t36 16.5t25.5 19.5t18 16.5l6 6q2 0 9 -6.5t7 -8.5q0 -5 -21 -26.5t-64 -44.5t-88 -23q-91 0 -141 53.5t-50 143.5zM105 255q0 -8 12 -8q57 0 157 4q40 1 40 4q0 65 -29.5 92t-62.5 27q-46 0 -80 -38.5t-37 -80.5z" />
<glyph unicode="&#x114;" horiz-adv-x="605" d="M213 832q0 6 1 6h17q1 0 2 -6t4.5 -15t10.5 -17.5t24.5 -14.5t43.5 -6t43.5 6t24.5 14.5t10.5 17.5t4.5 15t2 6h17q1 0 1 -6q0 -45 -26 -74t-77 -29t-77 29t-26 74zM40 15q0 9 2.5 10.5t14.5 1.5h61q7 0 7 75v96q0 31 -0.5 72t-1 78t-1 69.5t-1 53t-0.5 21.5 q0 144 -11 144h-43q-7 0 -10.5 0.5t-6 4t-2.5 10.5q0 14 12 14l43 -1q43 -2 64 -2q28 0 128.5 1.5t120.5 1.5q47 0 56.5 1.5t10.5 10.5v1q1 12 13 12q11 0 14 -2t3 -9q0 -2 -2 -43t-2 -87q0 -6 -3 -8t-13 -2q-15 0 -15 14q0 2 1.5 38.5t1.5 39.5q0 7 -272 7q-7 0 -7 -128 q0 -42 2 -142q0 -10 1.5 -13t10.5 -3h167q55 0 55 16v50q0 9 17 9q14 0 14 -8q0 -1 -1 -29t-1 -49t1 -50t1 -33q0 -8 -13 -8q-18 0 -18 9v46q0 7 -2 10t-15 6.5t-38 3.5h-163q-12 0 -14 -2t-2 -13q6 -276 12 -276q27 0 68 0.5l79.5 1t73.5 0.5t57 0.5t23 0.5q12 0 15 3t4 20 q1 14 3 87q0 8 14 8q17 0 17 -9q0 -28 -1.5 -77t-1.5 -61q0 -11 -22 -11q-11 0 -182.5 1.5t-187.5 1.5t-63.5 -1.5t-58.5 -1.5q-10 0 -11.5 2.5t-1.5 15.5z" />
<glyph unicode="&#x115;" horiz-adv-x="424" d="M125 579q0 7 1 7h17l1 -4q1 -5 3.5 -13.5t5.5 -15.5q21 -41 75 -41t75 41q3 7 5.5 15.5t3.5 13.5l1 4h17q1 0 1 -6q0 -48 -26.5 -84.5t-76.5 -36.5q-51 0 -77 36t-26 84zM30 182q0 91 57 152.5t147 61.5q71 0 110 -46t39 -113q0 -5 -20.5 -8.5t-33.5 -3.5q-6 0 -113 2.5 t-111 2.5q-5 0 -5 -36q0 -76 44.5 -120.5t104.5 -44.5q22 0 43.5 6.5t36 16.5t25.5 19.5t18 16.5l6 6q2 0 9 -6.5t7 -8.5q0 -5 -21 -26.5t-64 -44.5t-88 -23q-91 0 -141 53.5t-50 143.5zM105 255q0 -8 12 -8q57 0 157 4q40 1 40 4q0 65 -29.5 92t-62.5 27q-46 0 -80 -38.5 t-37 -80.5z" />
<glyph unicode="&#x116;" horiz-adv-x="605" d="M265 783q0 25 19.5 40t40.5 15q18 0 30 -10t12 -30q0 -24 -19 -40t-42 -16q-17 0 -29 10.5t-12 30.5zM40 15q0 9 2.5 10.5t14.5 1.5h61q7 0 7 75v96q0 31 -0.5 72t-1 78t-1 69.5t-1 53t-0.5 21.5q0 144 -11 144h-43q-7 0 -10.5 0.5t-6 4t-2.5 10.5q0 14 12 14l43 -1 q43 -2 64 -2q28 0 128.5 1.5t120.5 1.5q47 0 56.5 1.5t10.5 10.5v1q1 12 13 12q11 0 14 -2t3 -9q0 -2 -2 -43t-2 -87q0 -6 -3 -8t-13 -2q-15 0 -15 14q0 2 1.5 38.5t1.5 39.5q0 7 -272 7q-7 0 -7 -128q0 -42 2 -142q0 -10 1.5 -13t10.5 -3h167q55 0 55 16v50q0 9 17 9 q14 0 14 -8q0 -1 -1 -29t-1 -49t1 -50t1 -33q0 -8 -13 -8q-18 0 -18 9v46q0 7 -2 10t-15 6.5t-38 3.5h-163q-12 0 -14 -2t-2 -13q6 -276 12 -276q27 0 68 0.5l79.5 1t73.5 0.5t57 0.5t23 0.5q12 0 15 3t4 20q1 14 3 87q0 8 14 8q17 0 17 -9q0 -28 -1.5 -77t-1.5 -61 q0 -11 -22 -11q-11 0 -182.5 1.5t-187.5 1.5t-63.5 -1.5t-58.5 -1.5q-10 0 -11.5 2.5t-1.5 15.5z" />
<glyph unicode="&#x117;" horiz-adv-x="424" d="M177 533q0 25 19.5 40t40.5 15q18 0 30 -10t12 -30q0 -24 -19 -40t-42 -16q-17 0 -29 10.5t-12 30.5zM30 182q0 91 57 152.5t147 61.5q71 0 110 -46t39 -113q0 -5 -20.5 -8.5t-33.5 -3.5q-6 0 -113 2.5t-111 2.5q-5 0 -5 -36q0 -76 44.5 -120.5t104.5 -44.5 q22 0 43.5 6.5t36 16.5t25.5 19.5t18 16.5l6 6q2 0 9 -6.5t7 -8.5q0 -5 -21 -26.5t-64 -44.5t-88 -23q-91 0 -141 53.5t-50 143.5zM105 255q0 -8 12 -8q57 0 157 4q40 1 40 4q0 65 -29.5 92t-62.5 27q-46 0 -80 -38.5t-37 -80.5z" />
<glyph unicode="&#x118;" horiz-adv-x="605" d="M40 15q0 9 2.5 10.5t14.5 1.5h61q7 0 7 75v96q0 31 -0.5 72t-1 78t-1 69.5t-1 53t-0.5 21.5q0 144 -11 144h-43q-7 0 -10.5 0.5t-6 4t-2.5 10.5q0 14 12 14l43 -1q43 -2 64 -2q28 0 128.5 1.5t120.5 1.5q47 0 56.5 1.5t10.5 10.5v1q1 12 13 12q11 0 14 -2t3 -9 q0 -2 -2 -43t-2 -87q0 -6 -3 -8t-13 -2q-15 0 -15 14q0 2 1.5 38.5t1.5 39.5q0 7 -272 7q-7 0 -7 -128q0 -42 2 -142q0 -10 1.5 -13t10.5 -3h167q55 0 55 16v50q0 9 17 9q14 0 14 -8q0 -1 -1 -29t-1 -49t1 -50t1 -33q0 -8 -13 -8q-18 0 -18 9v46q0 7 -2 10t-15 6.5t-38 3.5 h-163q-12 0 -14 -2t-2 -13q6 -276 12 -276q27 0 68 0.5l79.5 1t73.5 0.5t57 0.5t23 0.5q12 0 15 3t4 20q1 14 3 87q0 8 14 8q17 0 17 -9q0 -28 -1.5 -77t-1.5 -61q0 -11 -22 -11h-62q-14 0 -23 -9q-76 -82 -76 -155q0 -33 20 -56.5t44 -23.5q23 0 43 11t31 22l11 11 q1 0 6 -6t5 -7q0 -3 -15 -19t-47.5 -34t-68.5 -18q-32 0 -62.5 29.5t-30.5 63.5q0 21 7.5 42t13.5 33.5t29 37.5t29.5 31.5l38.5 37.5q8 6 7.5 8t-13.5 2l-257 2q-16 0 -63.5 -1.5t-58.5 -1.5q-10 0 -11.5 2.5t-1.5 15.5z" />
<glyph unicode="&#x119;" horiz-adv-x="424" d="M30 182q0 91 57 152.5t147 61.5q71 0 110 -46t39 -113q0 -5 -20.5 -8.5t-33.5 -3.5q-6 0 -113 2.5t-111 2.5q-5 0 -5 -36q0 -76 44.5 -120.5t104.5 -44.5q22 0 43.5 6.5t36 16.5t25.5 19.5t18 16.5l6 6q2 0 9 -6.5t7 -8.5q0 -10 -48 -49q-45 -35 -83.5 -89t-38.5 -108 q0 -33 20 -56.5t44 -23.5q23 0 43 11t31 22l11 11q1 0 6 -6t5 -7q0 -3 -15 -19t-47.5 -34t-68.5 -18q-32 0 -62.5 29.5t-30.5 63.5q0 16 2 29.5t8.5 27t11 22t17.5 23.5l19 21.5t25 25.5l27 27q2 2 9 7q12 9 7 8q-1 0 -3 -1q-31 -11 -62 -11q-91 0 -141 53.5t-50 143.5z M105 255q0 -8 12 -8q57 0 157 4q40 1 40 4q0 65 -29.5 92t-62.5 27q-46 0 -80 -38.5t-37 -80.5z" />
<glyph unicode="&#x11a;" horiz-adv-x="605" d="M205 837q0 2 6 2h9q1 0 11 -6l81 -45q4 -2 8 0l81 45q10 6 11 6h9q6 0 6 -2l-4 -6l-79 -89q-12 -13 -16 -13h-24q-4 0 -16 13l-79 89q-4 4 -4 6zM40 15q0 9 2.5 10.5t14.5 1.5h61q7 0 7 75v96q0 31 -0.5 72t-1 78t-1 69.5t-1 53t-0.5 21.5q0 144 -11 144h-43 q-7 0 -10.5 0.5t-6 4t-2.5 10.5q0 14 12 14l43 -1q43 -2 64 -2q28 0 128.5 1.5t120.5 1.5q47 0 56.5 1.5t10.5 10.5v1q1 12 13 12q11 0 14 -2t3 -9q0 -2 -2 -43t-2 -87q0 -6 -3 -8t-13 -2q-15 0 -15 14q0 2 1.5 38.5t1.5 39.5q0 7 -272 7q-7 0 -7 -128q0 -42 2 -142 q0 -10 1.5 -13t10.5 -3h167q55 0 55 16v50q0 9 17 9q14 0 14 -8q0 -1 -1 -29t-1 -49t1 -50t1 -33q0 -8 -13 -8q-18 0 -18 9v46q0 7 -2 10t-15 6.5t-38 3.5h-163q-12 0 -14 -2t-2 -13q6 -276 12 -276q27 0 68 0.5l79.5 1t73.5 0.5t57 0.5t23 0.5q12 0 15 3t4 20q1 14 3 87 q0 8 14 8q17 0 17 -9q0 -28 -1.5 -77t-1.5 -61q0 -11 -22 -11q-11 0 -182.5 1.5t-187.5 1.5t-63.5 -1.5t-58.5 -1.5q-10 0 -11.5 2.5t-1.5 15.5z" />
<glyph unicode="&#x11b;" horiz-adv-x="424" d="M118 597q0 2 5 2h12q1 0 8 -6l81 -70q4 -3 8 0l81 70q6 6 8 6h12q5 0 5 -2q0 -1 -3 -6l-79 -119q-6 -10 -8.5 -11.5t-9.5 -1.5h-20q-7 0 -9.5 1.5t-8.5 11.5l-79 119q-3 5 -3 6zM30 182q0 91 57 152.5t147 61.5q71 0 110 -46t39 -113q0 -5 -20.5 -8.5t-33.5 -3.5 q-6 0 -113 2.5t-111 2.5q-5 0 -5 -36q0 -76 44.5 -120.5t104.5 -44.5q22 0 43.5 6.5t36 16.5t25.5 19.5t18 16.5l6 6q2 0 9 -6.5t7 -8.5q0 -5 -21 -26.5t-64 -44.5t-88 -23q-91 0 -141 53.5t-50 143.5zM105 255q0 -8 12 -8q57 0 157 4q40 1 40 4q0 65 -29.5 92t-62.5 27 q-46 0 -80 -38.5t-37 -80.5z" />
<glyph unicode="&#x11c;" horiz-adv-x="764" d="M293 731l4 6l79 89q12 13 16 13h24q4 0 16 -13l79 -89q4 -4 4 -6t-6 -2h-9q-1 0 -11 6l-81 45q-4 2 -8 0l-81 -45q-10 -6 -11 -6h-9q-6 0 -6 2zM45 335q0 160 102.5 251t260.5 91q117 0 201 -59q5 -4 6.5 -5t5 -2t4.5 1.5t1 8.5v25q0 9 2 11t13 2q12 0 15.5 -2t3.5 -11 q0 -2 -1.5 -76.5t-1.5 -104.5q0 -9 -3 -12.5t-13 -3.5q-13 0 -16 2.5t-3 9.5q0 1 2 38t2 42t-9.5 17t-29.5 27.5t-45.5 30t-62.5 24.5t-75 10q-109 0 -183 -91t-74 -226q0 -130 79 -225.5t198 -95.5q51 0 91 12t55.5 24.5t16.5 19.5q3 26 3 94q0 58 -10 58h-87q-8 0 -8 12 q0 18 9 18q15 0 64.5 -1.5t67.5 -1.5q17 0 42.5 1.5t47.5 1.5q8 0 8 -14q0 -16 -8 -16h-31q-9 0 -11 -13t-2 -45q0 -12 -0.5 -42t-0.5 -47q0 -10 -39 -31.5t-106.5 -40.5t-129.5 -19q-71 0 -133 21t-111.5 62.5t-78 110.5t-28.5 159z" />
<glyph unicode="&#x11d;" horiz-adv-x="425" d="M95 461q0 1 3 6l79 119q6 10 8.5 11.5t9.5 1.5h20q7 0 9.5 -1.5t8.5 -11.5l79 -119q3 -5 3 -6q0 -2 -5 -2h-12l-8 6l-81 70q-4 3 -8 0l-81 -70q-6 -6 -8 -6h-12q-5 0 -5 2zM15 -173q0 32 25.5 58t54 38.5t57.5 18.5q23 5 23 6t-21 1h-57q-31 0 -40 19q-9 21 -9 48 q0 28 18 32q33 8 76 20q38 11 38 12l-2 1q-3 1 -8 2t-9 2q-127 38 -127 161q0 64 53.5 106.5t122.5 42.5q22 0 42 -5.5t33.5 -12.5t24 -14.5t16.5 -12.5l6 -6q2 0 14.5 4.5t29.5 9t31 5.5q2 0 5.5 -9.5t3.5 -18.5q0 -6 -3 -6q-11 -1 -35 -6t-24 -8q0 -1 3 -10.5t6.5 -26 t3.5 -35.5q0 -60 -29 -95t-86 -57q-27 -11 -173 -52q-4 -1 -4 -9t5.5 -18.5t8.5 -11.5q17 -1 57.5 -2.5t64.5 -3t60.5 -6t59 -12.5t45 -20.5t33.5 -32.5t11 -47q0 -76 -61 -121t-159 -45q-44 0 -85 12t-70.5 39.5t-29.5 65.5zM60 -166q0 -46 44 -72t95 -26q66 0 115 28 t49 88q0 27 -29 46t-67 26.5t-78 7.5q-43 0 -86 -26.5t-43 -71.5zM98 250q0 -65 41 -110t68 -45q33 0 65.5 43t32.5 106q0 59 -27 92.5t-73 33.5q-43 0 -75 -35.5t-32 -84.5z" />
<glyph unicode="&#x11e;" horiz-adv-x="764" d="M301 832q0 6 1 6h17q1 0 2 -6t4.5 -15t10.5 -17.5t24.5 -14.5t43.5 -6t43.5 6t24.5 14.5t10.5 17.5t4.5 15t2 6h17q1 0 1 -6q0 -45 -26 -74t-77 -29t-77 29t-26 74zM45 335q0 160 102.5 251t260.5 91q117 0 201 -59q5 -4 6.5 -5t5 -2t4.5 1.5t1 8.5v25q0 9 2 11t13 2 q12 0 15.5 -2t3.5 -11q0 -2 -1.5 -76.5t-1.5 -104.5q0 -9 -3 -12.5t-13 -3.5q-13 0 -16 2.5t-3 9.5q0 1 2 38t2 42t-9.5 17t-29.5 27.5t-45.5 30t-62.5 24.5t-75 10q-109 0 -183 -91t-74 -226q0 -130 79 -225.5t198 -95.5q51 0 91 12t55.5 24.5t16.5 19.5q3 26 3 94 q0 58 -10 58h-87q-8 0 -8 12q0 18 9 18q15 0 64.5 -1.5t67.5 -1.5q17 0 42.5 1.5t47.5 1.5q8 0 8 -14q0 -16 -8 -16h-31q-9 0 -11 -13t-2 -45q0 -12 -0.5 -42t-0.5 -47q0 -10 -39 -31.5t-106.5 -40.5t-129.5 -19q-71 0 -133 21t-111.5 62.5t-78 110.5t-28.5 159z" />
<glyph unicode="&#x11f;" horiz-adv-x="425" d="M102 579q0 7 1 7h17l1 -4q1 -5 3.5 -13.5t5.5 -15.5q21 -41 75 -41t75 41q3 7 5.5 15.5t3.5 13.5l1 4h17q1 0 1 -6q0 -48 -26.5 -84.5t-76.5 -36.5q-51 0 -77 36t-26 84zM15 -173q0 32 25.5 58t54 38.5t57.5 18.5q23 5 23 6t-21 1h-57q-31 0 -40 19q-9 21 -9 48 q0 28 18 32q33 8 76 20q38 11 38 12l-2 1q-3 1 -8 2t-9 2q-127 38 -127 161q0 64 53.5 106.5t122.5 42.5q22 0 42 -5.5t33.5 -12.5t24 -14.5t16.5 -12.5l6 -6q2 0 14.5 4.5t29.5 9t31 5.5q2 0 5.5 -9.5t3.5 -18.5q0 -6 -3 -6q-11 -1 -35 -6t-24 -8q0 -1 3 -10.5t6.5 -26 t3.5 -35.5q0 -60 -29 -95t-86 -57q-27 -11 -173 -52q-4 -1 -4 -9t5.5 -18.5t8.5 -11.5q17 -1 57.5 -2.5t64.5 -3t60.5 -6t59 -12.5t45 -20.5t33.5 -32.5t11 -47q0 -76 -61 -121t-159 -45q-44 0 -85 12t-70.5 39.5t-29.5 65.5zM60 -166q0 -46 44 -72t95 -26q66 0 115 28 t49 88q0 27 -29 46t-67 26.5t-78 7.5q-43 0 -86 -26.5t-43 -71.5zM98 250q0 -65 41 -110t68 -45q33 0 65.5 43t32.5 106q0 59 -27 92.5t-73 33.5q-43 0 -75 -35.5t-32 -84.5z" />
<glyph unicode="&#x120;" horiz-adv-x="764" d="M353 783q0 25 19.5 40t40.5 15q18 0 30 -10t12 -30q0 -24 -19 -40t-42 -16q-17 0 -29 10.5t-12 30.5zM45 335q0 160 102.5 251t260.5 91q117 0 201 -59q5 -4 6.5 -5t5 -2t4.5 1.5t1 8.5v25q0 9 2 11t13 2q12 0 15.5 -2t3.5 -11q0 -2 -1.5 -76.5t-1.5 -104.5 q0 -9 -3 -12.5t-13 -3.5q-13 0 -16 2.5t-3 9.5q0 1 2 38t2 42t-9.5 17t-29.5 27.5t-45.5 30t-62.5 24.5t-75 10q-109 0 -183 -91t-74 -226q0 -130 79 -225.5t198 -95.5q51 0 91 12t55.5 24.5t16.5 19.5q3 26 3 94q0 58 -10 58h-87q-8 0 -8 12q0 18 9 18q15 0 64.5 -1.5 t67.5 -1.5q17 0 42.5 1.5t47.5 1.5q8 0 8 -14q0 -16 -8 -16h-31q-9 0 -11 -13t-2 -45q0 -12 -0.5 -42t-0.5 -47q0 -10 -39 -31.5t-106.5 -40.5t-129.5 -19q-71 0 -133 21t-111.5 62.5t-78 110.5t-28.5 159z" />
<glyph unicode="&#x121;" horiz-adv-x="425" d="M154 533q0 25 19.5 40t40.5 15q18 0 30 -10t12 -30q0 -24 -19 -40t-42 -16q-17 0 -29 10.5t-12 30.5zM15 -173q0 32 25.5 58t54 38.5t57.5 18.5q23 5 23 6t-21 1h-57q-31 0 -40 19q-9 21 -9 48q0 28 18 32q33 8 76 20q38 11 38 12l-2 1q-3 1 -8 2t-9 2q-127 38 -127 161 q0 64 53.5 106.5t122.5 42.5q22 0 42 -5.5t33.5 -12.5t24 -14.5t16.5 -12.5l6 -6q2 0 14.5 4.5t29.5 9t31 5.5q2 0 5.5 -9.5t3.5 -18.5q0 -6 -3 -6q-11 -1 -35 -6t-24 -8q0 -1 3 -10.5t6.5 -26t3.5 -35.5q0 -60 -29 -95t-86 -57q-27 -11 -173 -52q-4 -1 -4 -9t5.5 -18.5 t8.5 -11.5q17 -1 57.5 -2.5t64.5 -3t60.5 -6t59 -12.5t45 -20.5t33.5 -32.5t11 -47q0 -76 -61 -121t-159 -45q-44 0 -85 12t-70.5 39.5t-29.5 65.5zM60 -166q0 -46 44 -72t95 -26q66 0 115 28t49 88q0 27 -29 46t-67 26.5t-78 7.5q-43 0 -86 -26.5t-43 -71.5zM98 250 q0 -65 41 -110t68 -45q33 0 65.5 43t32.5 106q0 59 -27 92.5t-73 33.5q-43 0 -75 -35.5t-32 -84.5z" />
<glyph unicode="&#x122;" horiz-adv-x="764" d="M362 -225l15 10q15 10 29.5 25.5t14.5 29.5q0 17 -13.5 30t-26.5 21.5t-13 12.5q0 11 18.5 23t24.5 12q12 0 37.5 -19.5t25.5 -33.5q0 -31 -24.5 -62.5t-48 -48t-29.5 -16.5q-4 0 -7 5.5t-3 10.5zM45 335q0 160 102.5 251t260.5 91q117 0 201 -59q5 -4 6.5 -5t5 -2 t4.5 1.5t1 8.5v25q0 9 2 11t13 2q12 0 15.5 -2t3.5 -11q0 -2 -1.5 -76.5t-1.5 -104.5q0 -9 -3 -12.5t-13 -3.5q-13 0 -16 2.5t-3 9.5q0 1 2 38t2 42t-9.5 17t-29.5 27.5t-45.5 30t-62.5 24.5t-75 10q-109 0 -183 -91t-74 -226q0 -130 79 -225.5t198 -95.5q51 0 91 12 t55.5 24.5t16.5 19.5q3 26 3 94q0 58 -10 58h-87q-8 0 -8 12q0 18 9 18q15 0 64.5 -1.5t67.5 -1.5q17 0 42.5 1.5t47.5 1.5q8 0 8 -14q0 -16 -8 -16h-31q-9 0 -11 -13t-2 -45q0 -12 -0.5 -42t-0.5 -47q0 -10 -39 -31.5t-106.5 -40.5t-129.5 -19q-71 0 -133 21t-111.5 62.5 t-78 110.5t-28.5 159z" />
<glyph unicode="&#x123;" horiz-adv-x="425" d="M148 502q0 31 24.5 62.5t48 48t29.5 16.5q4 0 7 -5.5t3 -10.5l-15 -10q-15 -10 -29.5 -25.5t-14.5 -29.5q0 -17 13.5 -30t26.5 -21.5t13 -12.5q0 -11 -18.5 -23t-24.5 -12q-12 0 -37.5 19.5t-25.5 33.5zM15 -173q0 32 25.5 58t54 38.5t57.5 18.5q23 5 23 6t-21 1h-57 q-31 0 -40 19q-9 21 -9 48q0 28 18 32q33 8 76 20q38 11 38 12l-2 1q-3 1 -8 2t-9 2q-127 38 -127 161q0 64 53.5 106.5t122.5 42.5q22 0 42 -5.5t33.5 -12.5t24 -14.5t16.5 -12.5l6 -6q2 0 14.5 4.5t29.5 9t31 5.5q2 0 5.5 -9.5t3.5 -18.5q0 -6 -3 -6q-11 -1 -35 -6t-24 -8 q0 -1 3 -10.5t6.5 -26t3.5 -35.5q0 -60 -29 -95t-86 -57q-27 -11 -173 -52q-4 -1 -4 -9t5.5 -18.5t8.5 -11.5q17 -1 57.5 -2.5t64.5 -3t60.5 -6t59 -12.5t45 -20.5t33.5 -32.5t11 -47q0 -76 -61 -121t-159 -45q-44 0 -85 12t-70.5 39.5t-29.5 65.5zM60 -166q0 -46 44 -72 t95 -26q66 0 115 28t49 88q0 27 -29 46t-67 26.5t-78 7.5q-43 0 -86 -26.5t-43 -71.5zM98 250q0 -65 41 -110t68 -45q33 0 65.5 43t32.5 106q0 59 -27 92.5t-73 33.5q-43 0 -75 -35.5t-32 -84.5z" />
<glyph unicode="&#x124;" horiz-adv-x="791" d="M291 731l4 6l79 89q12 13 16 13h24q4 0 16 -13l79 -89q4 -4 4 -6t-6 -2h-9q-1 0 -11 6l-81 45q-4 2 -8 0l-81 -45q-10 -6 -11 -6h-9q-6 0 -6 2zM40 15q0 9 3 10.5t15 1.5h57q7 0 7 258v102q0 252 -6 252h-43q-8 0 -11 0.5t-6 4t-3 10.5t2.5 10.5t6 4t11.5 0.5 q6 0 39.5 -1.5t50.5 -1.5q16 0 55.5 1.5t50.5 1.5q10 0 12 -2.5t2 -15.5q0 -9 -2.5 -10.5t-15.5 -1.5h-54q-7 0 -7 -134q0 -27 0.5 -73t0.5 -59t2 -15.5t13 -2.5h365q11 0 13 2t2 13v122q0 147 -10 147h-57q-10 0 -12.5 2t-2.5 13t2.5 13t12.5 2q6 0 47 -1.5t58 -1.5 q18 0 55 1.5t40 1.5q10 0 12 -2.5t2 -15.5q0 -9 -2.5 -10.5t-15.5 -1.5h-46q-2 0 -2 -242q0 -370 4 -370h55q8 0 9.5 -2t1.5 -11q0 -11 -2 -14t-9 -3q-11 0 -44.5 1.5t-49.5 1.5t-58 -1.5t-53 -1.5q-10 0 -12 2.5t-2 15.5q0 9 2.5 10.5t15.5 1.5h55q6 0 6 165v124 q0 11 -1 13t-8 2h-374q-8 0 -10 -2.5t-2 -14.5q0 -287 11 -287h65q8 0 9.5 -2t1.5 -11q0 -11 -2 -14t-9 -3q-11 0 -52.5 1.5t-57.5 1.5t-61 -1.5t-56 -1.5q-10 0 -12 2.5t-2 15.5z" />
<glyph unicode="&#x125;" horiz-adv-x="503" d="M18 731l4 6l79 89q12 13 16 13h24q4 0 16 -13l79 -89q4 -4 4 -6t-6 -2h-9q-1 0 -11 6l-81 45q-4 2 -8 0l-81 -45q-10 -6 -11 -6h-9q-6 0 -6 2zM10 640q0 16 5 17q138 18 146 18q5 0 5 -20q-8 -166 -8 -301v-10t2 -3t3 0.5t6 3.5q73 40 133 40q40 0 66.5 -16t38.5 -47 t16 -63t4 -79v-143q0 -8 1.5 -10t9.5 -2h26q14 0 14 -13q0 -14 -14 -14q-8 0 -31.5 1t-39.5 1q-12 0 -41 -1t-45 -1q-9 0 -11 2.5t-2 11.5q0 13 13 13h39q8 0 9 1.5t2 9.5q2 40 2 176q0 58 -24 95t-72 37q-47 0 -89 -21q-16 -8 -16 -15l1 -150q0 -89 1 -115q1 -10 1.5 -13 t2 -4t7.5 -1h38q8 0 10.5 -3t2.5 -10q0 -6 -0.5 -8t-3.5 -4t-9 -2q-8 0 -37.5 1t-45.5 1q-12 0 -41 -1t-45 -1q-9 0 -11 2.5t-2 11.5q0 13 12 13h39q7 0 8.5 3t1.5 15q1 94 1 220q0 202 -8 356q-1 17 -6 17q-1 0 -30 -3.5t-31 -3.5q-4 0 -4 11z" />
<glyph unicode="&#x126;" horiz-adv-x="791" d="M40 15q0 9 3 10.5t15 1.5h57q7 0 7 258v197q0 6 -9 6h-60q-2 0 -2.5 12t2.5 12h60q6 0 7.5 1.5t1.5 8.5q-2 117 -6 117h-43q-8 0 -11 0.5t-6 4t-3 10.5t2.5 10.5t6 4t11.5 0.5q6 0 39.5 -1.5t50.5 -1.5q16 0 55.5 1.5t50.5 1.5q10 0 12 -2.5t2 -15.5q0 -9 -2.5 -10.5 t-15.5 -1.5h-54q-7 0 -7 -117q0 -7 1 -8.5t8 -1.5h375q9 0 10.5 2t1.5 11q-2 114 -10 114h-57q-10 0 -12.5 2t-2.5 13t2.5 13t12.5 2q6 0 47 -1.5t58 -1.5q18 0 55 1.5t40 1.5q10 0 12 -2.5t2 -15.5q0 -9 -2.5 -10.5t-15.5 -1.5h-46q-2 0 -2 -114q0 -6 0.5 -8.5t2.5 -3.5 t7 -1h58q3 0 3 -12t-3 -12h-58q-10 0 -10 -8v-83q0 -370 4 -370h55q8 0 9.5 -2t1.5 -11q0 -11 -2 -14t-9 -3q-11 0 -44.5 1.5t-49.5 1.5t-58 -1.5t-53 -1.5q-10 0 -12 2.5t-2 15.5q0 9 2.5 10.5t15.5 1.5h55q6 0 6 165v124q0 11 -1 13t-8 2h-374q-8 0 -10 -2.5t-2 -14.5 q0 -287 11 -287h65q8 0 9.5 -2t1.5 -11q0 -11 -2 -14t-9 -3q-11 0 -52.5 1.5t-57.5 1.5t-61 -1.5t-56 -1.5q-10 0 -12 2.5t-2 15.5zM204 482q0 -23 0.5 -60.5t0.5 -48.5q0 -13 2 -15.5t13 -2.5h365q11 0 13 2t2 13v110q0 6 -2 7t-10 1h-379q-5 0 -5 -6z" />
<glyph unicode="&#x127;" horiz-adv-x="503" d="M10 640q0 16 5 17q138 18 146 18q5 0 5 -20q-4 -68 -5 -133q0 -10 7 -10h143q3 0 3 -12t-3 -12h-143q-6 0 -7 -1t-1 -7q-2 -90 -2 -126v-10t2 -3t3 0.5t6 3.5q73 40 133 40q40 0 66.5 -16t38.5 -47t16 -63t4 -79v-143q0 -8 1.5 -10t9.5 -2h26q14 0 14 -13q0 -14 -14 -14 q-8 0 -31.5 1t-39.5 1q-12 0 -41 -1t-45 -1q-9 0 -11 2.5t-2 11.5q0 13 13 13h39q8 0 9 1.5t2 9.5q2 40 2 176q0 58 -24 95t-72 37q-47 0 -89 -21q-16 -8 -16 -15l1 -150q0 -89 1 -115q1 -10 1.5 -13t2 -4t7.5 -1h38q8 0 10.5 -3t2.5 -10q0 -6 -0.5 -8t-3.5 -4t-9 -2 q-8 0 -37.5 1t-45.5 1q-12 0 -41 -1t-45 -1q-9 0 -11 2.5t-2 11.5q0 13 12 13h39q7 0 8.5 3t1.5 15q1 94 1 220q0 111 -3 217q0 6 -1 7t-6 1h-64q-2 0 -2.5 12t2.5 12h64q6 0 6 10q0 17 -1 35l-2 36t-1 26q-1 17 -6 17q-1 0 -30 -3.5t-31 -3.5q-4 0 -4 11z" />
<glyph unicode="&#x128;" horiz-adv-x="333" d="M63 748q0 7 8 26q11 27 27 41t29 14q16 0 46 -19t42 -19q22 0 36 35q2 7 12 7q7 0 7 -2q0 -8 -7 -27q-22 -58 -60 -58q-18 0 -45 18.5t-43 18.5q-23 0 -34 -31q-2 -6 -11 -6q-7 0 -7 2zM30 15q0 9 3 10.5t15 1.5h68q10 0 10 367v98q0 147 -10 147h-62q-8 0 -11 0.5t-6 4 t-3 10.5t2.5 10.5t6 4t11.5 0.5q6 0 54.5 -1.5t65.5 -1.5q16 0 60 1.5t55 1.5q10 0 12 -2.5t2 -15.5q0 -9 -2.5 -10.5t-15.5 -1.5h-63q-11 0 -11 -158v-135q0 -319 10 -319h71q8 0 9.5 -2t1.5 -11q0 -11 -2 -14t-9 -3q-11 0 -57.5 1.5t-62.5 1.5t-66.5 -1.5t-61.5 -1.5 q-10 0 -12 2.5t-2 15.5z" />
<glyph unicode="&#x129;" horiz-adv-x="249" d="M10 498q0 7 8 26q11 27 27 41t29 14q16 0 46 -19t42 -19q22 0 36 35q2 7 12 7q7 0 7 -2q0 -8 -7 -27q-22 -58 -60 -58q-18 0 -45 18.5t-43 18.5q-23 0 -34 -31q-2 -6 -11 -6q-7 0 -7 2zM25 357q0 5 4 13q3 6 4.5 6.5t10.5 1.5q95 5 113 5q7 0 7 -6v-170q0 -113 3 -170 q0 -5 0.5 -7t2.5 -3.5t7 -1.5h36q11 0 11 -13q0 -8 -1.5 -11t-9.5 -3q-9 0 -40 1t-44 1t-46.5 -1t-42.5 -1q-8 0 -9.5 2.5t-1.5 11.5q0 7 2.5 10t11.5 3h41q8 0 9.5 2t1.5 10q1 29 1 88q0 117 -4 214q-1 11 -3 13.5t-10 2.5q-1 0 -24.5 -1t-25.5 -1q-4 0 -4 4z" />
<glyph unicode="&#x12a;" horiz-adv-x="333" d="M66 788v23q0 6 1.5 7t7.5 1h187q6 0 7 -1t1 -6v-25q0 -6 -1 -7t-7 -1h-187q-7 0 -8 1t-1 8zM30 15q0 9 3 10.5t15 1.5h68q10 0 10 367v98q0 147 -10 147h-62q-8 0 -11 0.5t-6 4t-3 10.5t2.5 10.5t6 4t11.5 0.5q6 0 54.5 -1.5t65.5 -1.5q16 0 60 1.5t55 1.5q10 0 12 -2.5 t2 -15.5q0 -9 -2.5 -10.5t-15.5 -1.5h-63q-11 0 -11 -158v-135q0 -319 10 -319h71q8 0 9.5 -2t1.5 -11q0 -11 -2 -14t-9 -3q-11 0 -57.5 1.5t-62.5 1.5t-66.5 -1.5t-61.5 -1.5q-10 0 -12 2.5t-2 15.5z" />
<glyph unicode="&#x12b;" horiz-adv-x="249" d="M13 518v23q0 6 1.5 7t7.5 1h187q5 0 6.5 -1t1.5 -6v-25q0 -6 -1 -7t-7 -1h-187q-7 0 -8 1t-1 8zM25 357q0 5 4 13q3 6 4.5 6.5t10.5 1.5q95 5 113 5q7 0 7 -6v-170q0 -113 3 -170q0 -5 0.5 -7t2.5 -3.5t7 -1.5h36q11 0 11 -13q0 -8 -1.5 -11t-9.5 -3q-9 0 -40 1t-44 1 t-46.5 -1t-42.5 -1q-8 0 -9.5 2.5t-1.5 11.5q0 7 2.5 10t11.5 3h41q8 0 9.5 2t1.5 10q1 29 1 88q0 117 -4 214q-1 11 -3 13.5t-10 2.5q-1 0 -24.5 -1t-25.5 -1q-4 0 -4 4z" />
<glyph unicode="&#x12c;" horiz-adv-x="333" d="M65 832q0 6 1 6h17q1 0 2 -6t4.5 -15t10.5 -17.5t24.5 -14.5t43.5 -6t43.5 6t24.5 14.5t10.5 17.5t4.5 15t2 6h17q1 0 1 -6q0 -45 -26 -74t-77 -29t-77 29t-26 74zM30 15q0 9 3 10.5t15 1.5h68q10 0 10 367v98q0 147 -10 147h-62q-8 0 -11 0.5t-6 4t-3 10.5t2.5 10.5t6 4 t11.5 0.5q6 0 54.5 -1.5t65.5 -1.5q16 0 60 1.5t55 1.5q10 0 12 -2.5t2 -15.5q0 -9 -2.5 -10.5t-15.5 -1.5h-63q-11 0 -11 -158v-135q0 -319 10 -319h71q8 0 9.5 -2t1.5 -11q0 -11 -2 -14t-9 -3q-11 0 -57.5 1.5t-62.5 1.5t-66.5 -1.5t-61.5 -1.5q-10 0 -12 2.5t-2 15.5z " />
<glyph unicode="&#x12d;" horiz-adv-x="249" d="M12 579q0 7 1 7h17l1 -4q1 -5 3.5 -13.5t5.5 -15.5q21 -41 75 -41t75 41q3 7 5.5 15.5t3.5 13.5l1 4h17q1 0 1 -6q0 -48 -26.5 -84.5t-76.5 -36.5q-51 0 -77 36t-26 84zM25 357q0 5 4 13q3 6 4.5 6.5t10.5 1.5q95 5 113 5q7 0 7 -6v-170q0 -113 3 -170q0 -5 0.5 -7 t2.5 -3.5t7 -1.5h36q11 0 11 -13q0 -8 -1.5 -11t-9.5 -3q-9 0 -40 1t-44 1t-46.5 -1t-42.5 -1q-8 0 -9.5 2.5t-1.5 11.5q0 7 2.5 10t11.5 3h41q8 0 9.5 2t1.5 10q1 29 1 88q0 117 -4 214q-1 11 -3 13.5t-10 2.5q-1 0 -24.5 -1t-25.5 -1q-4 0 -4 4z" />
<glyph unicode="&#x12e;" horiz-adv-x="333" d="M30 15q0 9 3 10.5t15 1.5h68q10 0 10 367v98q0 147 -10 147h-62q-8 0 -11 0.5t-6 4t-3 10.5t2.5 10.5t6 4t11.5 0.5q6 0 54.5 -1.5t65.5 -1.5q16 0 60 1.5t55 1.5q10 0 12 -2.5t2 -15.5q0 -9 -2.5 -10.5t-15.5 -1.5h-63q-11 0 -11 -158v-135q0 -319 10 -319h71 q8 0 9.5 -2t1.5 -11q0 -11 -2 -14t-9 -3q-17 0 -73 2q-12 0 -17 -5q-82 -86 -82 -161q0 -33 20 -56.5t44 -23.5q23 0 43 11t31 22l11 11q1 0 6 -6t5 -7q0 -3 -15 -19t-47.5 -34t-68.5 -18q-32 0 -62.5 29.5t-30.5 63.5q0 12 1.5 23.5t6.5 23.5l8.5 20t13.5 21l14 18.5 t18 20.5t18 19l22 21l22 21q6 6 -1 6h-7q-16 0 -66.5 -1.5t-61.5 -1.5q-10 0 -12 2.5t-2 15.5z" />
<glyph unicode="&#x12f;" horiz-adv-x="249" d="M25 357q0 5 4 13q3 6 4.5 6.5t10.5 1.5q95 5 113 5q7 0 7 -6v-170q0 -113 3 -170q0 -5 0.5 -7t2.5 -3.5t7 -1.5h36q11 0 11 -13q0 -8 -1.5 -11t-9.5 -3q-17 0 -63 2q-8 0 -13 -8q-45 -75 -45 -159q0 -38 15.5 -59.5t45.5 -21.5q18 0 32 6t20.5 12.5t7.5 6.5t6 -6t5 -7 q0 -3 -12 -14t-41 -24t-63 -13q-30 0 -52.5 26t-22.5 59q0 67 82 194q-2 7 -6 8l-69 -2q-8 0 -9.5 2.5t-1.5 11.5q0 7 2.5 10t11.5 3h41q8 0 9.5 2t1.5 10q1 29 1 88q0 117 -4 214q-1 11 -3 13.5t-10 2.5q-1 0 -24.5 -1t-25.5 -1q-4 0 -4 4zM77 553q0 25 19.5 40t40.5 15 q18 0 30 -10t12 -30q0 -24 -19 -40t-42 -16q-17 0 -29 10.5t-12 30.5z" />
<glyph unicode="&#x130;" horiz-adv-x="333" d="M117 783q0 25 19.5 40t40.5 15q18 0 30 -10t12 -30q0 -24 -19 -40t-42 -16q-17 0 -29 10.5t-12 30.5zM30 15q0 9 3 10.5t15 1.5h68q10 0 10 367v98q0 147 -10 147h-62q-8 0 -11 0.5t-6 4t-3 10.5t2.5 10.5t6 4t11.5 0.5q6 0 54.5 -1.5t65.5 -1.5q16 0 60 1.5t55 1.5 q10 0 12 -2.5t2 -15.5q0 -9 -2.5 -10.5t-15.5 -1.5h-63q-11 0 -11 -158v-135q0 -319 10 -319h71q8 0 9.5 -2t1.5 -11q0 -11 -2 -14t-9 -3q-11 0 -57.5 1.5t-62.5 1.5t-66.5 -1.5t-61.5 -1.5q-10 0 -12 2.5t-2 15.5z" />
<glyph unicode="&#x131;" horiz-adv-x="249" d="M25 357q0 5 4 13q3 6 4.5 6.5t10.5 1.5q95 5 113 5q7 0 7 -6v-170q0 -113 3 -170q0 -5 0.5 -7t2.5 -3.5t7 -1.5h36q11 0 11 -13q0 -8 -1.5 -11t-9.5 -3q-9 0 -40 1t-44 1t-46.5 -1t-42.5 -1q-8 0 -9.5 2.5t-1.5 11.5q0 7 2.5 10t11.5 3h41q8 0 9.5 2t1.5 10q1 29 1 88 q0 117 -4 214q-1 11 -3 13.5t-10 2.5q-1 0 -24.5 -1t-25.5 -1q-4 0 -4 4z" />
<glyph unicode="&#x132;" horiz-adv-x="666" d="M303 -188q0 23 28.5 43.5t38.5 20.5q7 0 24 -10.5t28 -10.5q26 0 33 32t7 108v497q0 147 -10 147h-65q-8 0 -11 0.5t-6 4t-3 10.5t2.5 10.5t6 4t11.5 0.5q6 0 56 -1.5t67 -1.5q16 0 53.5 1.5t48.5 1.5q10 0 12 -2.5t2 -15.5q0 -9 -3 -10.5t-15 -1.5h-50q-7 0 -7 -269 v-240q0 -84 -17 -153t-69 -125q-60 -64 -109 -64q-19 0 -36 7t-17 17zM30 15q0 9 3 10.5t15 1.5h68q10 0 10 367v98q0 147 -10 147h-62q-8 0 -11 0.5t-6 4t-3 10.5t2.5 10.5t6 4t11.5 0.5q6 0 54.5 -1.5t65.5 -1.5q16 0 60 1.5t55 1.5q10 0 12 -2.5t2 -15.5q0 -9 -2.5 -10.5 t-15.5 -1.5h-63q-11 0 -11 -158v-135q0 -319 10 -319h71q8 0 9.5 -2t1.5 -11q0 -11 -2 -14t-9 -3q-11 0 -57.5 1.5t-62.5 1.5t-66.5 -1.5t-61.5 -1.5q-10 0 -12 2.5t-2 15.5z" />
<glyph unicode="&#x133;" horiz-adv-x="541" d="M254 -255q0 16 14.5 34.5t26.5 18.5t31.5 -2t23.5 -2q19 0 28.5 9.5t9.5 23.5q0 9 -2 56.5t-4.5 145t-2.5 229.5q0 49 -2 76q-1 14 -9 14q-3 0 -34 -1.5t-36 -1.5q-3 0 -3 4q0 5 4 15q0 1 1 3q2 6 14 6q22 0 52.5 1.5l51 2.5t21.5 1q7 0 7 -23q0 -20 2.5 -136.5 t2.5 -191.5q0 -90 -10.5 -145t-43.5 -98q-13 -17 -57.5 -38t-66.5 -21q-19 0 -19 20zM329 580q0 25 19.5 40t40.5 15q18 0 30 -10t12 -30q0 -24 -19 -40t-42 -16q-17 0 -29 10.5t-12 30.5zM25 357q0 5 4 13q3 6 4.5 6.5t10.5 1.5q95 5 113 5q7 0 7 -6v-170q0 -113 3 -170 q0 -5 0.5 -7t2.5 -3.5t7 -1.5h36q11 0 11 -13q0 -8 -1.5 -11t-9.5 -3q-9 0 -40 1t-44 1t-46.5 -1t-42.5 -1q-8 0 -9.5 2.5t-1.5 11.5q0 7 2.5 10t11.5 3h41q8 0 9.5 2t1.5 10q1 29 1 88q0 117 -4 214q-1 11 -3 13.5t-10 2.5q-1 0 -24.5 -1t-25.5 -1q-4 0 -4 4zM77 553 q0 25 19.5 40t40.5 15q18 0 30 -10t12 -30q0 -24 -19 -40t-42 -16q-17 0 -29 10.5t-12 30.5z" />
<glyph unicode="&#x134;" horiz-adv-x="333" d="M56 731l4 6l79 89q12 13 16 13h24q4 0 16 -13l79 -89q4 -4 4 -6t-6 -2h-9q-1 0 -11 6l-81 45q-4 2 -8 0l-81 -45q-10 -6 -11 -6h-9q-6 0 -6 2zM-30 -188q0 23 28.5 43.5t38.5 20.5q7 0 24 -10.5t28 -10.5q26 0 33 32t7 108v497q0 147 -10 147h-65q-8 0 -11 0.5t-6 4 t-3 10.5t2.5 10.5t6 4t11.5 0.5q6 0 56 -1.5t67 -1.5q16 0 53.5 1.5t48.5 1.5q10 0 12 -2.5t2 -15.5q0 -9 -2.5 -10.5t-15.5 -1.5h-50q-7 0 -7 -269v-240q0 -84 -17 -153t-69 -125q-60 -64 -109 -64q-19 0 -36 7t-17 17z" />
<glyph unicode="&#x135;" horiz-adv-x="292" d="M27 461q0 1 3 6l79 119q6 10 8.5 11.5t9.5 1.5h20q7 0 9.5 -1.5t8.5 -11.5l79 -119q3 -5 3 -6q0 -2 -5 -2h-12l-8 6l-81 70q-4 3 -8 0l-81 -70q-6 -6 -8 -6h-12q-5 0 -5 2zM5 -255q0 16 14.5 34.5t26.5 18.5t31.5 -2t23.5 -2q19 0 28.5 9.5t9.5 23.5q0 9 -2.5 56.5 t-4.5 145t-2 229.5q0 49 -2 76q-1 14 -9 14q-3 0 -34 -1.5t-36 -1.5q-3 0 -3 4q0 5 4 15q0 1 1 3q2 6 14 6q22 0 52.5 1.5l51 2.5t21.5 1q7 0 7 -23q0 -20 2.5 -136.5t2.5 -191.5q0 -90 -10.5 -145t-43.5 -98q-13 -17 -57.5 -38t-66.5 -21q-19 0 -19 20z" />
<glyph unicode="&#x136;" horiz-adv-x="650" d="M282 -225l15 10q15 10 29.5 25.5t14.5 29.5q0 17 -13.5 30t-26.5 21.5t-13 12.5q0 11 18.5 23t24.5 12q12 0 37.5 -19.5t25.5 -33.5q0 -31 -24.5 -62.5t-48 -48t-29.5 -16.5q-4 0 -7 5.5t-3 10.5zM40 15q0 9 3 10.5t15 1.5h55q8 0 8 170v290q0 147 -8 147h-44 q-8 0 -11 0.5t-6 4t-3 10.5t2.5 10.5t6 4t11.5 0.5q6 0 45.5 -1.5t56.5 -1.5q16 0 55.5 1.5t50.5 1.5q10 0 12 -2.5t2 -15.5q0 -9 -2.5 -10.5t-15.5 -1.5h-54q-14 0 -14 -158v-125q0 -8 0.5 -11.5t3.5 -6t9 -2.5h22q11 0 57 56t107.5 139l64.5 87q9 13 9 16q0 5 -15 5h-37 q-8 0 -11 0.5t-6 4t-3 10.5t2.5 10.5t6 4t11.5 0.5q6 0 37 -1.5t48 -1.5q16 0 42.5 1.5t37.5 1.5q10 0 12 -2.5t2 -15.5q0 -9 -2.5 -10.5t-15.5 -1.5h-49l-40 -48l-97.5 -116l-78.5 -94q-3 -3 -4 -5t-2 -3t0 -2.5t1.5 -2.5t3 -4t4.5 -5l269 -310q15 -17 31 -17h14 q8 0 9.5 -2t1.5 -11q0 -11 -2 -14t-9 -3q-11 0 -47.5 1.5t-52.5 1.5t-52.5 -1.5t-47.5 -1.5q-10 0 -12 2.5t-2 15.5q0 9 2.5 10.5t15.5 1.5h30q17 0 17 4l-12 14l-217 257q-7 8 -22 8h-20q-9 0 -11.5 -1.5t-2.5 -10.5q0 -271 11 -271h73q8 0 9.5 -2t1.5 -11q0 -11 -2 -14 t-9 -3q-11 0 -57.5 1.5t-62.5 1.5t-60 -1.5t-55 -1.5q-10 0 -12 2.5t-2 15.5z" />
<glyph unicode="&#x137;" horiz-adv-x="449" d="M174 -225l15 10q15 10 29.5 25.5t14.5 29.5q0 17 -13.5 30t-26.5 21.5t-13 12.5q0 11 18.5 23t24.5 12q12 0 37.5 -19.5t25.5 -33.5q0 -31 -24.5 -62.5t-48 -48t-29.5 -16.5q-4 0 -7 5.5t-3 10.5zM10 649v9q0 13 12 14q114 9 131 9q5 0 6 -2t1 -11l-11 -448 q0 -8 2.5 -9.5t13.5 -1.5h22q4 0 7.5 1t7 4.5l5 5t5.5 6t4 5.5q53 70 79 113q3 5 3.5 6.5t1.5 4t-0.5 3.5t-5 1.5t-9.5 0.5h-20q-8 0 -10.5 3t-2.5 10q0 14 14 14q4 0 25 -1t33 -1q10 0 30 1t27 1q13 0 13 -14q0 -13 -12 -13h-32q-11 0 -107 -123q-2 -2 -5 -6q-3 -3 -4 -4.5 t0.5 -4t3.5 -4.5l5 -5l151 -175q11 -13 22 -13h10q8 0 10.5 -3t2.5 -10q0 -6 -0.5 -8t-3.5 -4t-9 -2t-29.5 1t-37.5 1t-38 -1t-30 -1q-9 0 -11 2.5t-2 11.5q0 13 12 13h11q17 0 5 15l-110 136q-2 2 -4 5q-9 12 -18 12h-14q-8 0 -9.5 -3t-1.5 -13v-134q0 -13 1.5 -15.5 t9.5 -2.5h23q8 0 10.5 -3t2.5 -10q0 -6 -0.5 -8t-3.5 -4t-9 -2q-8 0 -30 1t-38 1q-19 0 -48 -1t-32 -1q-9 0 -11 2.5t-2 11.5q0 13 12 13h41q7 0 8.5 3t1.5 15v193q0 408 -9 408q-2 0 -26 -1.5t-30 -1.5q-7 0 -8.5 1.5t-1.5 6.5z" />
<glyph unicode="&#x138;" horiz-adv-x="449" d="M12 350q0 6 4 16q2 6 3.5 6.5t11.5 1.5q5 0 47 3t58 4q9 1 11 -0.5t2 -7.5v-3v-150q0 -8 2.5 -9.5t13.5 -1.5h22q4 0 7.5 1t7 4.5l5 5t5.5 6t4 5.5q53 70 79 113q3 5 3.5 6.5t1.5 4t-0.5 3.5t-5 1.5t-9.5 0.5h-20q-8 0 -10.5 3t-2.5 10q0 14 14 14q4 0 25 -1t33 -1 q10 0 30 1t27 1q13 0 13 -14q0 -13 -12 -13h-32q-11 0 -107 -123q-2 -2 -5 -6q-3 -3 -4 -4.5t0.5 -4t3.5 -4.5l5 -5l151 -175q11 -13 22 -13h10q8 0 10.5 -3t2.5 -10q0 -6 -0.5 -8t-3.5 -4t-9 -2t-29.5 1t-37.5 1t-38 -1t-30 -1q-9 0 -11 2.5t-2 11.5q0 13 12 13h11 q17 0 5 15l-110 136q-2 2 -4 5q-9 12 -18 12h-14q-8 0 -9.5 -3t-1.5 -13v-134q0 -13 1.5 -15.5t9.5 -2.5h23q8 0 10.5 -3t2.5 -10q0 -6 -0.5 -8t-3.5 -4t-9 -2q-8 0 -30 1t-38 1q-19 0 -48 -1t-32 -1q-9 0 -11 2.5t-2 11.5q0 13 12 13h41q7 0 8.5 3t1.5 15v119q0 115 -4 174 q-1 11 -2.5 12.5t-9.5 1.5q-1 0 -26.5 -2t-27.5 -2q-3 0 -3 4z" />
<glyph unicode="&#x139;" horiz-adv-x="592" d="M162 731q0 2 2 6l53 85q16 25 34 25q30 0 30 -25q0 -16 -14 -27l-72 -60l-8 -6h-21q-4 0 -4 2zM40 15q0 9 2.5 10.5t14.5 1.5h62q9 0 9 292v231q0 89 -7 89h-58q-10 0 -13 2.5t-3 12.5t3.5 12.5t16.5 2.5q6 0 49.5 -1.5t60.5 -1.5q16 0 61.5 1.5t56.5 1.5q12 0 14.5 -2 t2.5 -13q0 -9 -3 -12t-15 -3h-70q-9 0 -9 -215v-277q0 -116 8 -116q227 0 293 6q13 1 17 4t6 19l12 84q2 8 11 8q20 0 20 -10q0 -3 -4.5 -30l-9.5 -60t-7 -44q-1 -11 -22 -11q-11 0 -179.5 1.5t-184.5 1.5t-63.5 -1.5t-58.5 -1.5q-10 0 -11.5 2.5t-1.5 15.5z" />
<glyph unicode="&#x13a;" horiz-adv-x="257" d="M106 731q0 2 2 6l53 85q16 25 34 25q30 0 30 -25q0 -16 -14 -27l-72 -60l-8 -6h-21q-4 0 -4 2zM20 645q0 2 2 16q1 6 2 6.5t8 1.5q120 9 123 9q5 0 6 -2.5t1 -12.5q1 -160 3.5 -332t2.5 -267q0 -39 8 -39h39q8 0 10.5 -3t2.5 -10q0 -6 -0.5 -8t-3.5 -4t-9 -2 q-8 0 -35.5 1t-43.5 1q-12 0 -44.5 -1t-48.5 -1q-9 0 -11 2.5t-2 11.5q0 13 12 13h52q4 0 4 85q0 395 -11 517q-7 18 -11 19q-3 0 -24.5 -2t-23.5 -2q-8 0 -8 3z" />
<glyph unicode="&#x13b;" horiz-adv-x="592" d="M278 -225l15 10q15 10 29.5 25.5t14.5 29.5q0 17 -13.5 30t-26.5 21.5t-13 12.5q0 11 18.5 23t24.5 12q12 0 37.5 -19.5t25.5 -33.5q0 -31 -24.5 -62.5t-48 -48t-29.5 -16.5q-4 0 -7 5.5t-3 10.5zM40 15q0 9 2.5 10.5t14.5 1.5h62q9 0 9 292v231q0 89 -7 89h-58 q-10 0 -13 2.5t-3 12.5t3.5 12.5t16.5 2.5q6 0 49.5 -1.5t60.5 -1.5q16 0 61.5 1.5t56.5 1.5q12 0 14.5 -2t2.5 -13q0 -9 -3 -12t-15 -3h-70q-9 0 -9 -215v-277q0 -116 8 -116q227 0 293 6q13 1 17 4t6 19l12 84q2 8 11 8q20 0 20 -10q0 -3 -4.5 -30l-9.5 -60t-7 -44 q-1 -11 -22 -11q-11 0 -179.5 1.5t-184.5 1.5t-63.5 -1.5t-58.5 -1.5q-10 0 -11.5 2.5t-1.5 15.5z" />
<glyph unicode="&#x13c;" horiz-adv-x="257" d="M83 -225l15 10q14 10 29 25.5t15 29.5q0 17 -13 30t-26.5 21.5t-13.5 12.5q0 11 18.5 23t24.5 12q12 0 37.5 -19.5t25.5 -33.5q0 -31 -24.5 -62.5t-48 -48t-29.5 -16.5q-4 0 -7 5.5t-3 10.5zM20 645q0 2 2 16q1 6 2 6.5t8 1.5q120 9 123 9q5 0 6 -2.5t1 -12.5 q1 -160 3.5 -332t2.5 -267q0 -39 8 -39h39q8 0 10.5 -3t2.5 -10q0 -6 -0.5 -8t-3.5 -4t-9 -2q-8 0 -35.5 1t-43.5 1q-12 0 -44.5 -1t-48.5 -1q-9 0 -11 2.5t-2 11.5q0 13 12 13h52q4 0 4 85q0 395 -11 517q-7 18 -11 19q-3 0 -24.5 -2t-23.5 -2q-8 0 -8 3z" />
<glyph unicode="&#x13d;" horiz-adv-x="592" d="M345 491q0 2 2.5 27t5.5 60.5t5 54.5q3 33 35 33t32 -29q0 -5 -3 -13l-51 -124q-6 -12 -8 -12h-15q-3 0 -3 3zM40 15q0 9 2.5 10.5t14.5 1.5h62q9 0 9 292v231q0 89 -7 89h-58q-10 0 -13 2.5t-3 12.5t3.5 12.5t16.5 2.5q6 0 49.5 -1.5t60.5 -1.5q16 0 61.5 1.5t56.5 1.5 q12 0 14.5 -2t2.5 -13q0 -9 -3 -12t-15 -3h-70q-9 0 -9 -215v-277q0 -116 8 -116q227 0 293 6q13 1 17 4t6 19l12 84q2 8 11 8q20 0 20 -10q0 -3 -4.5 -30l-9.5 -60t-7 -44q-1 -11 -22 -11q-11 0 -179.5 1.5t-184.5 1.5t-63.5 -1.5t-58.5 -1.5q-10 0 -11.5 2.5t-1.5 15.5z " />
<glyph unicode="&#x13e;" horiz-adv-x="257" d="M210 491q0 2 2.5 27t5.5 60.5t5 54.5q3 33 35 33t32 -29q0 -5 -3 -13l-51 -124q-6 -12 -8 -12h-15q-3 0 -3 3zM20 645q0 2 2 16q1 6 2 6.5t8 1.5q120 9 123 9q5 0 6 -2.5t1 -12.5q1 -160 3.5 -332t2.5 -267q0 -39 8 -39h39q8 0 10.5 -3t2.5 -10q0 -6 -0.5 -8t-3.5 -4 t-9 -2q-8 0 -35.5 1t-43.5 1q-12 0 -44.5 -1t-48.5 -1q-9 0 -11 2.5t-2 11.5q0 13 12 13h52q4 0 4 85q0 395 -11 517q-7 18 -11 19q-3 0 -24.5 -2t-23.5 -2q-8 0 -8 3z" />
<glyph unicode="&#x13f;" horiz-adv-x="592" d="M40 15q0 9 2.5 10.5t14.5 1.5h62q9 0 9 292v231q0 89 -7 89h-58q-10 0 -13 2.5t-3 12.5t3.5 12.5t16.5 2.5q6 0 49.5 -1.5t60.5 -1.5q16 0 61.5 1.5t56.5 1.5q12 0 14.5 -2t2.5 -13q0 -9 -3 -12t-15 -3h-70q-9 0 -9 -215v-277q0 -116 8 -116q227 0 293 6q13 1 17 4t6 19 l12 84q2 8 11 8q20 0 20 -10q0 -3 -4.5 -30l-9.5 -60t-7 -44q-1 -11 -22 -11q-11 0 -179.5 1.5t-184.5 1.5t-63.5 -1.5t-58.5 -1.5q-10 0 -11.5 2.5t-1.5 15.5zM417 333q0 25 19.5 40t40.5 15q18 0 30 -10t12 -30q0 -24 -19 -40t-42 -16q-17 0 -29 10.5t-12 30.5z" />
<glyph unicode="&#x140;" horiz-adv-x="404" d="M282 333q0 25 19.5 40t40.5 15q18 0 30 -10t12 -30q0 -24 -19 -40t-42 -16q-17 0 -29 10.5t-12 30.5zM20 645q0 2 2 16q1 6 2 6.5t8 1.5q120 9 123 9q5 0 6 -2.5t1 -12.5q1 -160 3.5 -332t2.5 -267q0 -39 8 -39h39q8 0 10.5 -3t2.5 -10q0 -6 -0.5 -8t-3.5 -4t-9 -2 q-8 0 -35.5 1t-43.5 1q-12 0 -44.5 -1t-48.5 -1q-9 0 -11 2.5t-2 11.5q0 13 12 13h52q4 0 4 85q0 395 -11 517q-7 18 -11 19q-3 0 -24.5 -2t-23.5 -2q-8 0 -8 3z" />
<glyph unicode="&#x141;" horiz-adv-x="592" d="M40 15q0 9 2.5 10.5t14.5 1.5h62q7 0 9 194q0 7 -8 4q-76 -36 -77 -36q-3 0 -3 16q0 8 2 10l78 36q8 3 8 15v284q0 89 -7 89h-58q-10 0 -13 2.5t-3 12.5t3.5 12.5t16.5 2.5q6 0 49.5 -1.5t60.5 -1.5q16 0 61.5 1.5t56.5 1.5q12 0 14.5 -2t2.5 -13q0 -9 -3 -12t-15 -3h-70 q-9 0 -9 -215v-117q0 -8 2.5 -9t9.5 3l95.5 44.5l120.5 56.5l51 23q2 0 2 -12q0 -14 -2 -14l-267 -124q-10 -5 -11 -9q-1 -2 -1 -7v-112q0 -116 8 -116q227 0 293 6q13 1 17 4t6 19l12 84q2 8 11 8q20 0 20 -10q0 -3 -4.5 -30l-9.5 -60t-7 -44q-1 -11 -22 -11 q-11 0 -179.5 1.5t-184.5 1.5t-63.5 -1.5t-58.5 -1.5q-10 0 -11.5 2.5t-1.5 15.5z" />
<glyph unicode="&#x142;" horiz-adv-x="257" d="M20 645q0 2 2 16q1 6 2 6.5t8 1.5q120 9 123 9q5 0 6 -2.5t1 -12.5q0 -131 2 -275q0 -7 2 -7.5t6 2.5q51 30 52 30q3 0 3 -18q0 -8 -1 -9l-52 -30q-9 -5 -9 -12q0 -32 1 -85.5t1.5 -100t0.5 -94.5q0 -39 8 -39h39q8 0 10.5 -3t2.5 -10q0 -6 -0.5 -8t-3.5 -4t-9 -2 q-8 0 -35.5 1t-43.5 1q-12 0 -44.5 -1t-48.5 -1q-9 0 -11 2.5t-2 11.5q0 13 12 13h52q4 0 4 85q0 9 -2 193q0 8 -8 4l-19.5 -11.5l-26.5 -15.5l-11 -6q-2 0 -2 10q0 16 3 18l56 32q8 5 8 16q-4 219 -9 277q-7 18 -11 19q-3 0 -24.5 -2t-23.5 -2q-8 0 -8 3z" />
<glyph unicode="&#x143;" horiz-adv-x="814" d="M411 731q0 2 2 6l53 85q16 25 34 25q30 0 30 -25q0 -16 -14 -27l-72 -60l-8 -6h-21q-4 0 -4 2zM40 15q0 9 3 10.5t15 1.5h44q3 0 5 2.5t3 7.5t1.5 11t1 15.5t0.5 18.5t0.5 22.5t0.5 24.5l8 510h-68q-8 0 -9.5 2t-1.5 11q0 11 2 14t9 3q6 0 53.5 -1.5t58.5 -1.5 q13 0 33.5 1.5t21.5 1.5q10 0 20 -13l406 -499q16 -20 18 -20q4 0 4 28v42q0 49 -1 187t-1 189q0 56 -1 56h-94q-8 0 -9.5 2t-1.5 11q0 11 2 14t9 3q11 0 50.5 -1.5t55.5 -1.5t43.5 1.5t38.5 1.5q10 0 12 -2.5t2 -15.5q0 -9 -3 -10.5t-15 -1.5h-47q-4 0 -4 -59 q0 -68 -3.5 -209.5l-6.5 -253t-3 -113.5q0 -22 -10 -22q-4 0 -18 16l-492 598q-14 18 -16 18q-3 0 -3 -20q-1 -25 -1 -122q0 -54 -0.5 -175.5t-0.5 -167.5q0 -102 5 -102h86q8 0 9.5 -2t1.5 -11q0 -11 -2 -14t-9 -3q-11 0 -50.5 1.5t-55.5 1.5t-43.5 -1.5t-38.5 -1.5 q-10 0 -12 2.5t-2 15.5z" />
<glyph unicode="&#x144;" horiz-adv-x="514" d="M257 451q0 2 2 6l49 130q9 25 30 25q17 0 26.5 -8.5t9.5 -21.5q0 -10 -7 -20l-82 -107q-5 -6 -8 -6h-16q-4 0 -4 2zM25 350q0 4 5 16q2 6 3.5 6.5t11.5 1.5q5 0 47 3t58 4q9 1 11 -0.5t2 -7.5v-3v-42q0 -6 13 3l2 2l18 12t23 14.5t23 11.5t31 10t33 3q42 0 69.5 -13 t41 -39.5t18 -55t4.5 -69.5q0 -33 -2.5 -100t-2.5 -70q0 -8 1.5 -10t9.5 -2h30q9 0 11.5 -2t2.5 -11q0 -6 -0.5 -8t-3 -4t-8.5 -2q-8 0 -33.5 1t-41.5 1q-12 0 -40.5 -1t-44.5 -1q-10 0 -12 2t-2 11t2.5 11.5t10.5 2.5h37q7 0 8.5 1.5t2.5 9.5q4 48 4 176q0 130 -96 130 q-33 0 -89 -28q-18 -9 -18 -23q0 -41 -0.5 -123.5t-0.5 -123.5q0 -9 0.5 -12.5t3 -5t9.5 -1.5h36q8 0 10.5 -3t2.5 -10q0 -6 -0.5 -8t-3.5 -4t-9 -2q-8 0 -36.5 1t-44.5 1q-12 0 -42 -1t-46 -1q-9 0 -11 2.5t-2 11.5q0 13 12 13h39q6 0 7.5 2.5t2.5 11.5v4q5 98 5 194 q0 68 -2 99q-1 11 -2.5 12.5t-9.5 1.5q-1 0 -27 -2t-28 -2q-3 0 -3 4z" />
<glyph unicode="&#x145;" horiz-adv-x="814" d="M360 -225l15 10q15 10 29.5 25.5t14.5 29.5q0 17 -13.5 30t-26.5 21.5t-13 12.5q0 11 18.5 23t24.5 12q12 0 37.5 -19.5t25.5 -33.5q0 -31 -24.5 -62.5t-48 -48t-29.5 -16.5q-4 0 -7 5.5t-3 10.5zM40 15q0 9 3 10.5t15 1.5h44q3 0 5 2.5t3 7.5t1.5 11t1 15.5t0.5 18.5 t0.5 22.5t0.5 24.5l8 510h-68q-8 0 -9.5 2t-1.5 11q0 11 2 14t9 3q6 0 53.5 -1.5t58.5 -1.5q13 0 33.5 1.5t21.5 1.5q10 0 20 -13l406 -499q16 -20 18 -20q4 0 4 28v42q0 49 -1 187t-1 189q0 56 -1 56h-94q-8 0 -9.5 2t-1.5 11q0 11 2 14t9 3q11 0 50.5 -1.5t55.5 -1.5 t43.5 1.5t38.5 1.5q10 0 12 -2.5t2 -15.5q0 -9 -3 -10.5t-15 -1.5h-47q-4 0 -4 -59q0 -68 -3.5 -209.5l-6.5 -253t-3 -113.5q0 -22 -10 -22q-4 0 -18 16l-492 598q-14 18 -16 18q-3 0 -3 -20q-1 -25 -1 -122q0 -54 -0.5 -175.5t-0.5 -167.5q0 -102 5 -102h86q8 0 9.5 -2 t1.5 -11q0 -11 -2 -14t-9 -3q-11 0 -50.5 1.5t-55.5 1.5t-43.5 -1.5t-38.5 -1.5q-10 0 -12 2.5t-2 15.5z" />
<glyph unicode="&#x146;" horiz-adv-x="514" d="M210 -225l15 10q15 10 29.5 25.5t14.5 29.5q0 17 -13.5 30t-26.5 21.5t-13 12.5q0 11 18.5 23t24.5 12q12 0 37.5 -19.5t25.5 -33.5q0 -31 -24.5 -62.5t-48 -48t-29.5 -16.5q-4 0 -7 5.5t-3 10.5zM25 350q0 4 5 16q2 6 3.5 6.5t11.5 1.5q5 0 47 3t58 4q9 1 11 -0.5 t2 -7.5v-3v-42q0 -6 13 3l2 2l18 12t23 14.5t23 11.5t31 10t33 3q42 0 69.5 -13t41 -39.5t18 -55t4.5 -69.5q0 -33 -2.5 -100t-2.5 -70q0 -8 1.5 -10t9.5 -2h30q9 0 11.5 -2t2.5 -11q0 -6 -0.5 -8t-3 -4t-8.5 -2q-8 0 -33.5 1t-41.5 1q-12 0 -40.5 -1t-44.5 -1q-10 0 -12 2 t-2 11t2.5 11.5t10.5 2.5h37q7 0 8.5 1.5t2.5 9.5q4 48 4 176q0 130 -96 130q-33 0 -89 -28q-18 -9 -18 -23q0 -41 -0.5 -123.5t-0.5 -123.5q0 -9 0.5 -12.5t3 -5t9.5 -1.5h36q8 0 10.5 -3t2.5 -10q0 -6 -0.5 -8t-3.5 -4t-9 -2q-8 0 -36.5 1t-44.5 1q-12 0 -42 -1t-46 -1 q-9 0 -11 2.5t-2 11.5q0 13 12 13h39q6 0 7.5 2.5t2.5 11.5v4q5 98 5 194q0 68 -2 99q-1 11 -2.5 12.5t-9.5 1.5q-1 0 -27 -2t-28 -2q-3 0 -3 4z" />
<glyph unicode="&#x147;" horiz-adv-x="814" d="M310 837q0 2 6 2h9q1 0 11 -6l81 -45q4 -2 8 0l81 45q10 6 11 6h9q6 0 6 -2l-4 -6l-79 -89q-12 -13 -16 -13h-24q-4 0 -16 13l-79 89q-4 4 -4 6zM40 15q0 9 3 10.5t15 1.5h44q3 0 5 2.5t3 7.5t1.5 11t1 15.5t0.5 18.5t0.5 22.5t0.5 24.5l8 510h-68q-8 0 -9.5 2t-1.5 11 q0 11 2 14t9 3q6 0 53.5 -1.5t58.5 -1.5q13 0 33.5 1.5t21.5 1.5q10 0 20 -13l406 -499q16 -20 18 -20q4 0 4 28v42q0 49 -1 187t-1 189q0 56 -1 56h-94q-8 0 -9.5 2t-1.5 11q0 11 2 14t9 3q11 0 50.5 -1.5t55.5 -1.5t43.5 1.5t38.5 1.5q10 0 12 -2.5t2 -15.5q0 -9 -3 -10.5 t-15 -1.5h-47q-4 0 -4 -59q0 -68 -3.5 -209.5l-6.5 -253t-3 -113.5q0 -22 -10 -22q-4 0 -18 16l-492 598q-14 18 -16 18q-3 0 -3 -20q-1 -25 -1 -122q0 -54 -0.5 -175.5t-0.5 -167.5q0 -102 5 -102h86q8 0 9.5 -2t1.5 -11q0 -11 -2 -14t-9 -3q-11 0 -50.5 1.5t-55.5 1.5 t-43.5 -1.5t-38.5 -1.5q-10 0 -12 2.5t-2 15.5z" />
<glyph unicode="&#x148;" horiz-adv-x="514" d="M162 597q0 2 5 2h12q1 0 8 -6l81 -70q4 -3 8 0l81 70q6 6 8 6h12q5 0 5 -2q0 -1 -3 -6l-79 -119q-6 -10 -8.5 -11.5t-9.5 -1.5h-20q-7 0 -9.5 1.5t-8.5 11.5l-79 119q-3 5 -3 6zM25 350q0 4 5 16q2 6 3.5 6.5t11.5 1.5q5 0 47 3t58 4q9 1 11 -0.5t2 -7.5v-3v-42 q0 -6 13 3l2 2l18 12t23 14.5t23 11.5t31 10t33 3q42 0 69.5 -13t41 -39.5t18 -55t4.5 -69.5q0 -33 -2.5 -100t-2.5 -70q0 -8 1.5 -10t9.5 -2h30q9 0 11.5 -2t2.5 -11q0 -6 -0.5 -8t-3 -4t-8.5 -2q-8 0 -33.5 1t-41.5 1q-12 0 -40.5 -1t-44.5 -1q-10 0 -12 2t-2 11t2.5 11.5 t10.5 2.5h37q7 0 8.5 1.5t2.5 9.5q4 48 4 176q0 130 -96 130q-33 0 -89 -28q-18 -9 -18 -23q0 -41 -0.5 -123.5t-0.5 -123.5q0 -9 0.5 -12.5t3 -5t9.5 -1.5h36q8 0 10.5 -3t2.5 -10q0 -6 -0.5 -8t-3.5 -4t-9 -2q-8 0 -36.5 1t-44.5 1q-12 0 -42 -1t-46 -1q-9 0 -11 2.5 t-2 11.5q0 13 12 13h39q6 0 7.5 2.5t2.5 11.5v4q5 98 5 194q0 68 -2 99q-1 11 -2.5 12.5t-9.5 1.5q-1 0 -27 -2t-28 -2q-3 0 -3 4z" />
<glyph unicode="&#x149;" horiz-adv-x="723" d="M234 350q0 4 5 16q2 6 3.5 6.5t11.5 1.5q5 0 47 3t58 4q9 1 11 -0.5t2 -7.5v-3v-42q0 -6 13 3l2 2l18 12t23 14.5t23 11.5t31 10t33 3q42 0 69.5 -13t41 -39.5t18 -55t4.5 -69.5q0 -33 -2.5 -100t-2.5 -70q0 -8 1.5 -10t9.5 -2h30q9 0 11.5 -2t2.5 -11q0 -6 -0.5 -8 t-3 -4t-8.5 -2q-8 0 -33.5 1t-41.5 1q-12 0 -40.5 -1t-44.5 -1q-10 0 -12 2t-2 11t2.5 11.5t10.5 2.5h37q8 0 9 1.5t2 9.5q4 48 4 176q0 130 -96 130q-33 0 -89 -28q-18 -9 -18 -23q0 -41 -0.5 -123.5t-0.5 -123.5q0 -9 0.5 -12.5t3 -5t9.5 -1.5h36q8 0 10.5 -3t2.5 -10 q0 -6 -0.5 -8t-3.5 -4t-9 -2q-8 0 -36.5 1t-44.5 1q-12 0 -42 -1t-46 -1q-9 0 -11 2.5t-2 11.5q0 13 12 13h39q6 0 7.5 2.5t2.5 11.5v4q5 98 5 194q0 68 -2 99q-1 11 -2.5 12.5t-9.5 1.5q-1 0 -27 -2t-28 -2q-3 0 -3 4zM60 453q0 1 17 17t34.5 37t17.5 36q0 13 -24 39 t-24 39q0 16 17 39t30 23q7 0 29 -34t22 -51q0 -32 -24.5 -72.5t-49 -65.5t-29.5 -25t-10.5 6.5t-5.5 11.5z" />
<glyph unicode="&#x14a;" horiz-adv-x="814" d="M40 15q0 9 3 10.5t15 1.5h44q3 0 5 2.5t3 7.5t1.5 11t1 15.5t0.5 18.5t0.5 22.5t0.5 24.5l8 510h-68q-8 0 -9.5 2t-1.5 11q0 11 2 14t9 3q6 0 53.5 -1.5t58.5 -1.5q13 0 33.5 1.5t21.5 1.5q10 0 20 -13l406 -499q16 -20 18 -20q4 0 4 28v42q0 49 -1 187t-1 189 q0 56 -1 56h-94q-8 0 -9.5 2t-1.5 11q0 11 2 14t9 3q11 0 50.5 -1.5t55.5 -1.5t43.5 1.5t38.5 1.5q10 0 12 -2.5t2 -15.5q0 -9 -3 -10.5t-15 -1.5h-47q-4 0 -4 -59q0 -68 -3.5 -209.5l-6.5 -253t-3 -113.5q0 -152 -52 -220q-13 -17 -57.5 -38t-66.5 -21q-19 0 -19 20 q0 16 14.5 34.5t26.5 18.5t31.5 -2t23.5 -2q19 0 28.5 9.5t9.5 23.5q0 11 -1 40.5l-2.5 71.5l-2.5 71q-1 37 -15 54l-438 532q-14 18 -16 18q-3 0 -3 -20q-1 -25 -1 -122q0 -54 -0.5 -175.5t-0.5 -167.5q0 -102 5 -102h86q8 0 9.5 -2t1.5 -11q0 -11 -2 -14t-9 -3 q-11 0 -50.5 1.5t-55.5 1.5t-43.5 -1.5t-38.5 -1.5q-10 0 -12 2.5t-2 15.5z" />
<glyph unicode="&#x14b;" horiz-adv-x="514" d="M25 350q0 4 5 16q2 6 3.5 6.5t11.5 1.5q5 0 47 3t58 4q9 1 11 -0.5t2 -7.5v-3v-42q0 -6 13 3l2 2l18 12t23 14.5t23 11.5t31 10t33 3q42 0 69.5 -13t41 -39.5t18 -55t4.5 -69.5v-174q0 -91 -10.5 -148.5t-43.5 -100.5q-13 -17 -57.5 -38t-66.5 -21q-19 0 -19 20 q0 16 14.5 34.5t26.5 18.5t31.5 -2t23.5 -2q19 0 28.5 9.5t9.5 23.5q0 10 -2.5 76.5t-3.5 106.5q-2 79 -2 202q0 130 -96 130q-33 0 -89 -28q-18 -9 -18 -23q0 -41 -0.5 -123.5t-0.5 -123.5q0 -9 0.5 -12.5t3 -5t9.5 -1.5h36q8 0 10.5 -3t2.5 -10q0 -6 -0.5 -8t-3.5 -4 t-9 -2q-8 0 -36.5 1t-44.5 1q-12 0 -42 -1t-46 -1q-9 0 -11 2.5t-2 11.5q0 13 12 13h39q6 0 7.5 2.5t2.5 11.5v4q5 98 5 194q0 68 -2 99q-1 11 -2.5 12.5t-9.5 1.5q-1 0 -27 -2t-28 -2q-3 0 -3 4z" />
<glyph unicode="&#x14c;" horiz-adv-x="752" d="M273 788v23q0 6 1.5 7t7.5 1h187q5 0 6.5 -1t1.5 -6v-25q0 -6 -1 -7t-7 -1h-187q-7 0 -8 1t-1 8zM45 318q0 158 99 257.5t241 99.5q145 0 233.5 -101t88.5 -250t-94.5 -242t-242.5 -93q-83 0 -155.5 36.5t-121 113.5t-48.5 179zM139 345q0 -140 63 -234t169 -94 q79 0 136 48t82.5 118t25.5 150t-25 149.5t-81 117t-134 47.5q-103 0 -169.5 -91t-66.5 -211z" />
<glyph unicode="&#x14d;" horiz-adv-x="446" d="M128 518v23q0 6 1.5 7t7.5 1h187q6 0 7 -1t1 -6v-25q0 -6 -1 -7t-7 -1h-187q-7 0 -8 1t-1 8zM30 183q0 90 57 151.5t148 61.5q80 0 130.5 -57.5t50.5 -141.5q0 -94 -53 -153t-144 -59q-80 0 -134.5 58t-54.5 140zM101 169q0 -62 31.5 -110t86.5 -48q36 0 61.5 17 t38.5 46.5t18.5 61t5.5 68.5q0 66 -31 116t-89 50q-122 0 -122 -201z" />
<glyph unicode="&#x14e;" horiz-adv-x="752" d="M272 832q0 6 1 6h17q1 0 2 -6t4.5 -15t10.5 -17.5t24.5 -14.5t43.5 -6t43.5 6t24.5 14.5t10.5 17.5t4.5 15t2 6h17q1 0 1 -6q0 -45 -26 -74t-77 -29t-77 29t-26 74zM45 318q0 158 99 257.5t241 99.5q145 0 233.5 -101t88.5 -250t-94.5 -242t-242.5 -93q-83 0 -155.5 36.5 t-121 113.5t-48.5 179zM139 345q0 -140 63 -234t169 -94q79 0 136 48t82.5 118t25.5 150t-25 149.5t-81 117t-134 47.5q-103 0 -169.5 -91t-66.5 -211z" />
<glyph unicode="&#x14f;" horiz-adv-x="446" d="M127 579q0 7 1 7h17l1 -4q1 -5 3.5 -13.5t5.5 -15.5q21 -41 75 -41t75 41q3 7 5.5 15.5t3.5 13.5l1 4h17q1 0 1 -6q0 -48 -26.5 -84.5t-76.5 -36.5q-51 0 -77 36t-26 84zM30 183q0 90 57 151.5t148 61.5q80 0 130.5 -57.5t50.5 -141.5q0 -94 -53 -153t-144 -59 q-80 0 -134.5 58t-54.5 140zM101 169q0 -62 31.5 -110t86.5 -48q36 0 61.5 17t38.5 46.5t18.5 61t5.5 68.5q0 66 -31 116t-89 50q-122 0 -122 -201z" />
<glyph unicode="&#x150;" horiz-adv-x="752" d="M298 731q0 2 2 6l53 85q16 25 34 25q30 0 30 -25q0 -16 -14 -27l-72 -60l-8 -6h-21q-4 0 -4 2zM418 731q0 2 2 6l53 85q16 25 34 25q30 0 30 -25q0 -16 -14 -27l-72 -60l-8 -6h-21q-4 0 -4 2zM45 318q0 158 99 257.5t241 99.5q145 0 233.5 -101t88.5 -250t-94.5 -242 t-242.5 -93q-83 0 -155.5 36.5t-121 113.5t-48.5 179zM139 345q0 -140 63 -234t169 -94q79 0 136 48t82.5 118t25.5 150t-25 149.5t-81 117t-134 47.5q-103 0 -169.5 -91t-66.5 -211z" />
<glyph unicode="&#x151;" horiz-adv-x="446" d="M150 451q0 2 2 6l49 130q9 25 30 25q17 0 26.5 -8.5t9.5 -21.5q0 -10 -7 -20l-82 -107q-4 -6 -8 -6h-16q-4 0 -4 2zM260 451q0 2 2 6l49 130q9 25 30 25q17 0 26.5 -8.5t9.5 -21.5q0 -10 -7 -20l-82 -107q-4 -6 -8 -6h-16q-4 0 -4 2zM30 183q0 90 57 151.5t148 61.5 q80 0 130.5 -57.5t50.5 -141.5q0 -94 -53 -153t-144 -59q-80 0 -134.5 58t-54.5 140zM101 169q0 -62 31.5 -110t86.5 -48q36 0 61.5 17t38.5 46.5t18.5 61t5.5 68.5q0 66 -31 116t-89 50q-122 0 -122 -201z" />
<glyph unicode="&#x152;" horiz-adv-x="996" d="M45 318q0 158 99 257.5t241 99.5q33 0 92 -6.5t81 -6.5q28 0 128.5 1.5t120.5 1.5q47 0 56.5 1.5t10.5 10.5v1q1 12 13 12q11 0 14 -2t3 -9q0 -2 -2 -43t-2 -87q0 -6 -3 -8t-13 -2q-15 0 -15 14q0 2 1.5 38.5t1.5 39.5q0 7 -272 7q-7 0 -7 -128q0 -42 2 -142 q0 -10 1.5 -13t10.5 -3h167q55 0 55 16v50q0 9 17 9q14 0 14 -8q0 -1 -1 -29t-1 -49t1 -50t1 -33q0 -8 -13 -8q-18 0 -18 9v46q0 7 -2 10t-15 6.5t-38 3.5h-163q-12 0 -14 -2t-2 -13q1 -53 1.5 -130t1 -111.5t3.5 -34.5q27 0 68.5 0.5l81 1t75 0.5t58.5 0.5t24 0.5 q12 0 15 3t4 20q1 14 3 87q0 8 14 8q17 0 17 -9q0 -28 -1.5 -77t-1.5 -61q0 -11 -22 -11q-11 0 -182.5 1.5t-187.5 1.5q-45 0 -100 -5.5t-96 -5.5q-83 0 -155.5 36.5t-121 113.5t-48.5 179zM139 345q0 -110 40.5 -193.5t112.5 -116.5q41 -19 133 -19q29 0 51 5.5t31.5 11.5 t9.5 12q0 21 -0.5 75t-0.5 78q0 31 -0.5 72t-1 78t-1 69.5t-1 53t-0.5 21.5v93q0 15 -1.5 24.5t-2 15t-8.5 9t-10 4.5t-17 3t-21 3q-18 3 -74 3q-104 0 -171.5 -90.5t-67.5 -211.5z" />
<glyph unicode="&#x153;" horiz-adv-x="733" d="M30 183q0 90 57 151.5t148 61.5q83 0 136 -64q9 -11 11 -11q1 0 12 11q58 64 149 64q71 0 110 -46t39 -113q0 -5 -20 -8.5t-34 -3.5q-6 0 -113 2.5t-111 2.5q-5 0 -5 -36q0 -76 44.5 -120.5t104.5 -44.5q22 0 43.5 6.5t36 16.5t25.5 19.5t17 16.5l7 6q2 0 9 -6.5t7 -8.5 q0 -5 -21 -26.5t-64 -44.5t-88 -23q-95 0 -144 62l-12 15q-1 0 -10 -12q-46 -65 -145 -65q-80 0 -134.5 58t-54.5 140zM101 169q0 -62 31.5 -110t86.5 -48q36 0 61.5 17t38.5 46.5t18.5 61t5.5 68.5q0 66 -31 116t-89 50q-122 0 -122 -201zM414 255q0 -8 12 -8q57 0 157 4 q40 1 40 4q0 65 -29.5 92t-62.5 27q-46 0 -80 -38.5t-37 -80.5z" />
<glyph unicode="&#x154;" horiz-adv-x="641" d="M287 731q0 2 2 6l53 85q16 25 34 25q30 0 30 -25q0 -16 -14 -27l-72 -60l-8 -6h-21q-4 0 -4 2zM40 649q0 7 2.5 10.5t6 4t11.5 0.5q6 0 51 -1t62 -1q16 0 75 3t70 3q42 0 77 -7.5t68.5 -25t53 -52.5t19.5 -85q0 -32 -14.5 -61t-37.5 -49t-42.5 -32t-39.5 -21 q-5 -3 -10.5 -4.5t-7.5 -2.5l-2 -1l2 -1q2 0 7 -1t11 -3q160 -48 167 -230q2 -44 4 -54.5t10 -10.5h46q7 0 9.5 -3.5t2.5 -18.5q0 -8 -17 -8l-133 3q-5 0 -6.5 1t-1.5 7v58q0 43 -2 72t-12 64.5t-27.5 57t-51 36.5t-80.5 16q-10 0 -43.5 0.5t-48.5 0.5q-11 0 -11 -11 q0 -62 3.5 -168.5t7.5 -106.5h61q8 0 9.5 -2t1.5 -11q0 -11 -2 -14t-9 -3q-11 0 -51.5 1.5t-56.5 1.5q-18 0 -57 -1.5t-41 -1.5q-10 0 -12 2.5t-2 15.5q0 9 2.5 10.5t15.5 1.5h45q5 0 5 129v133q0 345 -12 345l-55 -2q-20 0 -20 17zM207 345q0 -6 3 -8t13 -2q20 0 65 -0.5 t63 -1.5q10 0 12 1q88 40 88 150q0 71 -55.5 114.5t-129.5 43.5q-18 0 -52 -2q-7 0 -7 -54v-241z" />
<glyph unicode="&#x155;" horiz-adv-x="329" d="M166 451q0 2 2 6l49 130q9 25 30 25q17 0 26.5 -8.5t9.5 -21.5q0 -10 -7 -20l-82 -107q-4 -6 -8 -6h-16q-4 0 -4 2zM25 353q0 5 3 12q2 6 3.5 6.5t11.5 1.5q42 3 105 3q10 0 11 -0.5t1 -4.5v-5q0 -10 -0.5 -32t-0.5 -32q0 -18 1 -18t2.5 4t3 10.5t3.5 10.5q17 39 43 62 t50 23q20 0 38.5 -16t18.5 -27q0 -9 -13 -25t-24 -16q-12 0 -31 15.5t-29 15.5q-57 0 -57 -204q0 -112 12 -112h63q8 0 10.5 -3t2.5 -10q0 -6 -0.5 -8t-3.5 -4t-9 -2q-8 0 -49 1t-57 1q-12 0 -41 -1t-45 -1q-9 0 -11 2.5t-2 11.5q0 13 12 13h43q9 0 9 137q0 189 -7 189 q-1 0 -31.5 -1t-32.5 -1q-3 0 -3 4z" />
<glyph unicode="&#x156;" horiz-adv-x="641" d="M308 -225l15 10q15 10 29.5 25.5t14.5 29.5q0 17 -13.5 30t-26.5 21.5t-13 12.5q0 11 18.5 23t24.5 12q12 0 37.5 -19.5t25.5 -33.5q0 -31 -24.5 -62.5t-48 -48t-29.5 -16.5q-4 0 -7 5.5t-3 10.5zM40 649q0 7 2.5 10.5t6 4t11.5 0.5q6 0 51 -1t62 -1q16 0 75 3t70 3 q42 0 77 -7.5t68.5 -25t53 -52.5t19.5 -85q0 -32 -14.5 -61t-37.5 -49t-42.5 -32t-39.5 -21q-5 -3 -10.5 -4.5t-7.5 -2.5l-2 -1l2 -1q2 0 7 -1t11 -3q160 -48 167 -230q2 -44 4 -54.5t10 -10.5h46q7 0 9.5 -3.5t2.5 -18.5q0 -8 -17 -8l-133 3q-5 0 -6.5 1t-1.5 7v58 q0 43 -2 72t-12 64.5t-27.5 57t-51 36.5t-80.5 16q-10 0 -43.5 0.5t-48.5 0.5q-11 0 -11 -11q0 -62 3.5 -168.5t7.5 -106.5h61q8 0 9.5 -2t1.5 -11q0 -11 -2 -14t-9 -3q-11 0 -51.5 1.5t-56.5 1.5q-18 0 -57 -1.5t-41 -1.5q-10 0 -12 2.5t-2 15.5q0 9 2.5 10.5t15.5 1.5h45 q5 0 5 129v133q0 345 -12 345l-55 -2q-20 0 -20 17zM207 345q0 -6 3 -8t13 -2q20 0 65 -0.5t63 -1.5q10 0 12 1q88 40 88 150q0 71 -55.5 114.5t-129.5 43.5q-18 0 -52 -2q-7 0 -7 -54v-241z" />
<glyph unicode="&#x157;" horiz-adv-x="329" d="M90 -225l14 10q15 10 30 25.5t15 29.5q0 17 -13 30t-26.5 21.5t-13.5 12.5q0 11 18.5 23t24.5 12q12 0 37.5 -19.5t25.5 -33.5q0 -31 -24.5 -62.5t-48 -48t-29.5 -16.5q-4 0 -7 5.5t-3 10.5zM25 353q0 5 3 12q2 6 3.5 6.5t11.5 1.5q42 3 105 3q10 0 11 -0.5t1 -4.5v-5 q0 -10 -0.5 -32t-0.5 -32q0 -18 1 -18t2.5 4t3 10.5t3.5 10.5q17 39 43 62t50 23q20 0 38.5 -16t18.5 -27q0 -9 -13 -25t-24 -16q-12 0 -31 15.5t-29 15.5q-57 0 -57 -204q0 -112 12 -112h63q8 0 10.5 -3t2.5 -10q0 -6 -0.5 -8t-3.5 -4t-9 -2q-8 0 -49 1t-57 1q-12 0 -41 -1 t-45 -1q-9 0 -11 2.5t-2 11.5q0 13 12 13h43q9 0 9 137q0 189 -7 189q-1 0 -31.5 -1t-32.5 -1q-3 0 -3 4z" />
<glyph unicode="&#x158;" horiz-adv-x="641" d="M186 837q0 2 6 2h9q1 0 11 -6l81 -45q4 -2 8 0l81 45q10 6 11 6h9q6 0 6 -2l-4 -6l-79 -89q-12 -13 -16 -13h-24q-4 0 -16 13l-79 89q-4 4 -4 6zM40 649q0 7 2.5 10.5t6 4t11.5 0.5q6 0 51 -1t62 -1q16 0 75 3t70 3q42 0 77 -7.5t68.5 -25t53 -52.5t19.5 -85 q0 -32 -14.5 -61t-37.5 -49t-42.5 -32t-39.5 -21q-5 -3 -10.5 -4.5t-7.5 -2.5l-2 -1l2 -1q2 0 7 -1t11 -3q160 -48 167 -230q2 -44 4 -54.5t10 -10.5h46q7 0 9.5 -3.5t2.5 -18.5q0 -8 -17 -8l-133 3q-5 0 -6.5 1t-1.5 7v58q0 43 -2 72t-12 64.5t-27.5 57t-51 36.5t-80.5 16 q-10 0 -43.5 0.5t-48.5 0.5q-11 0 -11 -11q0 -62 3.5 -168.5t7.5 -106.5h61q8 0 9.5 -2t1.5 -11q0 -11 -2 -14t-9 -3q-11 0 -51.5 1.5t-56.5 1.5q-18 0 -57 -1.5t-41 -1.5q-10 0 -12 2.5t-2 15.5q0 9 2.5 10.5t15.5 1.5h45q5 0 5 129v133q0 345 -12 345l-55 -2q-20 0 -20 17 zM207 345q0 -6 3 -8t13 -2q20 0 65 -0.5t63 -1.5q10 0 12 1q88 40 88 150q0 71 -55.5 114.5t-129.5 43.5q-18 0 -52 -2q-7 0 -7 -54v-241z" />
<glyph unicode="&#x159;" horiz-adv-x="329" d="M71 597q0 2 5 2h12l8 -6l81 -70q4 -3 8 0l81 70q6 6 8 6h12q5 0 5 -2q0 -1 -3 -6l-79 -119q-6 -10 -8.5 -11.5t-9.5 -1.5h-20q-7 0 -9.5 1.5t-8.5 11.5l-79 119q-3 5 -3 6zM25 353q0 5 3 12q2 6 3.5 6.5t11.5 1.5q42 3 105 3q10 0 11 -0.5t1 -4.5v-5q0 -10 -0.5 -32 t-0.5 -32q0 -18 1 -18t2.5 4t3 10.5t3.5 10.5q17 39 43 62t50 23q20 0 38.5 -16t18.5 -27q0 -9 -13 -25t-24 -16q-12 0 -31 15.5t-29 15.5q-57 0 -57 -204q0 -112 12 -112h63q8 0 10.5 -3t2.5 -10q0 -6 -0.5 -8t-3.5 -4t-9 -2q-8 0 -49 1t-57 1q-12 0 -41 -1t-45 -1 q-9 0 -11 2.5t-2 11.5q0 13 12 13h43q9 0 9 137q0 189 -7 189q-1 0 -31.5 -1t-32.5 -1q-3 0 -3 4z" />
<glyph unicode="&#x15a;" horiz-adv-x="528" d="M259 731q0 2 2 6l53 85q16 25 34 25q30 0 30 -25q0 -16 -14 -27l-72 -60l-8 -6h-21q-4 0 -4 2zM55 488q0 81 65 135t149 54q73 0 135 -42q10 -8 16 -8t7 10l1 11q0 9 2 11.5t13 2.5q12 0 15.5 -2.5t3.5 -11.5l-2 -63q-3 -63 -3 -94q0 -9 -3 -12.5t-13 -3.5q-13 0 -16 2.5 t-3 9.5q0 1 1.5 30t1.5 34q0 22 -51.5 60t-102.5 38q-57 0 -95 -37t-38 -92q0 -43 26.5 -73.5t65.5 -46l85.5 -34t85.5 -37.5t65.5 -58t26.5 -93q0 -88 -67.5 -140.5t-156.5 -52.5q-51 0 -99 9.5t-73 20t-26 16.5l-3.5 48l-4.5 62t-2 34q0 14 12 14h5q15 0 16 -16l6 -92 q1 -21 65.5 -42t112.5 -21q54 0 93.5 35t39.5 86q0 42 -26.5 72t-66 46.5l-85.5 36.5t-85.5 40t-66 60t-26.5 94z" />
<glyph unicode="&#x15b;" horiz-adv-x="337" d="M154 451q0 2 2 6l49 130q9 25 30 25q17 0 26.5 -8.5t9.5 -21.5q0 -10 -7 -20l-82 -107q-4 -6 -8 -6h-16q-4 0 -4 2zM35 50q0 11 11.5 24.5t18.5 13.5q3 0 5 -3.5t5.5 -10.5t8.5 -13q42 -50 93 -50q28 0 47 16.5t19 48.5t-23 51.5t-66 37.5q-2 1 -18 8t-19 8.5t-17 8 t-17.5 10t-13.5 11t-13.5 14t-9 15t-7 18.5t-1.5 22q0 48 44 80.5t100 32.5q51 0 77.5 -22.5t26.5 -44.5q0 -7 -15 -13t-25 -6q-7 0 -12.5 10t-10 22.5t-18.5 22.5t-36 10q-29 0 -51 -17t-22 -53q0 -15 5.5 -27t21 -22.5t24 -15t31.5 -15.5q33 -16 45.5 -22.5t36 -22.5 t33 -33t9.5 -38q0 -53 -41.5 -85.5t-99.5 -32.5q-46 0 -86 19.5t-40 42.5z" />
<glyph unicode="&#x15c;" horiz-adv-x="528" d="M158 731l4 6l79 89q12 13 16 13h24q4 0 16 -13l79 -89q4 -4 4 -6t-6 -2h-9q-1 0 -11 6l-81 45q-4 2 -8 0l-81 -45q-10 -6 -11 -6h-9q-6 0 -6 2zM55 488q0 81 65 135t149 54q73 0 135 -42q10 -8 16 -8t7 10l1 11q0 9 2 11.5t13 2.5q12 0 15.5 -2.5t3.5 -11.5l-2 -63 q-3 -63 -3 -94q0 -9 -3 -12.5t-13 -3.5q-13 0 -16 2.5t-3 9.5q0 1 1.5 30t1.5 34q0 22 -51.5 60t-102.5 38q-57 0 -95 -37t-38 -92q0 -43 26.5 -73.5t65.5 -46l85.5 -34t85.5 -37.5t65.5 -58t26.5 -93q0 -88 -67.5 -140.5t-156.5 -52.5q-51 0 -99 9.5t-73 20t-26 16.5 l-3.5 48l-4.5 62t-2 34q0 14 12 14h5q15 0 16 -16l6 -92q1 -21 65.5 -42t112.5 -21q54 0 93.5 35t39.5 86q0 42 -26.5 72t-66 46.5l-85.5 36.5t-85.5 40t-66 60t-26.5 94z" />
<glyph unicode="&#x15d;" horiz-adv-x="337" d="M59 461q0 1 3 6l79 119q6 10 8.5 11.5t9.5 1.5h20q7 0 9.5 -1.5t8.5 -11.5l79 -119q3 -5 3 -6q0 -2 -5 -2h-12l-8 6l-81 70q-4 3 -8 0l-81 -70q-6 -6 -8 -6h-12q-5 0 -5 2zM35 50q0 11 11.5 24.5t18.5 13.5q3 0 5 -3.5t5.5 -10.5t8.5 -13q42 -50 93 -50q28 0 47 16.5 t19 48.5t-23 51.5t-66 37.5q-2 1 -18 8t-19 8.5t-17 8t-17.5 10t-13.5 11t-13.5 14t-9 15t-7 18.5t-1.5 22q0 48 44 80.5t100 32.5q51 0 77.5 -22.5t26.5 -44.5q0 -7 -15 -13t-25 -6q-7 0 -12.5 10t-10 22.5t-18.5 22.5t-36 10q-29 0 -51 -17t-22 -53q0 -15 5.5 -27 t21 -22.5t24 -15t31.5 -15.5q33 -16 45.5 -22.5t36 -22.5t33 -33t9.5 -38q0 -53 -41.5 -85.5t-99.5 -32.5q-46 0 -86 19.5t-40 42.5z" />
<glyph unicode="&#x15e;" horiz-adv-x="528" d="M55 488q0 81 65 135t149 54q73 0 135 -42q10 -8 16 -8t7 10l1 11q0 9 2 11.5t13 2.5q12 0 15.5 -2.5t3.5 -11.5l-2 -63q-3 -63 -3 -94q0 -9 -3 -12.5t-13 -3.5q-13 0 -16 2.5t-3 9.5q0 1 1.5 30t1.5 34q0 22 -51.5 60t-102.5 38q-57 0 -95 -37t-38 -92q0 -43 26.5 -73.5 t65.5 -46l85.5 -34t85.5 -37.5t65.5 -58t26.5 -93q0 -85 -62.5 -137t-148.5 -56l-19 -50q-2 -9 0 -9l5 2l14.5 2.5t16.5 1.5q40 0 62.5 -21t22.5 -47q0 -35 -29.5 -63.5t-76.5 -28.5q-23 0 -43.5 6.5t-30 12.5t-9.5 9q0 11 8 11l9 -3q8 -4 22 -8t29 -4q34 0 50 13.5t16 42.5 q0 45 -55 45q-8 0 -16.5 -2.5t-14 -4.5t-6.5 -2q-8 0 -8 5q0 3 35 92q-50 0 -97 10t-71 20t-25 16l-3.5 48l-4.5 62t-2 34q0 14 12 14h5q15 0 16 -16l6 -92q1 -21 65.5 -42t112.5 -21q54 0 93.5 35t39.5 86q0 42 -26.5 72t-66 46.5l-85.5 36.5t-85.5 40t-66 60t-26.5 94z " />
<glyph unicode="&#x15f;" horiz-adv-x="337" d="M35 50q0 11 11.5 24.5t18.5 13.5q3 0 5 -3.5t5.5 -10.5t8.5 -13q42 -50 93 -50q28 0 47 16.5t19 48.5t-23 51.5t-66 37.5q-2 1 -18 8t-19 8.5t-17 8t-17.5 10t-13.5 11t-13.5 14t-9 15t-7 18.5t-1.5 22q0 48 44 80.5t100 32.5q51 0 77.5 -22.5t26.5 -44.5q0 -7 -15 -13 t-25 -6q-7 0 -12.5 10t-10 22.5t-18.5 22.5t-36 10q-29 0 -51 -17t-22 -53q0 -15 5.5 -27t21 -22.5t24 -15t31.5 -15.5q33 -16 45.5 -22.5t36 -22.5t33 -33t9.5 -38q0 -48 -35 -80t-87 -37l-20 -54q-2 -9 0 -9l6 2q5 1 13.5 2.5t16.5 1.5q40 0 62.5 -21t22.5 -47 q0 -35 -29.5 -63.5t-76.5 -28.5q-23 0 -43.5 6.5t-30 12.5t-9.5 9q0 11 8 11l8 -3q9 -4 23 -8t29 -4q34 0 50 13.5t16 42.5q0 45 -55 45q-8 0 -16.5 -2.5t-14 -4.5t-6.5 -2q-8 0 -8 5q0 6 36 95h-1q-46 0 -86 19.5t-40 42.5z" />
<glyph unicode="&#x160;" horiz-adv-x="528" d="M158 837q0 2 6 2h9q1 0 11 -6l81 -45q4 -2 8 0l81 45q10 6 11 6h9q6 0 6 -2l-4 -6l-79 -89q-12 -13 -16 -13h-24q-4 0 -16 13l-79 89q-4 4 -4 6zM55 488q0 81 65 135t149 54q73 0 135 -42q10 -8 16 -8t7 10l1 11q0 9 2 11.5t13 2.5q12 0 15.5 -2.5t3.5 -11.5l-2 -63 q-3 -63 -3 -94q0 -9 -3 -12.5t-13 -3.5q-13 0 -16 2.5t-3 9.5q0 1 1.5 30t1.5 34q0 22 -51.5 60t-102.5 38q-57 0 -95 -37t-38 -92q0 -43 26.5 -73.5t65.5 -46l85.5 -34t85.5 -37.5t65.5 -58t26.5 -93q0 -88 -67.5 -140.5t-156.5 -52.5q-51 0 -99 9.5t-73 20t-26 16.5 l-3.5 48l-4.5 62t-2 34q0 14 12 14h5q15 0 16 -16l6 -92q1 -21 65.5 -42t112.5 -21q54 0 93.5 35t39.5 86q0 42 -26.5 72t-66 46.5l-85.5 36.5t-85.5 40t-66 60t-26.5 94z" />
<glyph unicode="&#x161;" horiz-adv-x="337" d="M59 597q0 2 5 2h12l8 -6l81 -70q4 -3 8 0l81 70q6 6 8 6h12q5 0 5 -2q0 -1 -3 -6l-79 -119q-6 -10 -8.5 -11.5t-9.5 -1.5h-20q-7 0 -9.5 1.5t-8.5 11.5l-79 119q-3 5 -3 6zM35 50q0 11 11.5 24.5t18.5 13.5q3 0 5 -3.5t5.5 -10.5t8.5 -13q42 -50 93 -50q28 0 47 16.5 t19 48.5t-23 51.5t-66 37.5q-2 1 -18 8t-19 8.5t-17 8t-17.5 10t-13.5 11t-13.5 14t-9 15t-7 18.5t-1.5 22q0 48 44 80.5t100 32.5q51 0 77.5 -22.5t26.5 -44.5q0 -7 -15 -13t-25 -6q-7 0 -12.5 10t-10 22.5t-18.5 22.5t-36 10q-29 0 -51 -17t-22 -53q0 -15 5.5 -27 t21 -22.5t24 -15t31.5 -15.5q33 -16 45.5 -22.5t36 -22.5t33 -33t9.5 -38q0 -53 -41.5 -85.5t-99.5 -32.5q-46 0 -86 19.5t-40 42.5z" />
<glyph unicode="&#x162;" horiz-adv-x="690" d="M20 544l4 22q3 21 7 52.5t6 53.5q1 10 3 12t13 2q13 0 13 -6v-11q0 -6 108 -6h357q108 0 109 11q1 12 13 12q11 0 14 -2t3 -9q0 -2 -2 -43t-2 -87q0 -6 -3 -8t-13 -2q-15 0 -15 14q0 2 1.5 38.5t1.5 39.5q0 8 -113 8h-116q-3 0 -5 -10t-3 -30.5t-1 -36t-0.5 -44 t-0.5 -37.5l-1 -29q0 -28 -1 -72.5t-2 -94.5t-1.5 -102t-0.5 -87q0 -65 2 -65h74q8 0 9.5 -2t1.5 -11q0 -11 -2 -14t-9 -3q-9 0 -50.5 1.5t-59.5 1.5l-24 -65q-2 -9 0 -9l5 2l14.5 2.5t16.5 1.5q40 0 62.5 -21t22.5 -47q0 -35 -29.5 -63.5t-76.5 -28.5q-23 0 -43.5 6.5 t-30 12.5t-9.5 9q0 11 8 11l9 -3q8 -4 22 -8t29 -4q34 0 50 13.5t16 42.5q0 45 -55 45q-8 0 -16.5 -2.5t-14 -4.5t-6.5 -2q-8 0 -8 5t41 107q-18 0 -61.5 -1.5t-52.5 -1.5q-10 0 -12 2.5t-2 15.5q0 9 3 10.5t15 1.5h62q7 0 10.5 192.5t3.5 325.5q0 90 -7 90h-144 q-96 0 -97 -13l-7 -70q-1 -17 -13 -17q-20 0 -20 9z" />
<glyph unicode="&#x163;" horiz-adv-x="289" d="M35 344q0 5 3 8l91 127q3 5 9 5q10 0 10 -10q0 -1 -1.5 -20.5t-3 -42t-1.5 -29.5t2 -8.5t9 -1.5h95q9 0 10.5 -2t-1.5 -16q-4 -16 -13 -16h-99q-3 0 -3 -46v-192q0 -20 2 -31t13 -21t33 -10q23 0 52 8l28 8q4 0 4 -16q0 -3 -18.5 -12.5t-46.5 -20t-48 -13.5l-21 -57 q-2 -9 0 -9l6 2q5 1 13.5 2.5t16.5 1.5q40 0 62.5 -21t22.5 -47q0 -35 -29.5 -63.5t-76.5 -28.5q-23 0 -43.5 6.5t-30 12.5t-9.5 9q0 11 8 11l8 -3q9 -4 23 -8t29 -4q34 0 50 13.5t16 42.5q0 45 -55 45q-8 0 -16.5 -2.5t-14 -4.5t-6.5 -2q-8 0 -8 5q0 2 37 98 q-36 1 -51.5 21.5t-15.5 47.5q2 144 2 216q0 61 -12 61h-25q-6 0 -6 7z" />
<glyph unicode="&#x164;" horiz-adv-x="690" d="M234 834q0 2 6 2h9q1 0 11 -6l81 -45q4 -2 8 0l81 45q10 6 11 6h9q6 0 6 -2l-4 -6l-79 -89q-12 -13 -16 -13h-24q-4 0 -16 13l-79 89q-4 4 -4 6zM20 544l4 22q3 21 7 52.5t6 53.5q1 10 3 12t13 2q13 0 13 -6v-11q0 -6 108 -6h357q108 0 109 11q1 12 13 12q11 0 14 -2 t3 -9q0 -2 -2 -43t-2 -87q0 -6 -3 -8t-13 -2q-15 0 -15 14q0 2 1.5 38.5t1.5 39.5q0 8 -113 8h-116q-3 0 -5 -10t-3 -30.5t-1 -36t-0.5 -44t-0.5 -37.5l-1 -29q0 -28 -1 -72.5t-2 -94.5t-1.5 -102t-0.5 -87q0 -65 2 -65h74q8 0 9.5 -2t1.5 -11q0 -11 -2 -14t-9 -3 q-11 0 -57.5 1.5t-62.5 1.5t-63 -1.5t-58 -1.5q-10 0 -12 2.5t-2 15.5q0 9 3 10.5t15 1.5h62q7 0 10.5 192.5t3.5 325.5q0 90 -7 90h-144q-96 0 -97 -13l-7 -70q-1 -17 -13 -17q-20 0 -20 9z" />
<glyph unicode="&#x165;" horiz-adv-x="289" d="M189 491q0 2 2.5 27t5.5 60.5t5 54.5q3 33 35 33t32 -29q0 -5 -3 -13l-51 -124q-6 -12 -8 -12h-15q-3 0 -3 3zM35 344q0 5 3 8l91 127q3 5 9 5q10 0 10 -10q0 -1 -1.5 -20.5t-3 -42t-1.5 -29.5t2 -8.5t9 -1.5h95q9 0 10.5 -2t-1.5 -16q-4 -16 -13 -16h-99q-3 0 -3 -46 v-192q0 -20 2 -31t13 -21t33 -10q23 0 52 8l28 8q4 0 4 -16q0 -3 -22.5 -14t-53.5 -22t-50 -11q-39 0 -55.5 20.5t-16.5 48.5q2 144 2 216q0 61 -12 61h-25q-6 0 -6 7z" />
<glyph unicode="&#x166;" horiz-adv-x="690" d="M20 544l4 22q3 21 7 52.5t6 53.5q1 10 3 12t13 2q13 0 13 -6v-11q0 -6 108 -6h357q108 0 109 11q1 12 13 12q11 0 14 -2t3 -9q0 -2 -2 -43t-2 -87q0 -6 -3 -8t-13 -2q-15 0 -15 14q0 2 1.5 38.5t1.5 39.5q0 8 -113 8h-116q-3 0 -5 -10t-3 -30.5t-1 -36t-0.5 -44 t-0.5 -37.5l-1 -15q0 -14 -0.5 -42t-0.5 -56q0 -7 1 -8t8 -1h156q3 0 3 -12t-3 -12h-156q-7 0 -8.5 -2t-1.5 -9q0 -27 -1 -76.5t-1.5 -87t-0.5 -64.5q0 -65 2 -65h74q8 0 9.5 -2t1.5 -11q0 -11 -2 -14t-9 -3q-11 0 -57.5 1.5t-62.5 1.5t-63 -1.5t-58 -1.5q-10 0 -12 2.5 t-2 15.5q0 9 3 10.5t15 1.5h62q8 0 12 293q0 7 -1.5 9t-8.5 2h-153q-2 0 -2.5 12t2.5 12h157q7 0 7 9q1 76 1 181q0 90 -7 90h-144q-96 0 -97 -13l-7 -70q-1 -17 -13 -17q-20 0 -20 9z" />
<glyph unicode="&#x167;" horiz-adv-x="289" d="M35 344q0 5 3 8l91 127q3 5 9 5q10 0 10 -10q0 -1 -1.5 -20.5t-3 -42t-1.5 -29.5t2 -8.5t9 -1.5h95q9 0 10.5 -2t-1.5 -16q-4 -16 -13 -16h-99q-3 0 -3 -46v-68q0 -7 1 -8t8 -1h101q3 0 3 -12t-3 -12h-101q-9 0 -9 -7v-84q0 -20 2 -31t13 -21t33 -10q23 0 52 8l28 8 q4 0 4 -16q0 -3 -22.5 -14t-53.5 -22t-50 -11q-39 0 -55.5 20.5t-16.5 48.5q0 17 0.5 60t0.5 64q0 7 -10 7h-29q-2 0 -2.5 12t2.5 12h29q8 0 9.5 1t1.5 8v52q0 61 -12 61h-25q-6 0 -6 7z" />
<glyph unicode="&#x168;" horiz-adv-x="755" d="M279 748q0 7 8 26q11 27 27 41t29 14q16 0 46 -19t42 -19q22 0 36 35q2 7 12 7q7 0 7 -2q0 -8 -7 -27q-22 -58 -60 -58q-18 0 -45 18.5t-43 18.5q-23 0 -34 -31q-2 -6 -11 -6q-7 0 -7 2zM40 649q0 7 2 10.5t5 4t11 0.5q6 0 40.5 -1.5t51.5 -1.5q16 0 59.5 1.5t54.5 1.5 q10 0 12 -2.5t2 -15.5q0 -9 -3 -10.5t-15 -1.5h-65q-6 0 -10 -166.5t-4 -239.5q0 -97 48 -145.5t153 -48.5q92 0 172 54q17 11 20 23q5 17 5 136v305q0 82 -7 82h-49q-8 0 -11 0.5t-6 4t-3 10.5t2.5 10.5t6 4t11.5 0.5q6 0 44.5 -1.5t55.5 -1.5t46 1.5t32 1.5q10 0 12 -2.5 t2 -15.5q0 -9 -2.5 -10.5t-15.5 -1.5h-24q-3 0 -5 -17t-3 -51t-1.5 -69t-1.5 -88.5t-2 -91.5q-1 -57 -3 -128t-3 -113t-1 -51q0 -32 -21 -32q-10 0 -30 36.5t-32 36.5q-10 0 -46 -20q-40 -23 -96.5 -40t-109.5 -17q-59 0 -100.5 14t-64 34t-35.5 54t-16 63.5t-3 72.5 q0 11 0.5 157t0.5 191q0 59 -5 59h-37q-6 0 -8 0.5t-5 1.5t-4 4t-1 9z" />
<glyph unicode="&#x169;" horiz-adv-x="510" d="M135 498q0 7 8 26q11 27 27 41t29 14q16 0 46 -19t42 -19q22 0 36 35q2 7 12 7q7 0 7 -2q0 -8 -7 -27q-22 -58 -60 -58q-18 0 -45 18.5t-43 18.5q-23 0 -34 -31q-2 -6 -11 -6q-7 0 -7 2zM15 360q0 4 3 11q2 6 4 7t11 2q88 4 110 4q7 0 7 -6v-272q0 -67 111 -67 q91 0 91 16v118q0 186 -8 186q-1 0 -25.5 -1t-26.5 -1q-4 0 -4 4q2 17 6 19q2 1 7 1q95 5 113 5q7 0 7 -6q-1 -239 -1 -301q0 -37 3.5 -48t15.5 -11q2 0 21 3t20 3q5 0 5 -10t-2 -12t-12 -4q-102 -15 -104 -15q-10 0 -11 13q-3 38 -4 38l-26 -12q-25 -12 -64.5 -23.5 t-72.5 -11.5q-34 0 -57 11t-33.5 31t-14.5 41t-4 50v157q0 77 -12 77q-1 0 -24 -0.5t-25 -0.5q-4 0 -4 5z" />
<glyph unicode="&#x16a;" horiz-adv-x="755" d="M282 788v23q0 6 1.5 7t7.5 1h187q6 0 7 -1t1 -6v-25q0 -6 -1 -7t-7 -1h-187q-7 0 -8 1t-1 8zM40 649q0 7 2 10.5t5 4t11 0.5q6 0 40.5 -1.5t51.5 -1.5q16 0 59.5 1.5t54.5 1.5q10 0 12 -2.5t2 -15.5q0 -9 -3 -10.5t-15 -1.5h-65q-6 0 -10 -166.5t-4 -239.5 q0 -97 48 -145.5t153 -48.5q92 0 172 54q17 11 20 23q5 17 5 136v305q0 82 -7 82h-49q-8 0 -11 0.5t-6 4t-3 10.5t2.5 10.5t6 4t11.5 0.5q6 0 44.5 -1.5t55.5 -1.5t46 1.5t32 1.5q10 0 12 -2.5t2 -15.5q0 -9 -2.5 -10.5t-15.5 -1.5h-24q-3 0 -5 -17t-3 -51t-1.5 -69 t-1.5 -88.5t-2 -91.5q-1 -57 -3 -128t-3 -113t-1 -51q0 -32 -21 -32q-10 0 -30 36.5t-32 36.5q-10 0 -46 -20q-40 -23 -96.5 -40t-109.5 -17q-59 0 -100.5 14t-64 34t-35.5 54t-16 63.5t-3 72.5q0 11 0.5 157t0.5 191q0 59 -5 59h-37q-6 0 -8 0.5t-5 1.5t-4 4t-1 9z" />
<glyph unicode="&#x16b;" horiz-adv-x="510" d="M138 518v23q0 6 1.5 7t7.5 1h187q6 0 7 -1t1 -6v-25q0 -6 -1 -7t-7 -1h-187q-7 0 -8 1t-1 8zM15 360q0 4 3 11q2 6 4 7t11 2q88 4 110 4q7 0 7 -6v-272q0 -67 111 -67q91 0 91 16v118q0 186 -8 186q-1 0 -25.5 -1t-26.5 -1q-4 0 -4 4q2 17 6 19q2 1 7 1q95 5 113 5 q7 0 7 -6q-1 -239 -1 -301q0 -37 3.5 -48t15.5 -11q2 0 21 3t20 3q5 0 5 -10t-2 -12t-12 -4q-102 -15 -104 -15q-10 0 -11 13q-3 38 -4 38l-26 -12q-25 -12 -64.5 -23.5t-72.5 -11.5q-34 0 -57 11t-33.5 31t-14.5 41t-4 50v157q0 77 -12 77q-1 0 -24 -0.5t-25 -0.5 q-4 0 -4 5z" />
</font>
</defs>
</svg>
